osu file format v14

[General]
AudioFilename: audio.mp3
AudioLeadIn: 0
PreviewTime: 58859
Countdown: 0
SampleSet: Soft
StackLeniency: 0.5
Mode: 3
LetterboxInBreaks: 0
SpecialStyle: 0
WidescreenStoryboard: 1

[Editor]
DistanceSpacing: 0.8
BeatDivisor: 4
GridSize: 16
TimelineZoom: 2.36

[Metadata]
Title:I4U
TitleUnicode:I4U
Artist:MICHI
ArtistUnicode:MICHI
Creator:WMG Fan
Version:Normal(4k)
Source:TV動畫【つぐまま】ED
Tags:つぐまま MICHI I4U
BeatmapID:1355904
BeatmapSetID:622786

[Difficulty]
HPDrainRate:6
CircleSize:4
OverallDifficulty:7
ApproachRate:7
SliderMultiplier:1.4
SliderTickRate:1

[Events]
//Background and Video events
0,0,"798980-1.png",0,0
//Break Periods
2,159244,167033
//Storyboard Layer 0 (Background)
//Storyboard Layer 1 (Fail)
//Storyboard Layer 2 (Pass)
//Storyboard Layer 3 (Foreground)
//Storyboard Sound Samples

[TimingPoints]
215,1071.42857142857,4,2,1,90,1,0
215,-34.4827586206897,4,2,1,90,0,0
12378,370.37037037037,4,2,1,90,1,0
12378,-100,4,2,1,90,0,0
59785,-100,4,2,1,90,0,1
71614,-100,4,2,1,90,0,0
71637,-100,4,2,1,90,0,1
89415,-100,4,2,1,90,0,0
133859,-100,4,2,1,90,0,1
145688,-100,4,2,1,90,0,0
145711,-100,4,2,1,90,0,1
157563,-100,4,2,1,90,0,0
224229,-100,4,2,1,90,0,1
243489,-100,4,2,1,90,0,0

[HitObjects]
64,192,1018,5,0,0:0:0:0:
320,192,1286,1,0,0:0:0:0:
448,192,1286,1,0,0:0:0:0:
64,192,1554,1,0,0:0:0:0:
192,192,1822,1,0,0:0:0:0:
320,192,2089,1,0,0:0:0:0:
64,192,2357,1,0,0:0:0:0:
192,192,2357,1,0,0:0:0:0:
448,192,2357,128,0,3161:0:0:0:0:
320,192,3161,5,0,0:0:0:0:
64,192,3161,1,0,0:0:0:0:
192,192,3429,128,0,4232:0:0:0:0:
320,192,4232,1,0,0:0:0:0:
192,192,4500,1,0,0:0:0:0:
320,192,4768,1,0,0:0:0:0:
448,192,5036,1,0,0:0:0:0:
64,192,5572,1,0,0:0:0:0:
64,192,5839,1,0,0:0:0:0:
448,192,6107,1,0,0:0:0:0:
448,192,6375,1,0,0:0:0:0:
192,192,6643,1,0,0:0:0:0:
320,192,6643,1,0,0:0:0:0:
64,192,7447,128,0,7714:0:0:0:0:
448,192,7714,128,0,8250:0:0:0:0:
320,192,8250,128,0,8786:0:0:0:0:
192,192,8786,128,0,12378:0:0:0:0:
64,192,8786,128,0,12378:0:0:0:0:
448,192,12378,1,0,0:0:0:0:
448,192,12748,1,0,0:0:0:0:
192,192,12748,1,0,0:0:0:0:
64,192,13118,1,0,0:0:0:0:
448,192,13303,1,0,0:0:0:0:
64,192,13489,1,0,0:0:0:0:
448,192,13674,1,0,0:0:0:0:
64,192,14044,128,0,14229:0:0:0:0:
192,192,14229,128,0,14415:0:0:0:0:
320,192,14415,128,0,14600:0:0:0:0:
64,192,14785,128,0,17748:0:0:0:0:
192,192,14785,1,0,0:0:0:0:
320,192,14970,1,0,0:0:0:0:
448,192,15155,1,0,0:0:0:0:
192,192,15340,1,0,0:0:0:0:
320,192,15618,1,0,0:0:0:0:
192,192,15896,1,0,0:0:0:0:
192,192,16266,1,0,0:0:0:0:
448,192,16452,1,0,0:0:0:0:
320,192,16637,1,0,0:0:0:0:
192,192,16822,1,0,0:0:0:0:
448,192,17100,1,0,0:0:0:0:
320,192,17377,1,0,0:0:0:0:
448,192,17748,128,0,18118:0:0:0:0:
64,192,18303,1,0,0:0:0:0:
320,192,18303,1,0,0:0:0:0:
192,192,18674,1,0,0:0:0:0:
448,192,19044,1,0,0:0:0:0:
192,192,19229,1,0,0:0:0:0:
448,192,19415,1,0,0:0:0:0:
192,192,19600,1,0,0:0:0:0:
448,192,20155,1,0,0:0:0:0:
64,192,20155,1,0,0:0:0:0:
192,192,20526,128,0,20803:0:0:0:0:
320,192,20803,128,0,21081:0:0:0:0:
448,192,21081,128,0,24229:0:0:0:0:
64,192,21637,1,0,0:0:0:0:
192,192,22007,1,0,0:0:0:0:
320,192,22377,1,0,0:0:0:0:
64,192,22563,1,0,0:0:0:0:
192,192,23303,1,0,0:0:0:0:
64,192,23489,1,0,0:0:0:0:
64,192,23674,1,0,0:0:0:0:
320,192,23859,1,0,0:0:0:0:
320,192,24044,1,0,0:0:0:0:
64,192,24229,1,0,0:0:0:0:
192,192,24229,1,0,0:0:0:0:
64,192,24600,1,0,0:0:0:0:
448,192,24970,1,0,0:0:0:0:
64,192,24970,1,0,0:0:0:0:
320,192,25340,1,0,0:0:0:0:
448,192,25711,1,0,0:0:0:0:
192,192,25711,1,0,0:0:0:0:
320,192,26081,1,0,0:0:0:0:
192,192,26452,1,0,0:0:0:0:
64,192,26452,1,0,0:0:0:0:
64,192,26822,1,0,0:0:0:0:
448,192,27192,1,0,0:0:0:0:
192,192,27192,1,0,0:0:0:0:
320,192,27563,1,0,0:0:0:0:
64,192,27933,1,0,0:0:0:0:
192,192,27933,1,0,0:0:0:0:
320,192,28303,1,0,0:0:0:0:
192,192,28674,1,0,0:0:0:0:
448,192,28674,1,0,0:0:0:0:
64,192,29044,1,0,0:0:0:0:
320,192,29044,1,0,0:0:0:0:
192,192,29415,1,0,0:0:0:0:
64,192,29785,1,0,0:0:0:0:
192,192,29877,1,0,0:0:0:0:
320,192,29970,1,0,0:0:0:0:
448,192,30063,1,0,0:0:0:0:
64,192,30155,1,0,0:0:0:0:
64,192,30526,1,0,0:0:0:0:
448,192,30526,1,0,0:0:0:0:
320,192,30896,1,0,0:0:0:0:
448,192,31266,1,0,0:0:0:0:
192,192,31266,1,0,0:0:0:0:
320,192,31637,1,0,0:0:0:0:
448,192,31637,1,0,0:0:0:0:
192,192,32007,1,0,0:0:0:0:
64,192,32007,1,0,0:0:0:0:
192,192,32377,1,0,0:0:0:0:
64,192,32748,1,0,0:0:0:0:
320,192,32748,1,0,0:0:0:0:
320,192,33118,1,0,0:0:0:0:
192,192,33118,1,0,0:0:0:0:
448,192,33489,1,0,0:0:0:0:
320,192,33859,1,0,0:0:0:0:
64,192,34044,128,0,34229:0:0:0:0:
192,192,34229,128,0,34415:0:0:0:0:
320,192,34415,128,0,34785:0:0:0:0:
448,192,34785,128,0,34970:0:0:0:0:
320,192,34970,128,0,35155:0:0:0:0:
192,192,35155,128,0,35711:0:0:0:0:
64,192,35711,1,0,0:0:0:0:
448,192,35711,1,0,0:0:0:0:
192,192,36081,1,0,0:0:0:0:
448,192,36081,1,0,0:0:0:0:
320,192,36081,1,0,0:0:0:0:
64,192,36452,1,0,0:0:0:0:
448,192,36452,1,0,0:0:0:0:
192,192,36637,1,0,0:0:0:0:
64,192,36637,1,0,0:0:0:0:
448,192,37007,1,0,0:0:0:0:
320,192,37007,1,0,0:0:0:0:
64,192,37377,1,0,0:0:0:0:
192,192,37377,1,0,0:0:0:0:
448,192,37377,1,0,0:0:0:0:
448,192,37748,1,0,0:0:0:0:
192,192,37748,1,0,0:0:0:0:
320,192,37933,1,0,0:0:0:0:
192,192,37933,1,0,0:0:0:0:
64,192,37933,128,0,40155:0:0:0:0:
192,192,38489,128,0,40155:0:0:0:0:
448,192,40155,1,0,0:0:0:0:
320,192,40340,1,0,0:0:0:0:
64,192,40526,1,0,0:0:0:0:
192,192,40526,1,0,0:0:0:0:
448,192,40526,1,0,0:0:0:0:
64,192,40896,1,0,0:0:0:0:
448,192,40896,1,0,0:0:0:0:
192,192,41081,1,0,0:0:0:0:
448,192,41081,1,0,0:0:0:0:
64,192,41452,1,0,0:0:0:0:
192,192,41452,1,0,0:0:0:0:
64,192,41822,1,0,0:0:0:0:
192,192,41822,1,0,0:0:0:0:
448,192,41822,1,0,0:0:0:0:
448,192,42192,1,0,0:0:0:0:
320,192,42192,1,0,0:0:0:0:
64,192,42377,1,0,0:0:0:0:
320,192,42377,1,0,0:0:0:0:
448,192,42377,128,0,44229:0:0:0:0:
64,192,43026,128,0,44229:0:0:0:0:
192,192,44229,128,0,44600:0:0:0:0:
64,192,44600,1,0,0:0:0:0:
448,192,44600,1,0,0:0:0:0:
192,192,44785,1,0,0:0:0:0:
448,192,44970,1,0,0:0:0:0:
320,192,44970,1,0,0:0:0:0:
64,192,45340,1,0,0:0:0:0:
320,192,45340,1,0,0:0:0:0:
192,192,45526,1,0,0:0:0:0:
448,192,45896,1,0,0:0:0:0:
192,192,45896,1,0,0:0:0:0:
192,192,46266,1,0,0:0:0:0:
64,192,46266,1,0,0:0:0:0:
64,192,46822,1,0,0:0:0:0:
320,192,46822,1,0,0:0:0:0:
448,192,47192,1,0,0:0:0:0:
320,192,47192,1,0,0:0:0:0:
320,192,47563,1,0,0:0:0:0:
192,192,47563,1,0,0:0:0:0:
64,192,47933,128,0,48211:0:0:0:0:
192,192,48211,128,0,48489:0:0:0:0:
320,192,48489,128,0,48674:0:0:0:0:
192,192,48674,128,0,48952:0:0:0:0:
320,192,48952,128,0,49229:0:0:0:0:
448,192,49229,128,0,49415:0:0:0:0:
320,192,49415,128,0,49692:0:0:0:0:
192,192,49692,128,0,49970:0:0:0:0:
320,192,49970,128,0,50155:0:0:0:0:
64,192,50155,1,0,0:0:0:0:
448,192,50155,1,0,0:0:0:0:
448,192,50526,1,0,0:0:0:0:
320,192,50526,1,0,0:0:0:0:
64,192,50896,1,0,0:0:0:0:
320,192,50896,1,0,0:0:0:0:
448,192,51452,1,0,0:0:0:0:
320,192,51452,1,0,0:0:0:0:
320,192,51637,128,0,53303:0:0:0:0:
448,192,51637,128,0,53303:0:0:0:0:
192,192,51822,1,0,0:0:0:0:
64,192,52007,1,0,0:0:0:0:
192,192,52192,1,0,0:0:0:0:
64,192,52377,1,0,0:0:0:0:
192,192,52563,1,0,0:0:0:0:
192,192,52748,1,0,0:0:0:0:
64,192,52933,1,0,0:0:0:0:
64,192,53118,1,0,0:0:0:0:
192,192,53303,1,0,0:0:0:0:
64,192,53489,1,0,0:0:0:0:
320,192,53489,1,0,0:0:0:0:
192,192,53674,1,0,0:0:0:0:
448,192,53859,128,0,54415:0:0:0:0:
320,192,53859,128,0,54415:0:0:0:0:
64,192,54415,128,0,54970:0:0:0:0:
192,192,54415,128,0,54970:0:0:0:0:
320,192,54970,1,0,0:0:0:0:
448,192,54970,128,0,56822:0:0:0:0:
320,192,55526,1,0,0:0:0:0:
64,192,55711,1,0,0:0:0:0:
320,192,55896,1,0,0:0:0:0:
64,192,56081,1,0,0:0:0:0:
320,192,56266,1,0,0:0:0:0:
64,192,56452,1,0,0:0:0:0:
320,192,56637,1,0,0:0:0:0:
64,192,56822,1,0,0:0:0:0:
320,192,57007,1,0,0:0:0:0:
64,192,57192,1,0,0:0:0:0:
320,192,57377,1,0,0:0:0:0:
64,192,57563,1,0,0:0:0:0:
320,192,57748,1,0,0:0:0:0:
64,192,57933,1,0,0:0:0:0:
320,192,58118,1,0,0:0:0:0:
192,192,58303,1,0,0:0:0:0:
64,192,58489,128,0,58674:0:0:0:0:
192,192,58489,128,0,58674:0:0:0:0:
448,192,58489,1,0,0:0:0:0:
448,192,58859,1,0,0:0:0:0:
192,192,59044,1,0,0:0:0:0:
320,192,59044,1,0,0:0:0:0:
192,192,59229,1,0,0:0:0:0:
64,192,59229,1,0,0:0:0:0:
320,192,59415,1,0,0:0:0:0:
448,192,59600,1,0,0:0:0:0:
192,192,59785,1,0,0:0:0:0:
64,192,59785,128,0,60340:0:0:0:0:
448,192,59785,1,0,0:0:0:0:
192,192,60340,1,0,0:0:0:0:
320,192,60340,128,0,61081:0:0:0:0:
64,192,60526,128,0,61081:0:0:0:0:
192,192,60526,1,0,0:0:0:0:
192,192,61081,1,0,0:0:0:0:
448,192,61266,1,0,0:0:0:0:
320,192,61266,1,0,0:0:0:0:
192,192,61452,1,0,0:0:0:0:
320,192,61637,1,0,0:0:0:0:
448,192,61637,1,0,0:0:0:0:
192,192,62007,1,0,0:0:0:0:
320,192,62007,1,0,0:0:0:0:
64,192,62192,1,0,0:0:0:0:
64,192,62377,1,0,0:0:0:0:
448,192,62377,1,0,0:0:0:0:
320,192,62563,1,0,0:0:0:0:
64,192,62748,128,0,63303:0:0:0:0:
192,192,62748,1,0,0:0:0:0:
320,192,63303,1,0,0:0:0:0:
192,192,63303,128,0,64229:0:0:0:0:
448,192,63489,128,0,64044:0:0:0:0:
64,192,64044,1,0,0:0:0:0:
64,192,64229,1,0,0:0:0:0:
320,192,64229,1,0,0:0:0:0:
448,192,64415,1,0,0:0:0:0:
64,192,64600,1,0,0:0:0:0:
192,192,64600,1,0,0:0:0:0:
320,192,64600,128,0,65155:0:0:0:0:
64,192,65155,1,0,0:0:0:0:
192,192,65340,1,0,0:0:0:0:
320,192,65340,1,0,0:0:0:0:
448,192,65526,1,0,0:0:0:0:
192,192,65711,128,0,65989:0:0:0:0:
320,192,65989,128,0,66266:0:0:0:0:
448,192,66266,128,0,66452:0:0:0:0:
192,192,66452,128,0,66729:0:0:0:0:
320,192,66452,1,0,0:0:0:0:
64,192,66729,128,0,67007:0:0:0:0:
192,192,67007,128,0,67192:0:0:0:0:
320,192,67192,128,0,67470:0:0:0:0:
448,192,67470,128,0,67748:0:0:0:0:
192,192,67748,128,0,68303:0:0:0:0:
320,192,67748,1,0,0:0:0:0:
64,192,68303,1,0,0:0:0:0:
192,192,68489,1,0,0:0:0:0:
320,192,68581,1,0,0:0:0:0:
448,192,68674,128,0,69229:0:0:0:0:
320,192,69229,1,0,0:0:0:0:
192,192,69229,1,0,0:0:0:0:
192,192,69415,1,0,0:0:0:0:
448,192,69415,1,0,0:0:0:0:
320,192,69600,1,0,0:0:0:0:
64,192,69785,1,0,0:0:0:0:
448,192,69785,1,0,0:0:0:0:
192,192,69970,1,0,0:0:0:0:
64,192,69970,128,0,70711:0:0:0:0:
448,192,69970,128,0,70711:0:0:0:0:
320,192,70711,1,0,0:0:0:0:
64,192,70896,1,0,0:0:0:0:
448,192,70896,1,0,0:0:0:0:
320,192,71081,1,0,0:0:0:0:
448,192,71266,1,0,0:0:0:0:
64,192,71266,1,0,0:0:0:0:
320,192,71452,1,0,0:0:0:0:
192,192,71452,1,0,0:0:0:0:
64,192,71637,128,0,72933:0:0:0:0:
192,192,71637,1,0,0:0:0:0:
320,192,71637,128,0,72192:0:0:0:0:
192,192,72192,1,0,0:0:0:0:
448,192,72377,128,0,72933:0:0:0:0:
320,192,72377,1,0,0:0:0:0:
320,192,72933,1,0,0:0:0:0:
192,192,73118,1,0,0:0:0:0:
448,192,73118,1,0,0:0:0:0:
448,192,73303,1,0,0:0:0:0:
320,192,73303,1,0,0:0:0:0:
192,192,73489,1,0,0:0:0:0:
64,192,73489,128,0,73859:0:0:0:0:
320,192,73859,1,0,0:0:0:0:
192,192,73859,1,0,0:0:0:0:
64,192,74044,1,0,0:0:0:0:
448,192,74229,1,0,0:0:0:0:
320,192,74229,1,0,0:0:0:0:
64,192,74415,1,0,0:0:0:0:
448,192,74600,128,0,76081:0:0:0:0:
192,192,74600,1,0,0:0:0:0:
320,192,74600,1,0,0:0:0:0:
192,192,75155,1,0,0:0:0:0:
192,192,75340,128,0,76081:0:0:0:0:
320,192,75340,1,0,0:0:0:0:
320,192,76081,1,0,0:0:0:0:
64,192,76081,1,0,0:0:0:0:
192,192,76266,1,0,0:0:0:0:
448,192,76266,1,0,0:0:0:0:
448,192,76452,1,0,0:0:0:0:
64,192,76452,128,0,77007:0:0:0:0:
448,192,77007,1,0,0:0:0:0:
320,192,77007,1,0,0:0:0:0:
320,192,77192,1,0,0:0:0:0:
192,192,77192,1,0,0:0:0:0:
192,192,77377,1,0,0:0:0:0:
64,192,77377,1,0,0:0:0:0:
320,192,77563,128,0,78674:0:0:0:0:
448,192,77563,128,0,78674:0:0:0:0:
192,192,78859,1,0,0:0:0:0:
64,192,78859,1,0,0:0:0:0:
64,192,79044,128,0,80340:0:0:0:0:
192,192,79044,128,0,80340:0:0:0:0:
320,192,80340,1,0,0:0:0:0:
448,192,80526,1,0,0:0:0:0:
192,192,80711,1,0,0:0:0:0:
320,192,80896,1,0,0:0:0:0:
64,192,80896,1,0,0:0:0:0:
192,192,81081,1,0,0:0:0:0:
64,192,81452,1,0,0:0:0:0:
448,192,81452,1,0,0:0:0:0:
320,192,81822,1,0,0:0:0:0:
64,192,81822,1,0,0:0:0:0:
192,192,82192,1,0,0:0:0:0:
448,192,82192,1,0,0:0:0:0:
64,192,82377,128,0,83303:0:0:0:0:
320,192,83303,1,0,0:0:0:0:
192,192,83489,1,0,0:0:0:0:
448,192,83489,1,0,0:0:0:0:
64,192,83766,1,0,0:0:0:0:
320,192,84044,1,0,0:0:0:0:
448,192,84044,1,0,0:0:0:0:
192,192,84229,1,0,0:0:0:0:
192,192,84600,1,0,0:0:0:0:
64,192,84970,1,0,0:0:0:0:
192,192,84970,1,0,0:0:0:0:
320,192,84970,1,0,0:0:0:0:
448,192,84970,1,0,0:0:0:0:
448,192,85711,1,0,0:0:0:0:
192,192,86359,1,0,0:0:0:0:
320,192,86452,1,0,0:0:0:0:
448,192,86544,1,0,0:0:0:0:
448,192,86822,1,0,0:0:0:0:
320,192,87192,1,0,0:0:0:0:
448,192,87377,1,0,0:0:0:0:
320,192,87748,1,0,0:0:0:0:
64,192,87933,1,0,0:0:0:0:
192,192,88118,1,0,0:0:0:0:
448,192,88303,1,0,0:0:0:0:
320,192,89044,1,0,0:0:0:0:
192,192,89229,1,0,0:0:0:0:
448,192,89415,1,0,0:0:0:0:
192,192,89785,1,0,0:0:0:0:
64,192,90155,1,0,0:0:0:0:
192,192,90155,1,0,0:0:0:0:
448,192,90340,1,0,0:0:0:0:
192,192,90340,1,0,0:0:0:0:
320,192,90711,1,0,0:0:0:0:
64,192,90896,1,0,0:0:0:0:
192,192,91081,1,0,0:0:0:0:
448,192,91266,1,0,0:0:0:0:
192,192,91452,1,0,0:0:0:0:
64,192,91637,1,0,0:0:0:0:
320,192,91822,1,0,0:0:0:0:
448,192,92007,1,0,0:0:0:0:
64,192,92377,1,0,0:0:0:0:
448,192,92748,1,0,0:0:0:0:
320,192,93118,1,0,0:0:0:0:
192,192,93303,1,0,0:0:0:0:
320,192,93674,1,0,0:0:0:0:
192,192,93859,1,0,0:0:0:0:
64,192,94044,1,0,0:0:0:0:
448,192,94229,1,0,0:0:0:0:
320,192,94415,1,0,0:0:0:0:
192,192,94970,1,0,0:0:0:0:
320,192,95155,1,0,0:0:0:0:
448,192,95340,1,0,0:0:0:0:
448,192,95711,1,0,0:0:0:0:
64,192,96081,1,0,0:0:0:0:
448,192,96266,1,0,0:0:0:0:
320,192,96637,1,0,0:0:0:0:
192,192,96822,1,0,0:0:0:0:
320,192,97007,1,0,0:0:0:0:
192,192,97192,1,0,0:0:0:0:
64,192,97377,1,0,0:0:0:0:
448,192,97933,1,0,0:0:0:0:
448,192,98489,1,0,0:0:0:0:
192,192,98489,1,0,0:0:0:0:
448,192,98859,1,0,0:0:0:0:
192,192,98859,1,0,0:0:0:0:
320,192,99229,1,0,0:0:0:0:
192,192,99415,1,0,0:0:0:0:
64,192,99600,1,0,0:0:0:0:
448,192,99600,1,0,0:0:0:0:
192,192,99970,1,0,0:0:0:0:
320,192,100155,1,0,0:0:0:0:
448,192,100340,1,0,0:0:0:0:
64,192,100340,1,0,0:0:0:0:
192,192,101081,1,0,0:0:0:0:
320,192,101266,1,0,0:0:0:0:
64,192,101452,1,0,0:0:0:0:
192,192,101637,1,0,0:0:0:0:
448,192,101637,1,0,0:0:0:0:
320,192,101822,128,0,102748:0:0:0:0:
64,192,102192,1,0,0:0:0:0:
448,192,102748,1,0,0:0:0:0:
320,192,102933,1,0,0:0:0:0:
192,192,103118,1,0,0:0:0:0:
448,192,103118,1,0,0:0:0:0:
64,192,103303,128,0,104229:0:0:0:0:
320,192,103674,1,0,0:0:0:0:
320,192,104229,1,0,0:0:0:0:
320,192,104415,1,0,0:0:0:0:
192,192,104600,1,0,0:0:0:0:
448,192,104600,1,0,0:0:0:0:
448,192,104785,1,0,0:0:0:0:
64,192,104970,1,0,0:0:0:0:
320,192,104970,1,0,0:0:0:0:
320,192,105155,1,0,0:0:0:0:
192,192,105340,1,0,0:0:0:0:
64,192,105340,1,0,0:0:0:0:
448,192,105526,1,0,0:0:0:0:
192,192,105896,1,0,0:0:0:0:
64,192,105896,1,0,0:0:0:0:
320,192,106081,1,0,0:0:0:0:
192,192,106081,1,0,0:0:0:0:
64,192,106266,128,0,106637:0:0:0:0:
320,192,106822,1,0,0:0:0:0:
192,192,107007,1,0,0:0:0:0:
192,192,107377,1,0,0:0:0:0:
64,192,107563,1,0,0:0:0:0:
320,192,107748,1,0,0:0:0:0:
448,192,107748,1,0,0:0:0:0:
320,192,108118,1,0,0:0:0:0:
448,192,108303,1,0,0:0:0:0:
192,192,108489,1,0,0:0:0:0:
64,192,108489,1,0,0:0:0:0:
64,192,108859,1,0,0:0:0:0:
320,192,109044,1,0,0:0:0:0:
320,192,109229,1,0,0:0:0:0:
448,192,109785,1,0,0:0:0:0:
320,192,110155,1,0,0:0:0:0:
192,192,110526,1,0,0:0:0:0:
64,192,110896,1,0,0:0:0:0:
192,192,111266,1,0,0:0:0:0:
320,192,111637,1,0,0:0:0:0:
448,192,112007,1,0,0:0:0:0:
320,192,112377,1,0,0:0:0:0:
448,192,112563,128,0,114229:0:0:0:0:
192,192,112748,1,0,0:0:0:0:
320,192,112933,1,0,0:0:0:0:
64,192,113118,1,0,0:0:0:0:
192,192,113489,1,0,0:0:0:0:
320,192,113859,1,0,0:0:0:0:
192,192,114229,1,0,0:0:0:0:
64,192,114600,1,0,0:0:0:0:
192,192,114970,1,0,0:0:0:0:
320,192,115340,1,0,0:0:0:0:
448,192,115711,1,0,0:0:0:0:
320,192,116081,1,0,0:0:0:0:
192,192,116452,1,0,0:0:0:0:
64,192,116822,1,0,0:0:0:0:
64,192,117007,128,0,118303:0:0:0:0:
192,192,117192,1,0,0:0:0:0:
448,192,117377,1,0,0:0:0:0:
320,192,117563,1,0,0:0:0:0:
448,192,117933,1,0,0:0:0:0:
320,192,118303,1,0,0:0:0:0:
192,192,118674,1,0,0:0:0:0:
320,192,118859,1,0,0:0:0:0:
448,192,119044,128,0,119415:0:0:0:0:
192,192,119415,1,0,0:0:0:0:
320,192,119600,1,0,0:0:0:0:
448,192,119600,1,0,0:0:0:0:
448,192,119970,1,0,0:0:0:0:
320,192,120340,128,0,120896:0:0:0:0:
64,192,120340,128,0,120896:0:0:0:0:
448,192,120896,1,0,0:0:0:0:
192,192,120896,1,0,0:0:0:0:
448,192,121266,1,0,0:0:0:0:
320,192,121637,1,0,0:0:0:0:
64,192,121637,1,0,0:0:0:0:
448,192,122007,1,0,0:0:0:0:
64,192,122007,1,0,0:0:0:0:
448,192,122285,1,0,0:0:0:0:
192,192,122285,1,0,0:0:0:0:
448,192,122563,1,0,0:0:0:0:
320,192,122563,1,0,0:0:0:0:
448,192,122748,1,0,0:0:0:0:
64,192,122748,1,0,0:0:0:0:
64,192,123026,1,0,0:0:0:0:
320,192,123026,1,0,0:0:0:0:
64,192,123303,1,0,0:0:0:0:
192,192,123303,1,0,0:0:0:0:
448,192,123489,1,0,0:0:0:0:
64,192,123489,1,0,0:0:0:0:
192,192,123766,1,0,0:0:0:0:
320,192,123766,1,0,0:0:0:0:
64,192,124044,1,0,0:0:0:0:
448,192,124229,1,0,0:0:0:0:
192,192,124229,1,0,0:0:0:0:
448,192,124600,1,0,0:0:0:0:
64,192,124600,1,0,0:0:0:0:
64,192,124970,128,0,125340:0:0:0:0:
320,192,124970,1,0,0:0:0:0:
192,192,125526,1,0,0:0:0:0:
320,192,125526,1,0,0:0:0:0:
448,192,125711,128,0,127377:0:0:0:0:
64,192,125711,1,0,0:0:0:0:
192,192,126081,1,0,0:0:0:0:
64,192,126081,1,0,0:0:0:0:
64,192,126452,1,0,0:0:0:0:
320,192,126452,1,0,0:0:0:0:
192,192,126822,1,0,0:0:0:0:
320,192,126822,1,0,0:0:0:0:
320,192,127192,1,0,0:0:0:0:
192,192,127377,1,0,0:0:0:0:
320,192,127563,1,0,0:0:0:0:
448,192,127748,1,0,0:0:0:0:
192,192,127933,1,0,0:0:0:0:
64,192,127933,1,0,0:0:0:0:
448,192,127933,1,0,0:0:0:0:
192,192,128489,1,0,0:0:0:0:
448,192,128489,1,0,0:0:0:0:
320,192,128489,1,0,0:0:0:0:
64,192,129044,128,0,132377:0:0:0:0:
192,192,129044,1,0,0:0:0:0:
320,192,129044,1,0,0:0:0:0:
192,192,129600,1,0,0:0:0:0:
448,192,129785,1,0,0:0:0:0:
192,192,129970,1,0,0:0:0:0:
448,192,130155,1,0,0:0:0:0:
192,192,130340,1,0,0:0:0:0:
448,192,130526,1,0,0:0:0:0:
192,192,130711,1,0,0:0:0:0:
448,192,130896,1,0,0:0:0:0:
192,192,131081,1,0,0:0:0:0:
448,192,131266,1,0,0:0:0:0:
192,192,131452,1,0,0:0:0:0:
448,192,131637,1,0,0:0:0:0:
192,192,131822,1,0,0:0:0:0:
448,192,132007,1,0,0:0:0:0:
192,192,132192,1,0,0:0:0:0:
448,192,132377,1,0,0:0:0:0:
192,192,132563,128,0,132748:0:0:0:0:
64,192,132933,1,0,0:0:0:0:
448,192,132933,1,0,0:0:0:0:
320,192,133118,1,0,0:0:0:0:
192,192,133303,1,0,0:0:0:0:
320,192,133489,1,0,0:0:0:0:
64,192,133489,1,0,0:0:0:0:
192,192,133674,1,0,0:0:0:0:
320,192,133859,128,0,134229:0:0:0:0:
64,192,133859,128,0,135340:0:0:0:0:
192,192,133859,1,0,0:0:0:0:
320,192,134415,1,0,0:0:0:0:
448,192,134600,128,0,134970:0:0:0:0:
320,192,135155,1,0,0:0:0:0:
192,192,135340,1,0,0:0:0:0:
320,192,135526,1,0,0:0:0:0:
448,192,135711,128,0,136081:0:0:0:0:
192,192,136081,1,0,0:0:0:0:
64,192,136081,1,0,0:0:0:0:
320,192,136266,1,0,0:0:0:0:
192,192,136452,1,0,0:0:0:0:
448,192,136452,1,0,0:0:0:0:
64,192,136637,1,0,0:0:0:0:
320,192,136822,128,0,137192:0:0:0:0:
192,192,136822,128,0,138118:0:0:0:0:
448,192,137377,1,0,0:0:0:0:
64,192,137563,128,0,137933:0:0:0:0:
320,192,138118,1,0,0:0:0:0:
64,192,138303,1,0,0:0:0:0:
320,192,138489,1,0,0:0:0:0:
192,192,138674,128,0,139044:0:0:0:0:
320,192,139229,1,0,0:0:0:0:
192,192,139415,1,0,0:0:0:0:
448,192,139415,1,0,0:0:0:0:
64,192,139600,1,0,0:0:0:0:
448,192,139785,1,0,0:0:0:0:
64,192,139785,1,0,0:0:0:0:
448,192,140063,1,0,0:0:0:0:
192,192,140063,1,0,0:0:0:0:
448,192,140340,1,0,0:0:0:0:
320,192,140340,1,0,0:0:0:0:
448,192,140526,1,0,0:0:0:0:
64,192,140526,1,0,0:0:0:0:
64,192,140803,1,0,0:0:0:0:
320,192,140803,1,0,0:0:0:0:
64,192,141081,1,0,0:0:0:0:
192,192,141081,1,0,0:0:0:0:
448,192,141266,1,0,0:0:0:0:
64,192,141266,1,0,0:0:0:0:
448,192,141544,1,0,0:0:0:0:
192,192,141544,1,0,0:0:0:0:
448,192,141822,128,0,142377:0:0:0:0:
320,192,141822,1,0,0:0:0:0:
64,192,142563,1,0,0:0:0:0:
192,192,142655,1,0,0:0:0:0:
448,192,142748,128,0,143303:0:0:0:0:
320,192,143303,1,0,0:0:0:0:
320,192,143489,1,0,0:0:0:0:
64,192,143489,1,0,0:0:0:0:
192,192,143674,1,0,0:0:0:0:
448,192,143859,1,0,0:0:0:0:
192,192,143859,1,0,0:0:0:0:
320,192,144044,128,0,144600:0:0:0:0:
64,192,144044,1,0,0:0:0:0:
192,192,144600,1,0,0:0:0:0:
448,192,144785,1,0,0:0:0:0:
320,192,144970,1,0,0:0:0:0:
64,192,144970,1,0,0:0:0:0:
192,192,145155,1,0,0:0:0:0:
448,192,145340,1,0,0:0:0:0:
320,192,145340,1,0,0:0:0:0:
192,192,145526,1,0,0:0:0:0:
64,192,145711,128,0,146081:0:0:0:0:
320,192,145711,128,0,147192:0:0:0:0:
192,192,145711,1,0,0:0:0:0:
192,192,146266,1,0,0:0:0:0:
448,192,146452,128,0,146822:0:0:0:0:
448,192,147007,1,0,0:0:0:0:
192,192,147192,1,0,0:0:0:0:
64,192,147377,1,0,0:0:0:0:
448,192,147377,1,0,0:0:0:0:
320,192,147563,1,0,0:0:0:0:
448,192,147933,1,0,0:0:0:0:
64,192,147933,1,0,0:0:0:0:
320,192,148118,1,0,0:0:0:0:
448,192,148303,1,0,0:0:0:0:
192,192,148303,1,0,0:0:0:0:
64,192,148489,1,0,0:0:0:0:
448,192,148674,128,0,150155:0:0:0:0:
320,192,148674,128,0,149229:0:0:0:0:
64,192,149229,1,0,0:0:0:0:
192,192,149415,128,0,149785:0:0:0:0:
320,192,149970,1,0,0:0:0:0:
192,192,150155,1,0,0:0:0:0:
64,192,150155,1,0,0:0:0:0:
448,192,150340,1,0,0:0:0:0:
192,192,150526,128,0,151081:0:0:0:0:
320,192,150526,1,0,0:0:0:0:
64,192,151081,1,0,0:0:0:0:
192,192,151266,1,0,0:0:0:0:
320,192,151452,1,0,0:0:0:0:
64,192,151637,128,0,152933:0:0:0:0:
448,192,151637,128,0,152933:0:0:0:0:
192,192,152933,1,0,0:0:0:0:
320,192,152933,1,0,0:0:0:0:
64,192,153118,128,0,154229:0:0:0:0:
192,192,153118,128,0,154229:0:0:0:0:
448,192,154415,1,0,0:0:0:0:
64,192,154415,128,0,155155:0:0:0:0:
320,192,154600,1,0,0:0:0:0:
448,192,154785,1,0,0:0:0:0:
192,192,154785,1,0,0:0:0:0:
320,192,154970,1,0,0:0:0:0:
448,192,155155,1,0,0:0:0:0:
192,192,155155,128,0,155526:0:0:0:0:
320,192,155526,128,0,155896:0:0:0:0:
448,192,155896,1,0,0:0:0:0:
64,192,155896,1,0,0:0:0:0:
320,192,156266,1,0,0:0:0:0:
192,192,156452,128,0,159044:0:0:0:0:
64,192,156452,128,0,159044:0:0:0:0:
64,192,167933,132,0,170896:0:0:0:0:
320,192,167933,1,0,0:0:0:0:
448,192,170896,128,0,173859:0:0:0:0:
192,192,173859,1,0,0:0:0:0:
320,192,173859,128,0,177007:0:0:0:0:
192,192,177007,128,0,179785:0:0:0:0:
448,192,180340,1,0,0:0:0:0:
320,192,180340,1,0,0:0:0:0:
448,192,180526,1,0,0:0:0:0:
192,192,180526,1,0,0:0:0:0:
320,192,180896,1,0,0:0:0:0:
64,192,180896,1,0,0:0:0:0:
320,192,181081,1,0,0:0:0:0:
192,192,181081,1,0,0:0:0:0:
192,192,181452,1,0,0:0:0:0:
320,192,181452,1,0,0:0:0:0:
192,192,181637,128,0,182748:0:0:0:0:
448,192,181637,1,0,0:0:0:0:
64,192,183303,1,0,0:0:0:0:
320,192,183303,1,0,0:0:0:0:
192,192,183489,1,0,0:0:0:0:
64,192,183489,1,0,0:0:0:0:
192,192,183859,1,0,0:0:0:0:
448,192,183859,1,0,0:0:0:0:
192,192,184044,1,0,0:0:0:0:
320,192,184044,1,0,0:0:0:0:
192,192,184415,1,0,0:0:0:0:
448,192,184415,1,0,0:0:0:0:
320,192,184600,1,0,0:0:0:0:
448,192,184600,128,0,185340:0:0:0:0:
320,192,185340,1,0,0:0:0:0:
192,192,185340,128,0,185711:0:0:0:0:
448,192,185711,1,0,0:0:0:0:
320,192,185711,128,0,187933:0:0:0:0:
64,192,185896,1,0,0:0:0:0:
448,192,186081,1,0,0:0:0:0:
64,192,186266,1,0,0:0:0:0:
448,192,186452,1,0,0:0:0:0:
64,192,186637,1,0,0:0:0:0:
448,192,186822,1,0,0:0:0:0:
64,192,187007,1,0,0:0:0:0:
448,192,187192,1,0,0:0:0:0:
64,192,187377,1,0,0:0:0:0:
448,192,187563,1,0,0:0:0:0:
64,192,187748,1,0,0:0:0:0:
448,192,187933,1,0,0:0:0:0:
448,192,188303,1,0,0:0:0:0:
320,192,188303,128,0,188674:0:0:0:0:
64,192,188674,1,0,0:0:0:0:
192,192,188674,128,0,191637:0:0:0:0:
448,192,188859,1,0,0:0:0:0:
64,192,189044,1,0,0:0:0:0:
448,192,189229,1,0,0:0:0:0:
64,192,189415,1,0,0:0:0:0:
448,192,189600,1,0,0:0:0:0:
64,192,189785,1,0,0:0:0:0:
448,192,189970,1,0,0:0:0:0:
64,192,190155,1,0,0:0:0:0:
448,192,190340,1,0,0:0:0:0:
64,192,190526,1,0,0:0:0:0:
448,192,190711,1,0,0:0:0:0:
64,192,190896,128,0,191637:0:0:0:0:
320,192,190896,128,0,191637:0:0:0:0:
448,192,192007,1,0,0:0:0:0:
64,192,192007,1,0,0:0:0:0:
192,192,192377,1,0,0:0:0:0:
320,192,192748,1,0,0:0:0:0:
64,192,192748,1,0,0:0:0:0:
192,192,193118,1,0,0:0:0:0:
320,192,193489,1,0,0:0:0:0:
448,192,193859,1,0,0:0:0:0:
192,192,193859,1,0,0:0:0:0:
320,192,194229,1,0,0:0:0:0:
192,192,194600,1,0,0:0:0:0:
320,192,194600,1,0,0:0:0:0:
64,192,194970,1,0,0:0:0:0:
448,192,195340,1,0,0:0:0:0:
192,192,195340,1,0,0:0:0:0:
64,192,195711,1,0,0:0:0:0:
320,192,195711,1,0,0:0:0:0:
192,192,196081,1,0,0:0:0:0:
448,192,196452,1,0,0:0:0:0:
320,192,196452,1,0,0:0:0:0:
192,192,196822,1,0,0:0:0:0:
448,192,197192,1,0,0:0:0:0:
320,192,197192,1,0,0:0:0:0:
448,192,197563,1,0,0:0:0:0:
320,192,197748,1,0,0:0:0:0:
192,192,197933,1,0,0:0:0:0:
64,192,198118,1,0,0:0:0:0:
192,192,198303,1,0,0:0:0:0:
320,192,198489,1,0,0:0:0:0:
448,192,198674,1,0,0:0:0:0:
320,192,198859,1,0,0:0:0:0:
192,192,199044,1,0,0:0:0:0:
64,192,199229,1,0,0:0:0:0:
192,192,199415,1,0,0:0:0:0:
320,192,199600,1,0,0:0:0:0:
448,192,199785,1,0,0:0:0:0:
320,192,199970,1,0,0:0:0:0:
192,192,200155,1,0,0:0:0:0:
64,192,200340,1,0,0:0:0:0:
192,192,200526,1,0,0:0:0:0:
320,192,200526,128,0,203489:0:0:0:0:
192,192,200896,1,0,0:0:0:0:
64,192,201266,1,0,0:0:0:0:
192,192,201637,1,0,0:0:0:0:
64,192,202007,1,0,0:0:0:0:
448,192,202377,1,0,0:0:0:0:
64,192,202748,1,0,0:0:0:0:
192,192,203118,1,0,0:0:0:0:
64,192,203489,128,0,204044:0:0:0:0:
448,192,204229,1,0,0:0:0:0:
192,192,204229,1,0,0:0:0:0:
448,192,204415,1,0,0:0:0:0:
64,192,204415,1,0,0:0:0:0:
320,192,204785,128,0,205896:0:0:0:0:
64,192,204785,1,0,0:0:0:0:
64,192,206452,128,0,206822:0:0:0:0:
192,192,206452,1,0,0:0:0:0:
448,192,207192,1,0,0:0:0:0:
64,192,207192,1,0,0:0:0:0:
320,192,207377,1,0,0:0:0:0:
192,192,207377,1,0,0:0:0:0:
192,192,207748,128,0,207933:0:0:0:0:
320,192,207748,1,0,0:0:0:0:
448,192,208118,1,0,0:0:0:0:
64,192,208118,1,0,0:0:0:0:
320,192,208303,128,0,211266:0:0:0:0:
192,192,208303,1,0,0:0:0:0:
64,192,209415,1,0,0:0:0:0:
192,192,209600,1,0,0:0:0:0:
64,192,209785,1,0,0:0:0:0:
192,192,209970,1,0,0:0:0:0:
64,192,210155,1,0,0:0:0:0:
192,192,210340,1,0,0:0:0:0:
64,192,210526,1,0,0:0:0:0:
192,192,210711,128,0,211266:0:0:0:0:
448,192,211452,1,0,0:0:0:0:
320,192,211637,1,0,0:0:0:0:
64,192,211822,1,0,0:0:0:0:
320,192,212007,1,0,0:0:0:0:
192,192,212192,1,0,0:0:0:0:
448,192,212377,1,0,0:0:0:0:
64,192,212563,1,0,0:0:0:0:
320,192,212748,1,0,0:0:0:0:
192,192,212933,1,0,0:0:0:0:
448,192,213118,1,0,0:0:0:0:
320,192,213303,1,0,0:0:0:0:
64,192,213489,1,0,0:0:0:0:
320,192,213674,1,0,0:0:0:0:
192,192,213859,1,0,0:0:0:0:
192,192,214044,1,0,0:0:0:0:
192,192,214229,128,0,214415:0:0:0:0:
320,192,214600,1,0,0:0:0:0:
448,192,214785,1,0,0:0:0:0:
320,192,214970,1,0,0:0:0:0:
192,192,215155,1,0,0:0:0:0:
320,192,215340,1,0,0:0:0:0:
64,192,215526,1,0,0:0:0:0:
192,192,215711,1,0,0:0:0:0:
320,192,215896,1,0,0:0:0:0:
64,192,216081,1,0,0:0:0:0:
192,192,216266,1,0,0:0:0:0:
448,192,216452,1,0,0:0:0:0:
320,192,216637,1,0,0:0:0:0:
64,192,216822,1,0,0:0:0:0:
192,192,217007,1,0,0:0:0:0:
448,192,217192,1,0,0:0:0:0:
320,192,217377,1,0,0:0:0:0:
192,192,217563,1,0,0:0:0:0:
320,192,217748,1,0,0:0:0:0:
192,192,217933,1,0,0:0:0:0:
64,192,218118,1,0,0:0:0:0:
320,192,218303,1,0,0:0:0:0:
64,192,218674,1,0,0:0:0:0:
192,192,218674,1,0,0:0:0:0:
448,192,219044,1,0,0:0:0:0:
192,192,219044,1,0,0:0:0:0:
64,192,219415,1,0,0:0:0:0:
192,192,219415,1,0,0:0:0:0:
448,192,219785,1,0,0:0:0:0:
192,192,219785,1,0,0:0:0:0:
448,192,220155,1,0,0:0:0:0:
320,192,220155,1,0,0:0:0:0:
448,192,220526,1,0,0:0:0:0:
64,192,220526,1,0,0:0:0:0:
192,192,220896,1,0,0:0:0:0:
448,192,221081,1,0,0:0:0:0:
320,192,221174,1,0,0:0:0:0:
448,192,221266,1,0,0:0:0:0:
64,192,221266,128,0,222007:0:0:0:0:
192,192,222007,1,0,0:0:0:0:
320,192,222192,1,0,0:0:0:0:
448,192,222377,1,0,0:0:0:0:
192,192,222563,1,0,0:0:0:0:
320,192,222748,1,0,0:0:0:0:
64,192,222748,128,0,223489:0:0:0:0:
320,192,223489,1,0,0:0:0:0:
192,192,223489,1,0,0:0:0:0:
192,192,223674,1,0,0:0:0:0:
64,192,223859,1,0,0:0:0:0:
320,192,223859,1,0,0:0:0:0:
448,192,224044,1,0,0:0:0:0:
192,192,224044,1,0,0:0:0:0:
448,192,224229,128,0,224600:0:0:0:0:
320,192,224229,128,0,225526:0:0:0:0:
64,192,224229,1,0,0:0:0:0:
192,192,224785,1,0,0:0:0:0:
64,192,224970,128,0,225526:0:0:0:0:
448,192,225526,1,0,0:0:0:0:
192,192,225711,1,0,0:0:0:0:
64,192,225896,1,0,0:0:0:0:
320,192,225896,1,0,0:0:0:0:
448,192,226081,1,0,0:0:0:0:
192,192,226081,1,0,0:0:0:0:
448,192,226452,1,0,0:0:0:0:
64,192,226452,1,0,0:0:0:0:
192,192,226637,1,0,0:0:0:0:
448,192,226822,1,0,0:0:0:0:
64,192,226822,1,0,0:0:0:0:
320,192,227007,1,0,0:0:0:0:
192,192,227192,128,0,227563:0:0:0:0:
64,192,227192,128,0,228489:0:0:0:0:
448,192,227192,1,0,0:0:0:0:
320,192,227748,1,0,0:0:0:0:
320,192,227933,128,0,228489:0:0:0:0:
192,192,228489,1,0,0:0:0:0:
64,192,228674,1,0,0:0:0:0:
320,192,228674,1,0,0:0:0:0:
192,192,228859,1,0,0:0:0:0:
448,192,228859,1,0,0:0:0:0:
320,192,229044,128,0,229415:0:0:0:0:
448,192,229600,1,0,0:0:0:0:
320,192,229785,1,0,0:0:0:0:
192,192,229970,1,0,0:0:0:0:
64,192,230155,128,0,231452:0:0:0:0:
448,192,230155,128,0,231452:0:0:0:0:
192,192,231452,1,0,0:0:0:0:
320,192,231452,1,0,0:0:0:0:
192,192,231637,128,0,232748:0:0:0:0:
320,192,231637,128,0,232748:0:0:0:0:
64,192,232933,1,0,0:0:0:0:
448,192,232933,1,0,0:0:0:0:
320,192,233118,1,0,0:0:0:0:
192,192,233118,1,0,0:0:0:0:
192,192,233303,1,0,0:0:0:0:
64,192,233489,1,0,0:0:0:0:
448,192,233489,1,0,0:0:0:0:
320,192,233674,128,0,234044:0:0:0:0:
192,192,233674,1,0,0:0:0:0:
192,192,234044,128,0,234415:0:0:0:0:
64,192,234415,128,0,234785:0:0:0:0:
192,192,234785,1,0,0:0:0:0:
320,192,234970,128,0,235711:0:0:0:0:
448,192,234970,1,0,0:0:0:0:
192,192,235896,1,0,0:0:0:0:
64,192,236081,128,0,236359:0:0:0:0:
320,192,236081,1,0,0:0:0:0:
448,192,236359,1,0,0:0:0:0:
192,192,236637,1,0,0:0:0:0:
320,192,236637,1,0,0:0:0:0:
448,192,236822,1,0,0:0:0:0:
64,192,236822,1,0,0:0:0:0:
448,192,237192,1,0,0:0:0:0:
64,192,237192,1,0,0:0:0:0:
320,192,237563,128,0,238026:0:0:0:0:
448,192,237563,128,0,238026:0:0:0:0:
192,192,237563,128,0,238026:0:0:0:0:
192,192,238396,128,0,238766:0:0:0:0:
64,192,238859,1,0,0:0:0:0:
192,192,238952,1,0,0:0:0:0:
320,192,239044,128,0,246452:0:0:0:0:
448,192,239044,128,0,246452:0:0:0:0:
