osu file format v14

[General]
AudioFilename: audio.mp3
AudioLeadIn: 0
PreviewTime: -1
Countdown: 1
SampleSet: None
StackLeniency: 0.7
Mode: 0
LetterboxInBreaks: 0
WidescreenStoryboard: 1

[Editor]
DistanceSpacing: 1.6
BeatDivisor: 4
GridSize: 4
TimelineZoom: 2.4

[Metadata]
Title:I4U
TitleUnicode:I4U
Artist:MICHI
ArtistUnicode:MICHI
Creator:ApoloDT
Version:EXTREME
Source:
Tags:
BeatmapID:1341508
BeatmapSetID:631856

[Difficulty]
HPDrainRate:6
CircleSize:4
OverallDifficulty:6
ApproachRate:9.4
SliderMultiplier:1.79999990463257
SliderTickRate:1

[Events]
//Background and Video events
0,0,"marauder.jpg",0,0
//Break Periods
//Storyboard Layer 0 (Background)
//Storyboard Layer 1 (Fail)
//Storyboard Layer 2 (Pass)
//Storyboard Layer 3 (Foreground)
//Storyboard Sound Samples

[TimingPoints]
12293,370.368088226667,4,2,2,65,1,0
12293,-100,4,2,3,65,0,0

[HitObjects]
116,188,12292,6,0,P|180:96|280:88,1,179.999990463257
304,256,12848,1,0,0:0:0:0:
396,120,13033,1,0,0:0:0:0:
204,232,13218,1,0,0:0:0:0:
216,92,13404,2,0,L|128:40,2,89.9999952316285
388,280,14052,1,0,0:0:0:0:
388,280,14144,1,0,0:0:0:0:
388,280,14237,1,0,0:0:0:0:
216,228,14330,6,0,P|260:240|320:224,1,89.9999952316285
436,172,14700,1,0,0:0:0:0:
436,172,14885,1,0,0:0:0:0:
192,80,15070,2,0,L|236:92,2,44.9999976158143
192,80,15348,1,0,0:0:0:0:
276,216,15441,2,0,P|312:168|328:120,2,89.9999952316285
388,304,15996,1,0,0:0:0:0:
428,168,16181,1,0,0:0:0:0:
340,56,16367,1,0,0:0:0:0:
196,64,16552,1,0,0:0:0:0:
208,328,16737,6,0,P|248:280|200:176,1,179.999990463257
352,184,17292,2,0,P|352:136|448:40,1,179.999990463257
260,224,18218,1,0,0:0:0:0:
256,200,18311,1,0,0:0:0:0:
252,176,18404,1,0,0:0:0:0:
400,124,18589,2,0,L|412:24,1,89.9999952316285
132,108,18959,5,0,0:0:0:0:
312,148,19144,1,0,0:0:0:0:
80,284,19329,1,0,0:0:0:0:
372,268,19515,2,0,B|400:216|364:128|364:128|292:144,1,179.999990463257
260,68,20070,2,0,L|160:48,1,89.9999952316285
168,168,20348,1,0,0:0:0:0:
168,168,20441,2,0,L|256:140,1,89.9999952316285
384,68,20811,5,0,0:0:0:0:
260,264,21089,1,0,0:0:0:0:
384,208,21552,1,0,0:0:0:0:
72,260,21922,1,0,0:0:0:0:
72,260,22015,1,0,0:0:0:0:
292,152,22292,1,0,0:0:0:0:
292,152,22478,1,0,0:0:0:0:
136,136,23033,1,0,0:0:0:0:
136,136,23126,1,0,0:0:0:0:
268,64,23404,6,0,L|360:80,1,89.9999952316285
424,176,23774,2,0,L|312:152,1,89.9999952316285
220,208,24144,2,0,L|252:304,1,89.9999952316285
320,172,24515,1,0,0:0:0:0:
232,72,24700,1,0,0:0:0:0:
92,160,24885,1,0,0:0:0:0:
216,220,25070,2,0,L|224:312,1,89.9999952316285
324,140,25441,5,0,0:0:0:0:
388,300,25626,1,0,0:0:0:0:
324,140,25811,1,0,0:0:0:0:
104,144,25996,1,0,0:0:0:0:
176,36,26181,2,0,P|232:36|360:84,1,179.999990463257
372,192,26922,1,0,0:0:0:0:
224,184,27107,1,0,0:0:0:0:
80,184,27292,1,0,0:0:0:0:
300,44,27478,6,0,P|352:72|396:72,1,89.9999952316285
440,204,27848,2,0,P|384:244|380:280,1,89.9999952316285
135,299,28404,2,0,P|111:251|123:207,1,89.9999952316285
118,218,28681,1,0,0:0:0:0:
118,218,28774,1,0,0:0:0:0:
292,152,28959,1,0,0:0:0:0:
176,44,29144,1,0,0:0:0:0:
240,236,29329,2,0,P|256:300|368:332,1,179.999990463257
312,184,29885,5,0,0:0:0:0:
356,172,29978,1,0,0:0:0:0:
376,136,30070,1,0,0:0:0:0:
368,104,30163,1,0,0:0:0:0:
376,64,30255,1,0,0:0:0:0:
468,100,30441,6,0,L|492:192,1,89.9999952316285
312,264,30811,1,0,0:0:0:0:
336,120,30996,1,0,0:0:0:0:
476,292,31181,1,0,0:0:0:0:
456,300,31274,1,0,0:0:0:0:
388,228,31366,2,0,L|424:116,1,89.9999952316285
320,272,31737,1,0,0:0:0:0:
176,168,31922,5,0,0:0:0:0:
288,72,32107,1,0,0:0:0:0:
344,168,32292,2,0,P|400:144|420:100,1,89.9999952316285
428,220,32663,2,0,P|448:292|480:296,1,89.9999952316285
328,248,33033,2,0,P|260:224|248:184,1,89.9999952316285
152,136,33403,1,0,0:0:0:0:
152,136,33496,1,0,0:0:0:0:
152,136,33589,2,0,L|248:104,1,89.9999952316285
364,168,33959,5,0,0:0:0:0:
224,316,34144,1,0,0:0:0:0:
124,256,34329,2,0,L|104:164,1,89.9999952316285
184,96,34700,1,0,0:0:0:0:
268,176,34885,1,0,0:0:0:0:
368,56,35070,2,0,L|432:148,1,89.9999952316285
312,308,35626,6,0,B|296:248|248:196|248:196|196:232,1,179.999990463257
156,120,36181,1,0,0:0:0:0:
312,120,36366,2,0,L|252:52,1,89.9999952316285
152,216,36737,2,0,L|96:144,1,89.9999952316285
268,212,37292,2,0,L|364:212,1,89.9999952316285
188,80,37663,2,0,L|76:56,1,89.9999952316285
188,284,37940,1,0,0:0:0:0:
224,292,38033,1,0,0:0:0:0:
260,288,38126,1,0,0:0:0:0:
288,284,38218,1,0,0:0:0:0:
176,68,38403,5,0,0:0:0:0:
212,92,38496,1,0,0:0:0:0:
188,120,38589,1,0,0:0:0:0:
236,136,38681,1,0,0:0:0:0:
224,176,38774,1,0,0:0:0:0:
272,180,38866,1,0,0:0:0:0:
256,220,38959,1,0,0:0:0:0:
324,64,39144,2,0,B|360:96|364:96|364:96|328:136|328:136|360:164|360:164|328:192|328:192|364:212|364:212|332:240|332:240|368:252|368:252|372:256|376:256|344:284|344:284|372:304,1,359.999980926514
168,128,40070,6,0,P|228:108|252:72,1,89.9999952316285
136,200,40440,1,0,0:0:0:0:
240,128,40626,1,0,0:0:0:0:
240,128,40811,1,0,0:0:0:0:
264,244,40996,2,0,L|332:312,1,89.9999952316285
372,208,41366,1,0,0:0:0:0:
372,208,41552,6,0,L|360:104,1,89.9999952316285
160,76,41922,1,0,0:0:0:0:
288,168,42107,1,0,0:0:0:0:
272,252,42292,2,0,P|272:180|348:88,1,179.999990463257
428,168,42848,2,0,P|464:128|456:64,1,89.9999952316285
216,72,43218,1,0,0:0:0:0:
216,252,43403,5,0,0:0:0:0:
368,48,43589,1,0,0:0:0:0:
352,264,43774,2,0,P|312:176|228:176,1,179.999990463257
128,56,44329,2,0,P|208:40|232:16,1,89.9999952316285
292,56,44700,1,0,0:0:0:0:
240,112,44885,2,0,P|180:120|132:160,1,89.9999952316285
120,220,45255,2,0,P|96:268|56:280,1,89.9999952316285
432,144,45626,6,0,P|416:80|404:28,1,89.9999952316285
340,124,45996,2,0,L|240:144,1,89.9999952316285
288,176,46366,2,0,L|376:228,1,89.9999952316285
472,304,46737,2,0,P|432:364|400:352,1,89.9999952316285
288,288,47107,2,0,P|236:256|216:216,1,89.9999952316285
148,60,47477,2,0,L|36:80,1,89.9999952316285
248,132,47848,6,0,L|288:108,2,44.9999976158143
192,176,48126,1,0,0:0:0:0:
256,184,48311,1,0,0:0:0:0:
224,224,48403,2,0,L|208:268,3,44.9999976158143
320,252,48774,2,0,L|384:176,2,89.9999952316285
328,168,49329,1,0,0:0:0:0:
388,64,49514,1,0,0:0:0:0:
208,88,49700,2,0,L|156:164,1,89.9999952316285
256,280,50070,6,0,L|340:236,1,89.9999952316285
188,248,50440,2,0,L|116:180,1,89.9999952316285
232,144,50811,2,0,P|284:108|292:64,1,89.9999952316285
384,204,51366,1,0,0:0:0:0:
376,220,51459,1,0,0:0:0:0:
368,240,51552,1,0,0:0:0:0:
296,312,51737,5,0,0:0:0:0:
296,312,51922,1,0,0:0:0:0:
224,152,52107,1,0,0:0:0:0:
384,176,52292,1,0,0:0:0:0:
384,176,52385,2,0,L|252:308,1,179.999990463257
176,180,53218,2,0,P|232:120|224:80,1,89.9999952316285
404,72,53589,2,0,L|372:176,1,89.9999952316285
100,272,54329,2,0,L|72:168,1,89.9999952316285
228,164,54885,1,0,0:0:0:0:
272,220,54977,1,0,0:0:0:0:
340,240,55070,1,0,0:0:0:0:
400,200,55163,1,0,0:0:0:0:
396,128,55255,1,0,0:0:0:0:
464,256,55440,5,0,0:0:0:0:
420,316,55533,1,0,0:0:0:0:
372,264,55626,1,0,0:0:0:0:
328,320,55718,1,0,0:0:0:0:
276,268,55811,1,0,0:0:0:0:
192,152,55996,5,0,0:0:0:0:
144,204,56089,1,0,0:0:0:0:
192,152,56181,1,0,0:0:0:0:
236,96,56274,1,0,0:0:0:0:
192,152,56366,1,0,0:0:0:0:
144,204,56459,1,0,0:0:0:0:
192,152,56551,1,0,0:0:0:0:
320,176,56737,5,0,0:0:0:0:
440,260,56922,1,0,0:0:0:0:
240,356,57107,1,0,0:0:0:0:
120,132,57292,1,0,0:0:0:0:
304,120,57477,1,0,0:0:0:0:
204,232,57663,5,0,0:0:0:0:
204,232,57755,1,0,0:0:0:0:
204,232,57848,1,0,0:0:0:0:
204,232,57940,1,0,0:0:0:0:
204,232,58033,1,0,0:0:0:0:
204,232,58126,1,0,0:0:0:0:
204,232,58218,1,0,0:0:0:0:
136,188,58774,6,0,L|184:88,1,89.9999952316285
288,224,59144,1,0,0:0:0:0:
384,64,59329,2,0,L|288:48,2,89.9999952316285
428,192,59885,1,0,0:0:0:0:
360,300,60070,1,0,0:0:0:0:
276,192,60255,2,0,L|184:144,1,89.9999952316285
212,268,60626,2,0,L|332:268,2,89.9999952316285
92,168,61181,5,0,0:0:0:0:
240,44,61366,1,0,0:0:0:0:
216,240,61551,1,0,0:0:0:0:
324,148,61922,5,0,0:0:0:0:
108,48,62107,1,0,0:0:0:0:
276,316,62292,1,0,0:0:0:0:
156,164,62477,2,0,L|156:264,1,89.9999952316285
292,224,62848,1,0,0:0:0:0:
260,80,63033,1,0,0:0:0:0:
408,136,63218,2,0,L|388:40,1,89.9999952316285
352,56,63496,5,0,0:0:0:0:
316,92,63588,2,0,L|344:180,1,89.9999952316285
312,200,63866,1,0,0:0:0:0:
268,212,63959,2,0,L|264:112,1,89.9999952316285
124,92,64329,1,0,0:0:0:0:
84,296,64514,1,0,0:0:0:0:
148,192,65070,5,0,0:0:0:0:
316,88,65255,1,0,0:0:0:0:
300,280,65440,1,0,0:0:0:0:
440,144,65626,1,0,0:0:0:0:
440,144,65811,2,0,P|436:232|324:276,1,179.999990463257
272,188,66366,2,0,P|224:112|196:104,1,89.9999952316285
132,200,66737,5,0,0:0:0:0:
232,304,66922,1,0,0:0:0:0:
384,164,67107,5,0,0:0:0:0:
276,52,67292,1,0,0:0:0:0:
96,84,67663,2,0,P|56:200|88:252,1,179.999990463257
260,104,68403,1,0,0:0:0:0:
272,120,68496,1,0,0:0:0:0:
284,136,68588,1,0,0:0:0:0:
360,96,69144,5,0,0:0:0:0:
200,40,69329,1,0,0:0:0:0:
368,196,69514,1,0,0:0:0:0:
140,272,69700,1,0,0:0:0:0:
288,296,69885,2,0,P|272:192|200:136,1,179.999990463257
288,296,70440,1,0,0:0:0:0:
376,148,70625,1,0,0:0:0:0:
212,60,70811,1,0,0:0:0:0:
252,192,70996,1,0,0:0:0:0:
352,36,71181,1,0,0:0:0:0:
76,224,71366,5,0,0:0:0:0:
76,224,71551,2,0,L|264:292,1,179.999990463257
328,88,72107,1,0,0:0:0:0:
220,160,72292,2,0,P|196:92|100:56,1,179.999990463257
320,160,72848,2,0,L|408:184,1,89.9999952316285
136,216,73218,2,0,L|96:120,2,89.9999952316285
284,264,73774,5,0,0:0:0:0:
224,136,73959,1,0,0:0:0:0:
360,60,74144,1,0,0:0:0:0:
404,216,74329,1,0,0:0:0:0:
404,216,74514,2,0,P|384:312|296:336,1,179.999990463257
236,212,75070,1,0,0:0:0:0:
184,88,75255,2,0,P|124:92|100:136,1,89.9999952316285
308,128,75625,2,0,P|372:124|380:96,1,89.9999952316285
196,216,75996,6,0,P|140:244|100:232,2,89.9999952316285
280,296,76922,2,0,L|320:196,1,89.9999952316285
224,132,77292,1,0,0:0:0:0:
308,76,77477,1,0,0:0:0:0:
452,104,77662,2,0,L|448:216,1,89.9999952316285
68,248,78033,2,0,L|68:128,1,89.9999952316285
176,144,78403,2,0,L|184:252,1,89.9999952316285
280,200,78774,2,0,L|288:96,1,89.9999952316285
396,316,79144,6,0,L|296:312,1,89.9999952316285
220,72,79514,2,0,L|324:48,1,89.9999952316285
184,292,79885,2,0,L|96:256,1,89.9999952316285
348,224,80255,1,0,0:0:0:0:
156,112,80440,1,0,0:0:0:0:
260,152,80625,1,0,0:0:0:0:
252,172,80718,1,0,0:0:0:0:
244,192,80811,1,0,0:0:0:0:
368,132,80996,6,0,P|384:68|356:32,1,89.9999952316285
264,80,81366,1,0,0:0:0:0:
264,80,81459,1,0,0:0:0:0:
264,80,81551,1,0,0:0:0:0:
224,288,81737,2,0,P|280:260|292:232,1,89.9999952316285
120,168,82107,1,0,0:0:0:0:
384,148,82292,1,0,0:0:0:0:
224,160,82477,1,0,0:0:0:0:
192,288,82662,5,0,0:0:0:0:
264,284,82755,1,0,0:0:0:0:
324,244,82848,1,0,0:0:0:0:
380,292,82940,1,0,0:0:0:0:
424,236,83033,1,0,0:0:0:0:
332,124,83218,5,0,0:0:0:0:
224,28,83403,1,0,0:0:0:0:
280,160,83588,1,0,0:0:0:0:
160,80,83774,1,0,0:0:0:0:
212,212,83959,1,0,0:0:0:0:
284,88,84144,2,0,P|400:104|416:148,1,134.999992847443
388,180,84514,2,0,P|344:224|388:280,1,134.999992847443
312,248,84885,2,0,P|232:228|216:184,1,134.999992847443
92,276,85625,6,0,P|80:216|156:112,1,179.999990463257
284,144,86181,1,0,0:0:0:0:
296,164,86274,1,0,0:0:0:0:
308,184,86366,1,0,0:0:0:0:
364,276,86736,1,0,0:0:0:0:
420,92,87014,1,0,0:0:0:0:
208,108,87199,1,0,0:0:0:0:
152,236,87662,5,0,0:0:0:0:
152,236,87755,1,0,0:0:0:0:
152,236,87848,1,0,0:0:0:0:
280,244,88033,1,0,0:0:0:0:
176,128,88218,1,0,0:0:0:0:
296,128,88403,1,0,0:0:0:0:
340,248,89144,6,0,L|376:200,2,44.9999976158143
252,192,89514,1,0,0:0:0:0:
364,84,89699,1,0,0:0:0:0:
80,140,90070,1,0,0:0:0:0:
232,308,90255,1,0,0:0:0:0:
244,120,90625,1,0,0:0:0:0:
244,120,90718,1,0,0:0:0:0:
244,120,90811,1,0,0:0:0:0:
280,248,90996,5,0,0:0:0:0:
352,120,91181,1,0,0:0:0:0:
424,228,91366,1,0,0:0:0:0:
468,88,91551,1,0,0:0:0:0:
196,104,91736,1,0,0:0:0:0:
364,356,91922,1,0,0:0:0:0:
156,216,92107,5,0,0:0:0:0:
156,216,92199,1,0,0:0:0:0:
156,216,92292,1,0,0:0:0:0:
288,168,92662,1,0,0:0:0:0:
392,272,93033,1,0,0:0:0:0:
412,128,93218,1,0,0:0:0:0:
220,232,93588,5,0,0:0:0:0:
220,232,93681,1,0,0:0:0:0:
220,232,93773,1,0,0:0:0:0:
320,188,93959,2,0,P|316:116|328:92,1,89.9999952316285
192,96,94329,1,0,0:0:0:0:
192,96,94422,1,0,0:0:0:0:
192,96,94514,1,0,0:0:0:0:
192,96,94699,1,0,0:0:0:0:
192,96,94885,1,0,0:0:0:0:
272,256,95070,5,0,0:0:0:0:
272,256,95162,1,0,0:0:0:0:
272,256,95255,1,0,0:0:0:0:
360,176,95625,1,0,0:0:0:0:
192,184,95996,1,0,0:0:0:0:
284,80,96181,1,0,0:0:0:0:
264,296,96551,5,0,0:0:0:0:
272,288,96644,1,0,0:0:0:0:
272,288,96736,1,0,0:0:0:0:
272,284,96922,1,0,0:0:0:0:
272,284,97107,1,0,0:0:0:0:
272,284,97292,1,0,0:0:0:0:
272,284,97477,1,0,0:0:0:0:
