osu file format v14

[General]
AudioFilename: Cry for the Truth(TV edit).mp3
AudioLeadIn: 0
PreviewTime: 55127
Countdown: 0
SampleSet: Soft
StackLeniency: 0.7
Mode: 0
LetterboxInBreaks: 0
WidescreenStoryboard: 0

[Editor]
DistanceSpacing: 0.9
BeatDivisor: 2
GridSize: 8
TimelineZoom: 1.2

[Metadata]
Title:Cry for the Truth(TV edit)
TitleUnicode:Cry for the Truth(TV edit)
Artist:MICHI
ArtistUnicode:MICHI
Creator:Garden
Version:Normal
Source:六花の勇者
Tags:Pho Misure rokka no yuusha braves of the six flowers opening tvsize
BeatmapID:1160294
BeatmapSetID:547857

[Difficulty]
HPDrainRate:3.5
CircleSize:3.2
OverallDifficulty:4
ApproachRate:5
SliderMultiplier:1.1
SliderTickRate:1

[Events]
//Background and Video events
0,0,"bg.jpg",0,0
//Break Periods
2,17350,26861
//Storyboard Layer 0 (Background)
//Storyboard Layer 1 (Fail)
//Storyboard Layer 2 (Pass)
//Storyboard Layer 3 (Foreground)
//Storyboard Sound Samples

[TimingPoints]
503,346.820809248555,4,2,1,65,1,0
33797,-100,4,2,2,65,0,0
35185,-100,4,2,1,65,0,0
55994,-100,4,2,1,80,0,1
72468,-100,4,2,1,80,0,0
72641,-100,4,2,1,80,0,1
78017,-100,4,2,1,65,0,0
84953,-100,4,2,1,65,0,1
87901,-100,4,2,1,65,0,0

[Colours]
Combo1 : 198,165,128
Combo2 : 247,68,68
Combo3 : 33,91,30
Combo4 : 115,115,115
Combo5 : 211,211,211
Combo6 : 45,63,111
Combo7 : 153,245,69

[HitObjects]
93,197,6052,6,0,L|83:129,2,55,4|4|8,0:0|0:3|0:0,0:0:0:0:
101,246,6572,2,0,P|150:226|214:234,1,110,4|0,0:3|0:0,0:0:0:0:
256,255,7092,1,8,0:0:0:0:
256,255,7266,2,0,L|378:245,1,110,4|4,0:0|0:3,0:0:0:0:
407,219,7786,1,8,0:0:0:0:
437,125,8133,2,0,L|511:119,2,55,4|4|6,0:3|0:3|0:3,0:0:0:0:
343,92,8826,6,0,L|338:26,2,55,4|4|8,0:0|0:3|0:0,0:0:0:0:
321,136,9346,2,0,P|256:138|197:114,1,110,4|0,0:3|0:0,0:0:0:0:
175,103,9867,1,8,0:0:0:0:
175,103,10040,2,0,L|161:229,1,110,4|4,0:0|0:3,0:0:0:0:
156,261,10560,1,8,0:0:0:0:
242,309,10907,2,0,L|312:266,2,55,4|4|2,0:3|0:3|0:0,0:0:0:0:
156,360,11601,6,0,L|43:360,2,110,4|8|10,0:0|0:0|0:0,0:0:0:0:
156,261,12641,2,0,P|146:227|146:197,1,55,8|0,0:0|0:0,0:0:0:0:
149,158,12988,1,10,0:0:0:0:
173,61,13335,1,10,0:0:0:0:
271,72,13682,2,0,B|344:81|344:81|430:56,1,146.666666666667,8|8,0:0|0:0,0:0:0:0:
477,41,14375,6,0,P|457:104|461:165,1,110,4|8,0:0|0:0,0:0:0:0:
476,193,14896,2,0,P|480:254|464:305,1,110,4|4,0:0|0:3,0:0:0:0:
426,326,15416,1,8,0:0:0:0:
426,326,15589,2,0,L|299:317,1,110,4|4,0:0|0:3,0:0:0:0:
269,334,16109,1,8,0:0:0:0:
178,293,16456,1,10,0:0:0:0:
224,205,16803,2,0,P|227:176|225:150,1,55,2|0,3:0|3:0,0:0:0:0:
197,108,17150,5,4,0:1:0:0:
240,149,28248,6,0,P|185:152|134:133,1,110,4|8,0:0|0:0,0:0:0:0:
90,111,28768,2,0,L|77:237,1,110,4|4,0:3|0:3,0:0:0:0:
70,319,29462,2,0,L|189:306,1,110,6|4,0:3|0:3,0:0:0:0:
226,323,29982,2,0,L|225:390,2,55,8|0|2,0:0|3:0|3:0,0:0:0:0:
286,243,30676,1,8,0:0:0:0:
213,175,31023,6,0,P|194:128|203:69,1,110,6|8,3:0|0:0,0:0:0:0:
236,34,31543,2,0,L|361:23,1,110,4|4,0:3|0:3,0:0:0:0:
444,18,32237,2,0,L|435:145,1,110,6|4,0:3|0:3,0:0:0:0:
409,169,32757,2,0,L|406:223,2,55,8|4|2,0:0|0:3|3:0,0:0:0:0:
322,120,33450,1,10,0:0:0:0:
263,200,33797,6,0,P|268:270|299:320,1,110,4|8,0:0|0:3,0:0:0:0:
311,347,34318,2,0,L|186:343,1,110,0|0,3:0|0:0,0:0:0:0:
151,344,34838,1,8,0:3:0:0:
65,294,35185,2,0,L|55:181,1,110,2|8,3:0|0:0,0:0:0:0:
52,134,35705,2,0,P|111:138|177:117,1,110,0|0,3:0|0:0,0:0:0:0:
203,101,36225,1,8,0:0:0:0:
276,34,36572,6,0,P|295:76|288:151,1,110,2|10,3:0|0:0,0:0:0:0:
260,176,37092,2,0,L|273:310,1,110,6|6,0:0|0:3,0:0:0:0:
260,337,37612,1,10,0:0:0:0:
260,337,37786,2,0,P|316:320|372:333,1,110,4|4,0:0|0:3,0:0:0:0:
411,348,38306,1,8,0:0:0:0:
489,286,38653,2,0,L|482:177,1,110,10|2,0:0|3:0,0:0:0:0:
386,150,39346,6,0,B|276:150|276:150|212:109,1,165,4|4,0:0|0:0,0:0:0:0:
302,53,40213,1,4,0:0:0:0:
401,56,40560,2,0,P|451:80|479:133,1,110,4|8,0:0|0:3,0:0:0:0:
481,176,41081,1,8,0:0:0:0:
410,245,41427,2,0,L|300:245,1,110,10|2,3:2|3:0,0:0:0:0:
204,219,42121,6,0,B|204:109|204:109|163:45,1,165,4|4,0:0|0:0,0:0:0:0:
107,135,42988,1,4,0:0:0:0:
106,234,43335,2,0,P|136:294|190:317,1,110,4|0,0:0|3:0,0:0:0:0:
222,308,43855,1,8,0:0:0:0:
300,245,44202,2,0,L|300:127,1,110,8|10,0:0|0:0,0:0:0:0:
301,35,44896,5,4,0:0:0:0:
203,22,45242,2,0,B|148:35|148:35|103:78,1,110,8|12,0:0|0:0,0:0:0:0:
148,163,45936,2,0,B|169:216|169:216|169:294,1,110,8|12,0:0|0:0,0:0:0:0:
164,368,46630,2,0,B|219:371|219:371|278:349,1,110,8|12,0:0|0:0,0:0:0:0:
352,296,47323,1,8,0:0:0:0:
292,216,47670,6,0,P|281:158|292:96,1,110,12|8,0:0|0:0,0:0:0:0:
329,17,48364,2,0,P|375:38|440:41,1,110,2|8,3:0|0:0,0:0:0:0:
480,24,48884,2,0,L|466:141,1,110,4|6,0:0|0:3,0:0:0:0:
439,174,49404,2,0,L|443:243,1,55,8|6,0:0|3:0,0:0:0:0:
465,272,49751,1,8,0:0:0:0:
404,350,50098,1,8,0:0:0:0:
316,304,50445,6,0,L|189:296,1,110,4|2,0:0|0:0,0:0:0:0:
161,298,50965,1,4,0:3:0:0:
161,298,51138,2,0,P|182:251|166:166,1,110,8|0,0:0|0:0,0:0:0:0:
157,149,51659,2,0,L|278:157,1,110,10|4,0:0|0:3,0:0:0:0:
316,157,52179,1,4,0:3:0:0:
313,57,52526,2,0,L|202:49,1,110,10|0,0:0|0:0,0:0:0:0:
108,22,53219,6,0,P|55:53|30:102,1,110,12|0,0:0|3:0,0:0:0:0:
29,147,53739,1,0,3:0:0:0:
29,147,53913,2,0,L|27:274,1,110,8|0,3:2|3:0,0:0:0:0:
28,306,54433,2,0,P|81:312|151:285,1,110,2|2,3:0|3:0,0:0:0:0:
175,267,54953,1,10,3:2:0:0:
160,168,55300,2,0,B|196:168|196:168|232:182|232:182|267:182,1,110,0|10,3:0|3:0,0:0:0:0:
363,157,55994,6,0,L|356:42,1,110,4|8,1:0|0:0,0:0:0:0:
455,41,56687,2,0,L|463:175,1,110,2|10,0:0|0:0,0:0:0:0:
466,205,57208,1,0,0:0:0:0:
466,205,57381,2,0,P|422:251|374:269,1,110,6|8,0:3|0:0,0:0:0:0:
331,255,57901,2,0,P|276:243|207:252,1,110,6|4,0:3|0:3,0:0:0:0:
175,263,58422,1,8,0:0:0:0:
76,251,58768,6,0,L|60:114,1,110,4|8,3:2|0:0,0:0:0:0:
52,42,59462,2,0,P|108:32|180:51,1,110,2|10,0:0|0:0,0:0:0:0:
207,71,59982,1,0,3:0:0:0:
207,71,60156,2,0,L|319:55,1,110,2|8,3:0|0:0,0:0:0:0:
365,50,60676,2,0,P|343:101|342:156,1,110,4|0,0:3|3:0,0:0:0:0:
354,204,61196,1,10,0:0:0:0:
259,234,61543,6,0,L|134:210,1,110,4|8,0:0|0:0,0:0:0:0:
107,208,62063,1,4,0:3:0:0:
107,208,62237,2,0,P|79:266|81:320,1,110,2|10,0:0|0:0,0:0:0:0:
156,372,62930,2,0,L|292:344,1,110,6|8,0:3|0:0,0:0:0:0:
316,342,63450,1,4,0:3:0:0:
316,342,63624,2,0,P|370:345|421:324,1,110,2|10,0:0|0:0,0:0:0:0:
426,225,64318,6,0,P|455:228|499:227,2,55,10|6|10,3:2|3:0|3:2,0:0:0:0:
380,204,64838,1,10,0:0:0:0:
403,107,65185,1,10,0:0:0:0:
325,46,65531,2,0,P|268:59|224:94,1,110,4|4,0:0|0:3,0:0:0:0:
198,131,66052,1,8,0:0:0:0:
198,131,66225,2,0,L|202:253,1,110,4|0,0:3|3:0,0:0:0:0:
203,290,66745,1,10,0:0:0:0:
157,378,67092,6,0,P|119:342|106:278,1,110,4|8,1:0|0:0,0:0:0:0:
203,290,67786,2,0,L|326:275,1,110,2|10,0:0|0:0,0:0:0:0:
365,273,68306,1,0,0:0:0:0:
365,273,68479,2,0,P|368:221|337:164,1,110,6|8,0:3|0:0,0:0:0:0:
305,138,69000,2,0,L|420:119,1,110,6|4,0:3|0:3,0:0:0:0:
444,81,69520,1,8,0:0:0:0:
369,16,69867,6,0,L|241:36,1,110,4|8,3:2|0:0,0:0:0:0:
212,45,70387,2,0,P|178:106|179:166,1,110,4|8,0:0|0:0,0:0:0:0:
204,192,70907,1,8,0:0:0:0:
204,192,71081,2,0,L|196:310,1,110,4|4,0:0|0:3,0:0:0:0:
198,355,71601,1,8,0:0:0:0:
198,355,71774,2,0,P|251:336|308:336,1,110,4|4,0:0|3:0,0:0:0:0:
351,350,72294,2,0,P|383:343|412:328,1,55,8|4,0:0|3:0,0:0:0:0:
439,300,72641,5,12,0:0:0:0:
472,206,72988,1,8,0:0:0:0:
385,157,73335,2,0,P|391:104|373:38,1,110,8|8,0:0|0:0,0:0:0:0:
284,14,74029,1,8,0:0:0:0:
207,76,74375,1,8,0:0:0:0:
248,165,74722,2,0,P|267:224|255:280,1,110,8|8,0:0|0:0,0:0:0:0:
177,323,75416,6,0,P|56:294|173:229,1,330,12|8,0:0|0:0,0:0:0:0:
259,270,76803,2,0,L|393:260,1,110,6|6,0:0|0:0,0:0:0:0:
453,210,77497,2,0,P|460:155|435:91,1,110,8|0,0:0|0:0,0:0:0:0:
406,70,78017,6,0,B|298:51|298:51|237:69,1,165,4|8,0:0|0:0,0:0:0:0:
176,138,78884,2,0,P|115:141|54:126,1,110,4|8,0:3|0:0,0:0:0:0:
23,108,79404,2,0,L|16:223,1,110,4|4,0:0|0:3,0:0:0:0:
13,267,79924,1,8,0:0:0:0:
52,357,80271,2,0,P|112:362|169:330,1,110,4|8,0:3|0:0,0:0:0:0:
183,299,80792,5,4,0:0:0:0:
353,121,81659,2,0,L|369:238,1,110,10|10,0:3|0:0,0:0:0:0:
374,279,82179,5,12,0:0:0:0:
135,343,83046,2,0,L|127:283,1,55,4|4,0:1|0:1,0:0:0:0:
114,190,83566,5,10,0:0:0:0:
205,227,83913,2,0,L|326:186,1,110,0|0,3:0|3:0,0:0:0:0:
353,169,84433,2,0,B|343:144|343:144|327:131|327:131|321:111|321:111|281:65,1,110,2|2,0:0|0:0,0:0:0:0:
255,47,84953,1,4,0:0:0:0:
256,192,85127,12,4,87901,0:0:0:0:
