osu file format v14

[General]
AudioFilename: Cry for the Truth(TV edit).mp3
AudioLeadIn: 0
PreviewTime: 55127
Countdown: 0
SampleSet: Soft
StackLeniency: 0.7
Mode: 0
LetterboxInBreaks: 0
WidescreenStoryboard: 0

[Editor]
DistanceSpacing: 1.3
BeatDivisor: 4
GridSize: 16
TimelineZoom: 2.3

[Metadata]
Title:Cry for the Truth(TV edit)
TitleUnicode:Cry for the Truth(TV edit)
Artist:MICHI
ArtistUnicode:MICHI
Creator:Garden
Version:Insane
Source:六花の勇者
Tags:Pho Misure rokka no yuusha braves of the six flowers opening tvsize
BeatmapID:1160293
BeatmapSetID:547857

[Difficulty]
HPDrainRate:6
CircleSize:4
OverallDifficulty:7
ApproachRate:8.8
SliderMultiplier:1.5
SliderTickRate:1

[Events]
//Background and Video events
0,0,"bg.jpg",0,0
//Break Periods
2,17350,26232
//Storyboard Layer 0 (Background)
//Storyboard Layer 1 (Fail)
//Storyboard Layer 2 (Pass)
//Storyboard Layer 3 (Foreground)
//Storyboard Sound Samples

[TimingPoints]
503,346.820809248555,4,2,1,50,1,0
3190,-100,4,2,1,5,0,0
3277,-100,4,2,2,65,0,0
3450,-100,4,2,1,65,0,0
27901,-100,4,2,1,5,0,0
28075,-100,4,2,1,65,0,0
33711,-100,4,2,1,5,0,0
33797,-100,4,2,2,65,0,0
35098,-100,4,2,1,5,0,0
35185,-100,4,2,1,65,0,0
45156,-100,4,2,1,5,0,0
45242,-100,4,2,1,65,0,0
45849,-100,4,2,1,5,0,0
45936,-100,4,2,1,65,0,0
46543,-100,4,2,1,5,0,0
46630,-100,4,2,1,65,0,0
47237,-100,4,2,1,5,0,0
47323,-100,4,2,1,65,0,0
55907,-100,4,2,1,5,0,0
55994,-83.3333333333333,4,2,1,80,0,1
72468,-83.3333333333333,4,2,1,80,0,0
72641,-83.3333333333333,4,2,1,80,0,1
77410,-83.3333333333333,4,2,1,5,0,1
77497,-83.3333333333333,4,2,1,80,0,1
78017,-83.3333333333333,4,2,1,65,0,0
84953,-83.3333333333333,4,2,1,65,0,1
87901,-83.3333333333333,4,2,1,65,0,0

[Colours]
Combo1 : 198,165,128
Combo2 : 247,68,68
Combo3 : 33,91,30
Combo4 : 115,115,115
Combo5 : 211,211,211
Combo6 : 45,63,111
Combo7 : 153,245,69

[HitObjects]
119,215,503,38,0,L|112:297,2,75,2|0|0,0:0|0:0|0:0,0:0:0:0:
216,203,1023,2,0,L|209:285,2,75,2|0|0,0:0|0:0|0:0,0:0:0:0:
314,192,1543,2,0,L|307:266,2,75,2|0|0,0:0|0:0|0:0,0:0:0:0:
399,293,2063,6,0,P|353:350|281:360,1,150,2|0,0:0|0:0,0:0:0:0:
211,290,2583,2,0,P|168:282|123:283,1,75,2|0,0:0|0:0,0:0:0:0:
306,266,2930,2,0,B|314:190|314:190|305:148,1,112.5,2|0,0:0|0:0,0:0:0:0:
294,127,3277,86,0,L|368:117,1,75,8|0,0:3|0:0,0:0:0:0:
205,26,3624,2,0,L|200:101,1,75,0|0,0:0|0:0,0:0:0:0:
132,229,3971,2,2,L|119:156,1,75,2|2,0:1|0:1,0:1:0:0:
225,260,4318,1,0,0:0:0:0:
304,203,4491,1,0,0:0:0:0:
304,203,4578,1,0,0:0:0:0:
304,203,4664,6,0,L|393:192,1,75,0|0,3:0|0:0,0:0:0:0:
472,221,5011,1,2,0:0:0:0:
393,324,5185,1,8,0:0:0:0:
393,324,5271,1,4,0:3:0:0:
393,324,5358,86,0,L|337:331,3,37.5,0|0|0|0,3:0|3:0|3:0|3:0,0:0:0:0:
316,358,5705,2,0,L|260:365,3,37.5,8|8|8|8,0:0|0:0|0:0|0:0,0:0:0:0:
234,342,6052,22,0,L|140:354,1,75,4|4,0:0|0:3,0:0:0:0:
65,327,6398,1,8,0:0:0:0:
65,327,6572,2,0,L|55:164,1,150,4|0,0:3|0:0,0:0:0:0:
49,79,7092,1,8,0:0:0:0:
164,135,7266,6,0,P|235:141|309:104,1,150,4|4,0:0|0:3,0:0:0:0:
382,48,7786,2,0,P|441:87|449:100,1,75,8|4,0:0|0:3,0:0:0:0:
411,182,8133,2,0,L|417:229,3,37.5,4|4|4|4,0:3|0:3|0:3|0:3,0:0:0:0:
443,258,8479,2,0,L|437:303,3,37.5,6|2|6|2,0:3|0:0|0:3|0:0,0:0:0:0:
410,335,8826,6,0,L|324:321,1,75,4|4,0:0|0:3,0:0:0:0:
238,310,9173,1,8,0:0:0:0:
238,310,9346,2,0,P|203:255|223:169,1,150,4|0,0:3|0:0,0:0:0:0:
288,106,9867,1,8,0:0:0:0:
310,231,10040,6,0,L|154:253,1,150,4|4,0:0|0:3,0:0:0:0:
75,298,10560,2,0,P|65:336|69:374,1,75,8|4,0:0|0:3,0:0:0:0:
250,377,10907,1,4,0:3:0:0:
161,339,11081,1,4,0:3:0:0:
318,307,11254,1,2,0:0:0:0:
318,307,11601,6,0,L|316:143,1,150,4|8,0:0|0:0,0:0:0:0:
257,89,12063,2,0,L|265:37,1,50,8|8,0:0|0:0,0:0:0:0:
175,54,12294,6,0,L|18:34,1,150,10|8,0:0|0:0,0:0:0:0:
48,123,12757,2,0,L|98:130,1,50,8|8,0:0|0:0,0:0:0:0:
187,142,12988,6,0,P|215:190|192:277,1,150,10|10,0:0|0:0,0:0:0:0:
107,308,13450,2,0,L|57:299,1,50,4|4,0:3|0:3,0:0:0:0:
176,367,13682,6,0,L|286:359,2,100,8|8|8,0:0|0:0|0:0,0:0:0:0:
321,278,14375,6,0,P|359:315|369:351,1,75,4|4,0:0|0:3,0:0:0:0:
466,356,14722,1,8,0:0:0:0:
466,356,14896,2,0,L|455:189,1,150,4|4,0:0|0:3,0:0:0:0:
447,108,15416,1,8,0:0:0:0:
336,170,15589,6,0,L|205:157,1,112.5,4|4,0:0|0:3,0:0:0:0:
194,156,15936,1,4,0:3:0:0:
71,189,16109,2,0,P|50:155|42:110,1,75,8|0,0:0|0:0,0:0:0:0:
82,31,16456,1,10,0:0:0:0:
107,35,16543,1,0,3:0:0:0:
133,38,16630,1,0,3:0:0:0:
158,42,16716,1,0,3:0:0:0:
183,46,16803,2,0,L|231:29,3,37.5,2|0|0|0,3:0|3:0|3:0|3:0,0:0:0:0:
266,44,17150,5,4,0:1:0:0:
256,192,26861,12,0,27901,0:0:0:0:
257,193,28075,5,0,3:0:0:0:
257,193,28161,1,0,3:0:0:0:
257,193,28248,2,0,L|336:173,1,75,4|0,0:0|0:0,0:0:0:0:
471,138,28595,1,8,0:0:0:0:
402,231,28768,2,0,P|361:170|367:84,2,150,4|4|6,0:3|0:3|0:3,0:0:0:0:
402,231,29809,5,4,0:3:0:0:
327,293,29982,2,0,L|233:283,1,75,8|0,0:0|3:0,0:0:0:0:
210,305,30242,1,0,3:0:0:0:
210,305,30329,2,0,L|122:293,1,75,2|0,3:0|0:0,0:0:0:0:
54,239,30676,1,8,0:0:0:0:
171,183,30849,1,0,3:0:0:0:
171,183,30936,1,0,3:0:0:0:
171,183,31023,6,0,L|167:101,1,75,6|4,3:0|0:3,0:0:0:0:
165,10,31370,1,8,0:0:0:0:
283,57,31543,2,0,L|330:55,2,37.5,4|4|2,0:3|0:3|3:0,0:0:0:0:
272,157,31890,1,4,0:3:0:0:
272,157,32237,6,0,L|440:151,1,150,6|4,0:3|0:3,0:0:0:0:
480,230,32757,1,8,0:0:0:0:
378,281,32930,2,0,L|382:243,2,37.5,4|4|2,0:3|0:3|3:0,0:0:0:0:
369,378,33277,1,4,0:3:0:0:
253,324,33450,2,0,P|188:313|130:329,1,112.5,10|0,0:0|0:0,0:0:0:0:
99,343,33797,6,0,L|85:254,1,75,4|0,0:0|0:0,0:0:0:0:
71,173,34144,1,8,0:3:0:0:
203,207,34318,1,0,3:0:0:0:
203,207,34404,1,0,3:0:0:0:
203,207,34491,2,0,P|261:205|289:192,1,75,8|0,3:0|0:0,0:0:0:0:
411,134,34838,2,0,P|365:105|307:106,1,112.5,8|0,0:3|0:0,0:0:0:0:
276,69,35185,6,0,L|200:58,1,75,2|0,3:0|0:0,0:0:0:0:
109,87,35531,1,8,0:0:0:0:
170,177,35705,1,0,3:0:0:0:
170,177,35792,1,0,3:0:0:0:
170,177,35878,2,0,P|180:216|171:277,1,75,2|0,3:0|0:0,0:0:0:0:
148,343,36225,2,0,L|246:330,1,75,8|0,0:0|3:0,0:0:0:0:
275,339,36485,1,0,3:0:0:0:
275,339,36572,5,2,3:0:0:0:
313,217,36745,1,6,0:3:0:0:
313,217,36832,1,4,0:3:0:0:
313,217,36919,1,10,0:0:0:0:
170,177,37092,1,6,0:0:0:0:
170,177,37439,5,6,0:3:0:0:
313,217,37612,1,10,0:0:0:0:
206,86,37786,6,0,P|141:80|81:140,1,150,4|4,0:0|0:3,0:0:0:0:
187,247,38306,2,0,P|186:210|170:177,1,75,8|4,0:0|0:3,0:0:0:0:
122,320,38653,1,10,0:0:0:0:
147,325,38739,1,0,3:0:0:0:
172,331,38826,1,0,3:0:0:0:
197,337,38913,1,0,3:0:0:0:
222,344,39000,2,0,L|284:324,3,37.5,2|0|2|0,3:0|3:0|3:0|3:0,0:0:0:0:
304,342,39346,6,0,L|394:311,1,75,4|0,0:0|0:0,0:0:0:0:
451,186,39693,1,0,3:0:0:0:
451,186,39867,2,0,B|463:223|463:223|453:265,1,75,4|0,0:0|0:0,0:0:0:0:
352,162,40213,2,0,B|348:123|348:123|361:88,1,75,4|0,0:0|0:0,0:0:0:0:
461,24,40560,6,0,P|393:40|314:26,1,150,4|8,0:0|0:3,0:0:0:0:
217,13,41081,2,0,P|190:53|183:89,1,75,8|4,0:0|0:3,0:0:0:0:
192,175,41427,2,0,L|133:176,3,37.5,10|0|0|0,3:2|3:0|3:0|3:0,0:0:0:0:
119,209,41774,2,0,L|60:210,3,37.5,2|0|0|0,3:0|3:0|3:0|3:0,0:0:0:0:
41,238,42121,6,0,P|25:271|24:317,1,75,4|0,0:0|0:0,0:0:0:0:
172,361,42468,1,0,3:0:0:0:
172,361,42642,2,0,B|132:360|132:360|98:370,1,75,4|0,0:0|0:0,0:0:0:0:
211,272,42988,2,0,B|250:270|250:270|293:289,1,75,4|0,0:0|0:0,0:0:0:0:
369,383,43335,6,0,P|339:327|351:228,1,150,4|0,0:0|3:0,0:0:0:0:
375,206,43768,1,4,0:3:0:0:
375,206,43855,1,8,0:0:0:0:
320,112,44029,1,0,3:0:0:0:
320,112,44115,1,4,0:3:0:0:
320,112,44202,2,0,L|276:95,3,37.5,8|0|4|0,0:0|0:0|0:3|0:0,0:0:0:0:
241,114,44549,1,10,0:0:0:0:
241,114,44896,6,0,B|206:98|206:98|120:114,1,112.5,4|0,0:0|0:0,0:0:0:0:
60,147,45242,2,0,L|56:184,1,37.5,8|4,0:0|3:0,0:0:0:0:
118,235,45416,2,0,L|124:271,1,37.5,8|4,0:0|3:0,0:0:0:0:
91,349,45589,6,0,P|141:317|217:321,1,112.5,12|0,0:0|0:0,0:0:0:0:
270,358,45936,2,0,L|319:344,1,37.5,8|4,0:0|3:0,0:0:0:0:
351,264,46109,2,0,L|396:277,1,37.5,8|4,0:0|3:0,0:0:0:0:
467,332,46283,6,0,B|484:281|484:281|468:204,1,112.5,12|0,0:0|0:0,0:0:0:0:
392,167,46630,2,0,L|399:115,1,37.5,8|4,0:0|3:0,0:0:0:0:
377,30,46803,2,0,L|329:57,1,37.5,8|4,0:0|3:0,0:0:0:0:
275,128,46976,6,0,P|215:93|149:98,1,112.5,12|0,0:0|0:0,0:0:0:0:
84,130,47323,1,8,0:0:0:0:
88,148,47410,1,4,0:3:0:0:
92,166,47497,1,4,0:3:0:0:
96,184,47583,1,4,0:3:0:0:
101,202,47670,6,0,L|89:284,1,75,12|2,0:0|0:0,0:0:0:0:
246,213,48017,2,0,P|299:215|341:194,1,75,8|0,0:0|3:0,0:0:0:0:
362,186,48277,1,0,3:0:0:0:
362,186,48364,1,2,3:0:0:0:
400,42,48537,1,8,3:0:0:0:
309,95,48711,1,8,0:0:0:0:
452,133,48884,1,4,0:0:0:0:
452,133,49231,5,6,0:3:0:0:
503,215,49404,2,0,P|504:260|491:291,1,75,8|6,0:0|3:0,0:0:0:0:
340,263,49751,2,0,P|371:242|408:237,1,75,8|6,0:0|3:0,0:0:0:0:
463,379,50098,2,0,P|430:362|407:334,1,75,8|6,0:0|3:0,0:0:0:0:
254,362,50445,6,0,P|214:364|169:370,2,75,4|2|2,0:0|0:0|0:0,0:0:0:0:
250,264,50965,1,4,0:3:0:0:
157,234,51138,2,0,P|134:203|117:143,1,75,8|2,0:0|0:0,0:0:0:0:
121,37,51485,1,0,0:0:0:0:
191,101,51659,6,0,P|274:115|337:62,1,150,10|4,0:0|0:3,0:0:0:0:
249,22,52179,1,4,0:3:0:0:
383,16,52352,1,0,3:0:0:0:
383,16,52439,1,0,0:0:0:0:
383,16,52526,2,0,P|354:91|367:165,1,150,10|0,0:0|0:0,0:0:0:0:
300,232,53046,1,0,3:0:0:0:
300,232,53133,1,0,3:0:0:0:
300,232,53219,6,0,L|211:227,1,75,12|0,0:0|3:0,0:0:0:0:
182,243,53479,1,0,3:0:0:0:
182,243,53566,2,0,P|172:291|183:325,1,75,0|0,3:0|3:0,0:0:0:0:
329,338,53913,1,8,3:2:0:0:
329,338,54000,1,0,3:0:0:0:
329,338,54086,2,0,L|364:312,1,37.5,0|0,3:0|3:0,0:0:0:0:
406,132,54260,1,0,3:0:0:0:
480,222,54433,6,0,B|382:231|382:231|339:202,1,150,2|2,3:0|3:0,0:0:0:0:
361,31,54953,1,10,3:2:0:0:
361,31,55300,2,0,L|309:51,3,37.5,0|0|4|0,3:0|3:0|3:0|0:0,0:0:0:0:
281,65,55647,6,0,P|229:44|170:53,1,112.5,10|0,3:0|0:0,0:0:0:0:
105,90,55994,6,0,L|103:237,1,134.999995880127,4|4,1:0|0:3,0:0:0:0:
105,304,56341,2,0,P|159:292|208:290,1,89.9999972534181,8|4,0:0|0:3,0:0:0:0:
424,355,56687,2,0,P|358:362|305:324,1,134.999995880127,2|0,0:0|0:0,0:0:0:0:
307,245,57034,2,0,L|316:142,1,89.9999972534181,10|0,0:0|0:0,0:0:0:0:
388,20,57381,6,0,P|315:41|243:28,1,134.999995880127,6|4,0:3|0:3,0:0:0:0:
184,14,57728,1,8,0:0:0:0:
104,99,57901,2,0,P|89:142|90:187,1,89.9999972534181,6|0,0:3|0:0,0:0:0:0:
160,280,58248,1,4,0:3:0:0:
249,155,58422,1,8,0:0:0:0:
324,257,58595,1,0,3:0:0:0:
324,257,58682,1,0,3:0:0:0:
324,257,58768,6,0,L|469:244,1,134.999995880127,4|4,3:2|0:3,0:0:0:0:
488,174,59115,2,0,P|488:123|467:84,1,89.9999972534181,8|4,0:0|0:3,0:0:0:0:
362,44,59462,2,0,L|258:53,1,89.9999972534181,2|4,0:0|0:3,0:0:0:0:
173,115,59809,1,10,0:0:0:0:
194,0,59982,1,0,3:0:0:0:
252,165,60156,6,0,B|206:200|206:200|123:200,1,134.999995880127,2|4,3:0|0:3,0:0:0:0:
58,172,60503,2,0,P|57:128|30:80,1,89.9999972534181,8|4,0:0|0:3,0:0:0:0:
1,271,60849,1,10,0:0:0:0:
29,284,60936,1,0,3:0:0:0:
59,290,61023,1,0,3:0:0:0:
90,286,61109,1,0,3:0:0:0:
119,274,61196,2,0,L|141:317,3,44.999998626709,10|0|0|0,0:0|3:0|3:0|3:0,0:0:0:0:
157,369,61543,6,0,P|217:335|288:351,1,134.999995880127,4|4,0:0|0:3,0:0:0:0:
354,370,61890,2,0,L|455:355,1,89.9999972534181,8|4,0:0|0:3,0:0:0:0:
346,205,62237,1,2,0:0:0:0:
475,285,62410,1,4,0:3:0:0:
449,108,62583,1,10,0:0:0:0:
449,108,62930,6,0,L|294:83,1,134.999995880127,6|4,0:3|0:3,0:0:0:0:
240,98,63277,2,0,P|210:153|210:191,1,89.9999972534181,8|4,0:0|0:3,0:0:0:0:
318,324,63624,1,2,0:0:0:0:
308,172,63797,1,4,0:3:0:0:
208,326,63971,1,10,0:0:0:0:
377,254,64144,1,4,3:0:0:0:
377,254,64231,1,4,3:0:0:0:
377,254,64318,5,10,3:2:0:0:
149,252,64491,1,6,3:0:0:0:
318,324,64664,1,10,3:2:0:0:
254,118,64838,5,10,0:0:0:0:
229,130,65185,1,10,0:0:0:0:
204,131,65531,6,0,L|20:104,1,179.999994506836,4|4,0:0|0:3,0:0:0:0:
47,304,66052,2,0,L|64:216,1,89.9999972534181,8|4,0:0|0:3,0:0:0:0:
221,212,66398,1,10,0:0:0:0:
251,220,66485,1,0,3:0:0:0:
281,228,66572,1,0,3:0:0:0:
311,236,66659,1,0,3:0:0:0:
340,247,66745,2,0,L|328:295,3,44.999998626709,10|0|0|0,0:0|3:0|3:0|3:0,0:0:0:0:
315,347,67092,6,0,P|371:309|453:309,1,134.999995880127,4|4,1:0|0:3,0:0:0:0:
485,245,67439,2,0,L|472:139,1,89.9999972534181,8|4,0:0|0:3,0:0:0:0:
368,37,67786,2,0,L|357:172,1,134.999995880127,2|0,0:0|0:0,0:0:0:0:
309,232,68133,2,0,P|255:230|212:211,1,89.9999972534181,10|0,0:0|0:0,0:0:0:0:
148,84,68479,6,0,P|85:81|23:147,1,134.999995880127,6|4,0:3|0:3,0:0:0:0:
11,198,68826,1,8,0:0:0:0:
111,266,69000,2,0,L|104:357,1,89.9999972534181,6|0,0:3|0:0,0:0:0:0:
9,299,69346,1,4,0:3:0:0:
112,166,69520,1,8,0:0:0:0:
226,283,69693,1,0,3:0:0:0:
226,283,69780,1,0,3:0:0:0:
226,283,69867,6,0,L|410:264,1,179.999994506836,4|8,3:2|0:0,0:0:0:0:
372,29,70387,2,0,P|315:95|332:191,1,179.999994506836,4|8,0:0|0:0,0:0:0:0:
430,129,70907,1,8,0:0:0:0:
282,88,71081,6,0,L|102:106,1,179.999994506836,4|4,0:0|0:3,0:0:0:0:
233,194,71601,1,8,0:0:0:0:
182,362,71774,2,0,P|115:305|119:219,1,179.999994506836,4|4,0:0|3:0,0:0:0:0:
233,194,72208,1,4,3:0:0:0:
233,194,72294,2,0,L|219:138,1,44.999998626709,8|4,0:0|3:0,0:0:0:0:
139,81,72468,2,0,L|151:32,1,44.999998626709,4|4,3:0|3:0,0:0:0:0:
282,88,72641,5,12,0:0:0:0:
123,223,72815,1,2,3:0:0:0:
282,88,72988,1,8,0:0:0:0:
123,223,73161,1,2,3:0:0:0:
343,180,73335,2,0,P|397:167|437:145,1,89.9999972534181,8|2,0:0|3:0,0:0:0:0:
226,154,73682,1,8,0:0:0:0:
269,270,73855,1,2,3:0:0:0:
269,270,73942,1,0,3:0:0:0:
269,270,74029,6,0,L|250:366,1,89.9999972534181,8|2,0:0|0:3,0:0:0:0:
123,223,74375,2,0,L|106:131,1,89.9999972534181,8|2,0:0|0:3,0:0:0:0:
282,88,74722,1,8,0:0:0:0:
88,39,74896,1,2,0:3:0:0:
282,88,75069,1,8,0:0:0:0:
81,155,75242,1,0,3:0:0:0:
81,155,75329,1,0,3:0:0:0:
81,155,75416,6,0,L|99:256,1,89.9999972534181,12|0,0:0|3:0,0:0:0:0:
119,321,75676,1,0,3:0:0:0:
119,321,75763,2,0,P|168:304|217:309,1,89.9999972534181,8|0,0:0|3:0,0:0:0:0:
271,354,76023,1,0,3:0:0:0:
271,354,76109,2,0,L|377:338,1,89.9999972534181,12|0,0:0|3:0,0:0:0:0:
441,336,76370,1,0,3:0:0:0:
441,336,76456,1,8,0:0:0:0:
291,265,76630,1,8,0:0:0:0:
291,265,76716,1,0,0:0:0:0:
291,265,76803,5,6,0:0:0:0:
291,265,77150,2,0,B|264:195|306:198|279:133,1,134.999995880127,6|0,0:0|0:0,0:0:0:0:
247,62,77497,1,8,0:0:0:0:
131,81,77670,2,0,L|41:69,1,89.9999972534181,4|0,0:3|0:0,0:0:0:0:
183,174,78017,6,0,L|368:154,1,179.999994506836,4|4,0:0|0:3,0:0:0:0:
448,238,78537,2,0,P|446:284|424:339,1,89.9999972534181,8|0,0:0|0:0,0:0:0:0:
258,347,78884,1,4,0:3:0:0:
334,259,79057,1,4,0:3:0:0:
157,286,79231,1,8,0:0:0:0:
334,259,79404,6,0,P|369:178|344:94,1,179.999994506836,4|4,0:0|0:3,0:0:0:0:
231,63,79924,2,0,L|116:95,1,89.9999972534181,8|0,0:0|0:0,0:0:0:0:
136,241,80271,1,4,0:3:0:0:
52,160,80445,1,4,0:3:0:0:
42,311,80618,1,8,0:0:0:0:
230,250,80792,5,4,0:0:0:0:
230,250,81659,2,0,L|239:194,5,44.999998626709,10|0|6|0|10|0,0:3|0:0|0:3|0:0|0:0|0:0,0:0:0:0:
307,146,82179,5,12,0:0:0:0:
307,146,83046,1,4,0:1:0:0:
191,131,83219,2,0,P|173:87|178:37,1,89.9999972534181,4|0,0:1|0:0,0:0:0:0:
307,146,83566,6,0,L|286:335,1,179.999994506836,10|0,0:0|3:0,0:0:0:0:
221,366,84000,1,0,3:0:0:0:
205,356,84086,1,0,3:0:0:0:
187,350,84173,1,0,3:0:0:0:
168,348,84260,1,0,3:0:0:0:
150,349,84346,1,0,3:0:0:0:
132,354,84433,6,0,L|126:380,10,22.4999993133545,2|2|2|2|2|2|2|2|2|2|2,0:0|0:0|0:0|0:0|0:0|0:0|0:0|0:0|0:0|0:0|0:0,0:0:0:0:
94,277,84953,5,4,0:0:0:0:
256,192,85040,12,4,87901,0:0:0:0:
