osu file format v14

[General]
AudioFilename: Cry for the Truth(TV edit).mp3
AudioLeadIn: 0
PreviewTime: 55127
Countdown: 0
SampleSet: Soft
StackLeniency: 0.7
Mode: 0
LetterboxInBreaks: 0
WidescreenStoryboard: 0

[Editor]
DistanceSpacing: 0.8
BeatDivisor: 4
GridSize: 8
TimelineZoom: 3.099999

[Metadata]
Title:Cry for the Truth(TV edit)
TitleUnicode:Cry for the Truth(TV edit)
Artist:MICHI
ArtistUnicode:MICHI
Creator:Garden
Version:Expert
Source:六花の勇者
Tags:Pho Misure rokka no yuusha braves of the six flowers opening tvsize
BeatmapID:1160292
BeatmapSetID:547857

[Difficulty]
HPDrainRate:7
CircleSize:4
OverallDifficulty:8
ApproachRate:9
SliderMultiplier:1.6
SliderTickRate:1

[Events]
//Background and Video events
0,0,"bg.jpg",0,0
//Break Periods
2,17350,22099
//Storyboard Layer 0 (Background)
//Storyboard Layer 1 (Fail)
//Storyboard Layer 2 (Pass)
//Storyboard Layer 3 (Foreground)
//Storyboard Sound Samples

[TimingPoints]
503,346.820809248555,4,2,1,50,1,0
2930,-133.333333333333,4,2,1,50,0,0
3190,-133.333333333333,4,2,1,5,0,0
3277,-76.9230769230769,4,2,2,65,0,0
3624,-133.333333333333,4,2,1,65,0,0
3884,-133.333333333333,4,2,1,5,0,0
3971,-66.6666666666667,4,2,1,65,0,0
4664,-100,4,2,1,65,0,0
6052,-83.3333333333333,4,2,1,65,0,0
11254,-133.333333333333,4,2,1,65,0,0
11514,-133.333333333333,4,2,1,5,0,0
11601,-83.3333333333333,4,2,1,65,0,0
11832,-83.3333333333333,4,2,1,5,0,0
11948,-83.3333333333333,4,2,1,65,0,0
12526,-83.3333333333333,4,2,1,5,0,0
12641,-83.3333333333333,4,2,1,65,0,0
15156,-83.3333333333333,4,2,1,5,0,0
15242,-83.3333333333333,4,2,1,65,0,0
22699,-133.333333333333,4,2,1,50,0,0
27901,-100,4,2,1,5,0,0
28075,-100,4,2,1,65,0,0
33450,-133.333333333333,4,2,1,65,0,0
33711,-133.333333333333,4,2,1,5,0,0
33797,-100,4,2,2,65,0,0
35098,-100,4,2,1,5,0,0
35185,-100,4,2,1,65,0,0
39867,-76.9230769230769,4,2,1,65,0,0
40560,-100,4,2,1,65,0,0
42641,-76.9230769230769,4,2,1,65,0,0
43335,-100,4,2,1,65,0,0
44896,-76.9230769230769,4,2,1,65,0,0
45156,-100,4,2,1,5,0,0
45242,-100,4,2,1,65,0,0
45589,-76.9230769230769,4,2,1,65,0,0
45849,-100,4,2,1,5,0,0
45936,-100,4,2,1,65,0,0
46283,-76.9230769230769,4,2,1,65,0,0
46543,-100,4,2,1,5,0,0
46630,-100,4,2,1,65,0,0
46976,-76.9230769230769,4,2,1,65,0,0
47237,-100,4,2,1,5,0,0
47323,-100,4,2,1,65,0,0
50445,-133.333333333333,4,2,1,65,0,0
51572,-133.333333333333,4,2,1,5,0,0
51659,-133.333333333333,4,2,1,65,0,0
54953,-100,4,2,1,65,0,0
55907,-133.333333333333,4,2,1,5,0,0
55994,-83.3333333333333,4,2,1,80,0,1
64838,-66.6666666666667,4,2,1,80,0,1
65098,-66.6666666666667,4,2,1,5,0,1
65185,-133.333333333333,4,2,1,80,0,1
65445,-133.333333333333,4,2,1,5,0,1
65531,-83.3333333333333,4,2,1,80,0,1
70127,-83.3333333333333,4,2,1,5,0,1
70213,-83.3333333333333,4,2,1,80,0,1
70300,-83.3333333333333,4,2,1,5,0,1
70387,-83.3333333333333,4,2,1,80,0,1
70647,-83.3333333333333,4,2,1,5,0,1
70734,-83.3333333333333,4,2,1,80,0,1
70820,-83.3333333333333,4,2,1,5,0,1
70907,-83.3333333333333,4,2,1,80,0,1
71341,-83.3333333333333,4,2,1,5,0,1
71427,-83.3333333333333,4,2,1,80,0,1
72468,-83.3333333333333,4,2,1,80,0,0
72641,-83.3333333333333,4,2,1,80,0,1
76803,-66.6666666666667,4,2,1,80,0,1
77063,-66.6666666666667,4,2,1,5,0,1
77150,-66.6666666666667,4,2,1,80,0,1
78017,-83.3333333333333,4,2,1,65,0,0
84953,-83.3333333333333,4,2,1,65,0,1
87901,-83.3333333333333,4,2,1,65,0,0

[Colours]
Combo1 : 198,165,128
Combo2 : 247,68,68
Combo3 : 33,91,30
Combo4 : 115,115,115
Combo5 : 211,211,211
Combo6 : 45,63,111
Combo7 : 153,245,69

[HitObjects]
135,81,503,38,0,L|140:170,1,80,2|0,0:0|0:0,0:0:0:0:
177,250,849,1,0,0:0:0:0:
251,111,1023,2,0,L|256:200,1,80,2|0,0:0|0:0,0:0:0:0:
293,280,1369,1,0,0:0:0:0:
361,135,1543,2,0,L|366:224,1,80,2|0,0:0|0:0,0:0:0:0:
403,304,1889,1,0,0:0:0:0:
454,107,2063,6,0,P|408:51|297:56,1,160,2|0,0:0|0:0,0:0:0:0:
255,190,2583,1,2,0:0:0:0:
361,135,2757,1,0,0:0:0:0:
403,304,2930,86,0,L|293:295,1,90.0000034332277,2|0,0:0|0:0,0:0:0:0:
241,266,3277,6,0,L|134:256,1,103.999995239258,8|0,0:3|0:0,0:0:0:0:
361,135,3624,86,0,B|397:161|397:161|346:159,1,90.0000034332277
324,42,3971,6,2,L|445:29,1,120.000004577637,2|2,0:1|0:1,0:1:0:0:
247,125,4318,1,0,0:0:0:0:
389,243,4491,1,0,0:0:0:0:
389,243,4578,1,0,0:0:0:0:
389,243,4664,86,0,L|297:234,1,80,0|0,3:0|0:0,0:0:0:0:
101,316,5011,1,2,0:0:0:0:
197,235,5185,2,0,P|198:212|197:183,1,40,8|4,0:0|0:3,0:0:0:0:
180,85,5358,5,0,3:0:0:0:
180,85,5445,1,0,3:0:0:0:
180,85,5531,1,0,3:0:0:0:
180,85,5618,1,0,3:0:0:0:
180,85,5705,85,8,0:0:0:0:
218,98,5792,1,8,0:0:0:0:
256,86,5878,1,8,0:0:0:0:
286,60,5965,1,8,0:0:0:0:
304,25,6052,22,0,P|312:73|324:126,1,95.9999970703126,4|4,0:0|0:3,0:0:0:0:
436,29,6398,1,8,0:0:0:0:
252,184,6572,2,0,P|361:176|435:239,1,191.999994140625,4|0,0:3|0:0,0:0:0:0:
322,119,7092,1,8,0:0:0:0:
165,261,7266,6,0,B|138:201|138:201|161:77,1,191.999994140625,4|4,0:0|0:3,0:0:0:0:
252,184,7786,1,8,0:0:0:0:
52,281,7959,1,4,0:3:0:0:
143,64,8133,5,4,0:3:0:0:
177,47,8219,1,4,0:3:0:0:
215,44,8306,1,4,0:3:0:0:
250,58,8393,1,4,0:3:0:0:
284,74,8479,1,6,0:3:0:0:
322,76,8566,1,2,0:0:0:0:
358,65,8653,1,6,0:3:0:0:
391,45,8739,1,2,0:0:0:0:
409,11,8826,6,0,L|402:131,1,95.9999970703126,4|4,0:0|0:3,0:0:0:0:
368,304,9173,1,8,0:0:0:0:
238,210,9346,2,0,B|299:213|299:213|361:198|361:198|428:207,1,191.999994140625,4|0,0:3|0:0,0:0:0:0:
368,304,9867,1,8,0:0:0:0:
156,123,10040,6,0,B|134:192|134:192|144:320,1,191.999994140625,4|4,0:0|0:3,0:0:0:0:
287,109,10560,2,0,P|280:54|273:11,1,95.9999970703126,8|4,0:0|0:3,0:0:0:0:
238,210,10907,1,4,0:3:0:0:
400,115,11081,1,4,0:3:0:0:
174,26,11254,38,0,B|129:28|129:28|88:48,1,90.0000034332277,2|0,0:0|0:0,0:0:0:0:
48,118,11601,6,0,L|38:254,1,127.99999609375,4|0,0:0|0:0,0:0:0:0:
217,302,11948,1,8,0:0:0:0:
133,349,12063,2,0,L|70:338,1,63.9999980468751,8|8,0:0|0:0,0:0:0:0:
194,211,12294,6,0,L|326:184,1,127.99999609375,10|0,0:0|0:0,0:0:0:0:
492,17,12641,1,8,0:0:0:0:
405,59,12757,2,0,L|393:122,1,63.9999980468751,8|8,0:0|0:0,0:0:0:0:
460,262,12988,6,0,L|453:199,2,63.9999980468751,10|4|4,0:0|0:3|0:3,0:0:0:0:
367,346,13335,2,0,L|285:345,2,63.9999980468751,10|4|4,0:0|0:3|0:3,0:0:0:0:
324,213,13682,37,8,0:0:0:0:
481,376,13913,1,8,0:0:0:0:
271,74,14144,2,0,L|263:137,1,63.9999980468751,8|4,0:0|0:3,0:0:0:0:
324,213,14375,5,4,0:0:0:0:
165,163,14549,1,4,0:3:0:0:
376,77,14722,1,8,0:0:0:0:
440,302,14896,2,0,L|280:287,1,143.999995605469,4|0,0:0|0:0,0:0:0:0:
217,281,15242,1,4,0:3:0:0:
383,198,15416,1,8,0:0:0:0:
173,370,15589,6,0,P|126:310|137:224,1,143.999995605469,4|4,0:0|0:3,0:0:0:0:
161,173,15936,1,4,0:3:0:0:
383,198,16109,2,0,B|430:193|430:193|472:164,1,95.9999970703126,8|0,0:0|0:0,0:0:0:0:
280,135,16456,5,10,0:0:0:0:
260,168,16543,1,0,3:0:0:0:
253,205,16630,1,0,3:0:0:0:
264,241,16716,1,0,3:0:0:0:
290,268,16803,1,2,3:0:0:0:
279,284,16890,1,0,3:0:0:0:
275,302,16976,1,0,3:0:0:0:
277,321,17063,1,0,3:0:0:0:
283,339,17150,5,4,0:1:0:0:
222,112,22699,6,0,L|356:84,1,120.000004577637,2|0,0:0|0:0,0:0:0:0:
226,201,23219,2,0,L|343:177,1,120.000004577637,2|0,0:0|0:0,0:0:0:0:
230,291,23739,2,0,L|288:279,1,60.0000022888184
109,345,24086,5,0,0:0:0:0:
145,253,24260,1,2,0:0:0:0:
17,193,24433,2,0,P|30:219|38:249,1,60.0000022888184,2|0,0:0|0:0,0:0:0:0:
114,159,24780,2,0,P|119:128|130:102,1,60.0000022888184,2|0,0:0|0:0,0:0:0:0:
13,29,25127,2,0,P|26:55|34:85,1,60.0000022888184,2|0,0:0|0:0,0:0:0:0:
113,190,25387,1,2,0:0:0:0:
113,190,25474,86,0,L|246:162,1,120.000004577637,2|0,0:0|0:0,0:0:0:0:
368,292,25994,2,0,P|326:251|329:193,1,120.000004577637,2|0,0:0|0:0,0:0:0:0:
458,126,26514,2,0,P|428:124|399:118,1,60.0000022888184,2|0,0:0|0:0,0:0:0:0:
255,59,26861,5,4,0:0:0:0:
256,192,26948,12,0,27901,0:0:0:0:
263,199,28075,5,0,3:0:0:0:
263,199,28161,1,0,3:0:0:0:
263,199,28248,2,0,P|221:184|177:178,1,80,4|0,0:0|0:0,0:0:0:0:
107,99,28595,1,8,0:0:0:0:
312,123,28768,2,0,L|297:293,1,160,4|4,0:3|0:3,0:0:0:0:
297,282,29462,6,0,P|370:242|452:255,1,160,6|4,0:3|0:3,0:0:0:0:
387,348,29982,1,8,0:0:0:0:
216,358,30156,1,0,3:0:0:0:
216,358,30242,1,0,3:0:0:0:
216,358,30329,2,0,L|192:259,1,80,2|0,3:0|0:0,0:0:0:0:
285,119,30676,2,0,L|275:199,1,80,8|0,0:0|3:0,0:0:0:0:
294,231,30936,1,0,3:0:0:0:
294,231,31023,6,0,P|339:233|392:221,1,80,6|4,3:0|0:3,0:0:0:0:
412,122,31370,1,8,0:0:0:0:
469,302,31543,2,0,L|486:258,1,40,4|4,0:3|0:3,0:0:0:0:
412,122,31716,1,2,3:0:0:0:
363,334,31890,1,4,0:3:0:0:
363,334,32237,6,0,P|293:324|190:316,1,160,6|4,0:3|0:3,0:0:0:0:
294,231,32757,1,8,0:0:0:0:
96,206,32930,2,0,L|113:258,1,40,4|4,0:3|0:3,0:0:0:0:
88,358,33104,1,2,3:0:0:0:
207,186,33277,1,4,0:3:0:0:
276,363,33450,6,0,B|231:348|231:348|198:310,1,90.0000034332277,10|0,0:0|0:0,0:0:0:0:
276,278,33797,6,0,L|365:271,1,80,4|0,0:0|0:0,0:0:0:0:
501,190,34144,1,8,0:3:0:0:
395,93,34318,1,0,3:0:0:0:
395,93,34404,1,0,3:0:0:0:
395,93,34491,2,0,L|393:180,1,80,8|0,3:0|0:0,0:0:0:0:
329,372,34838,2,0,P|322:310|311:247,1,120,8|0,0:3|0:0,0:0:0:0:
245,212,35185,6,0,P|204:211|165:196,1,80,2|0,3:0|0:0,0:0:0:0:
80,117,35531,1,8,0:0:0:0:
114,292,35705,1,0,3:0:0:0:
114,292,35792,1,0,3:0:0:0:
114,292,35878,2,0,L|127:374,1,80,2|0,3:0|0:0,0:0:0:0:
17,217,36225,1,8,0:0:0:0:
161,158,36398,1,0,3:0:0:0:
161,158,36485,1,0,3:0:0:0:
161,158,36572,6,0,L|169:207,1,40,2|0,3:0|0:0,0:0:0:0:
248,58,36745,2,0,L|287:51,1,40,6|4,0:3|0:3,0:0:0:0:
266,211,36919,2,0,L|272:250,1,40,10|0,0:0|0:0,0:0:0:0:
385,120,37092,1,6,0:0:0:0:
385,120,37439,6,0,L|386:70,1,40,6|0,0:3|0:0,0:0:0:0:
270,217,37612,2,0,L|276:259,1,40,10|0,0:0|0:0,0:0:0:0:
438,294,37786,6,0,L|258:282,1,160,4|4,0:0|0:3,0:0:0:0:
164,340,38306,2,0,L|73:333,1,80,8|4,0:0|0:3,0:0:0:0:
146,110,38653,5,10,0:0:0:0:
166,134,38739,1,0,3:0:0:0:
179,163,38826,1,0,3:0:0:0:
178,195,38913,1,0,3:0:0:0:
165,224,39000,1,2,3:0:0:0:
179,210,39086,1,0,3:0:0:0:
198,204,39173,1,2,3:0:0:0:
218,204,39260,1,0,3:0:0:0:
235,213,39346,6,0,L|161:244,1,80,4|0,0:0|0:0,0:0:0:0:
66,185,39693,1,0,3:0:0:0:
289,131,39867,6,0,P|323:169|332:231,1,103.999995239258,4|0,0:0|0:0,0:0:0:0:
207,69,40213,2,0,L|310:23,1,103.999995239258,4|0,0:0|0:0,0:0:0:0:
235,213,40560,6,0,L|381:142,1,160,4|8,0:0|0:3,0:0:0:0:
134,162,41081,2,0,P|122:200|125:242,1,80,8|4,0:0|0:3,0:0:0:0:
229,343,41427,5,10,3:2:0:0:
213,340,41514,1,0,3:0:0:0:
196,340,41601,1,0,3:0:0:0:
180,344,41687,1,0,3:0:0:0:
165,351,41774,1,2,3:0:0:0:
168,335,41861,1,0,3:0:0:0:
177,321,41948,1,0,3:0:0:0:
189,310,42034,1,0,3:0:0:0:
203,303,42121,6,0,L|290:263,1,80,4|0,0:0|0:0,0:0:0:0:
452,189,42468,1,0,3:0:0:0:
416,376,42641,6,0,P|389:336|381:271,1,103.999995239258,4|0,0:0|0:0,0:0:0:0:
446,85,42988,2,0,L|452:189,1,103.999995239258,4|0,0:0|0:0,0:0:0:0:
344,38,43335,6,0,P|264:48|214:142,1,160,4|0,0:0|3:0,0:0:0:0:
223,144,43768,1,4,0:3:0:0:
223,144,43855,2,0,L|122:148,1,80,8|0,0:0|3:0,0:0:0:0:
57,226,44115,1,4,0:3:0:0:
57,226,44202,2,0,L|69:264,1,40,8|0,0:0|0:0,0:0:0:0:
170,322,44375,2,0,L|184:271,1,40,4|0,0:3|0:0,0:0:0:0:
230,164,44549,2,0,B|239:193,6,20,10|0|0|0|0|0|0,0:0|0:0|0:0|0:0|0:0|0:0|0:0,0:0:0:0:
223,144,44896,6,0,B|276:127|297:81|297:81|324:98|363:94,1,155.999992858887,4|0,0:0|0:0,0:0:0:0:
452,91,45242,2,0,L|477:143,1,40,8|4,0:0|3:0,0:0:0:0:
459,224,45416,1,8,0:0:0:0:
454,239,45503,1,4,3:0:0:0:
449,254,45589,6,0,P|372:233|308:282,1,155.999992858887,12|0,0:0|0:0,0:0:0:0:
255,375,45936,2,0,L|305:366,1,40,8|4,0:0|3:0,0:0:0:0:
161,348,46109,1,8,0:0:0:0:
133,342,46196,1,4,3:0:0:0:
105,337,46283,6,0,B|63:243|63:243|76:175,1,155.999992858887,12|0,0:0|0:0,0:0:0:0:
117,69,46630,2,0,L|127:107,1,40,8|4,0:0|3:0,0:0:0:0:
227,121,46803,1,8,0:0:0:0:
259,145,46890,1,4,3:0:0:0:
290,169,46976,6,0,B|334:148|334:148|392:151|392:151|446:125,1,155.999992858887,12|0,0:0|0:0,0:0:0:0:
373,8,47323,1,8,0:0:0:0:
322,16,47410,1,4,0:3:0:0:
270,21,47497,1,4,0:3:0:0:
218,27,47583,1,4,0:3:0:0:
166,33,47670,5,12,0:0:0:0:
290,169,47844,1,2,0:0:0:0:
30,101,48017,1,8,0:0:0:0:
136,243,48190,1,0,3:0:0:0:
136,243,48277,1,0,3:0:0:0:
136,243,48364,2,0,L|130:152,1,80,2|8,3:0|3:0,0:0:0:0:
131,135,48624,1,8,3:0:0:0:
131,135,48711,1,8,0:0:0:0:
290,169,48884,6,0,L|448:149,1,160,4|6,0:0|0:3,0:0:0:0:
262,186,49404,1,8,0:0:0:0:
369,61,49578,1,6,3:0:0:0:
444,261,49751,1,8,0:0:0:0:
240,77,49924,1,6,3:0:0:0:
237,293,50098,1,8,0:0:0:0:
448,149,50271,1,6,3:0:0:0:
448,149,50358,1,0,3:0:0:0:
448,149,50445,5,4,0:0:0:0:
369,61,50618,1,2,0:0:0:0:
346,205,50792,2,0,P|352:245|365:279,1,60.0000022888184,2|4,0:0|0:3,0:0:0:0:
448,149,51138,1,8,0:0:0:0:
270,120,51312,2,0,B|226:102|226:102|194:64,1,90.0000034332277,2|0,0:0|0:0,0:0:0:0:
159,0,51659,6,0,P|122:46|133:113,1,120.000004577637,10|4,0:0|0:3,0:0:0:0:
270,120,52179,1,4,0:3:0:0:
117,202,52352,2,0,L|87:200,1,30.0000011444092,0|0,3:0|0:0,0:0:0:0:
215,306,52526,2,0,L|207:176,1,120.000004577637,10|0,0:0|0:0,0:0:0:0:
332,206,53046,1,0,3:0:0:0:
332,206,53133,1,0,3:0:0:0:
332,206,53219,6,0,L|290:217,1,30.0000011444092,12|0,0:0|0:0,0:0:0:0:
382,271,53393,1,0,3:0:0:0:
404,251,53479,1,0,3:0:0:0:
416,223,53566,1,0,3:0:0:0:
416,192,53653,1,0,3:0:0:0:
406,163,53739,1,0,3:0:0:0:
220,134,53913,5,8,3:2:0:0:
247,122,54000,1,0,3:0:0:0:
275,112,54086,1,0,3:0:0:0:
302,100,54173,1,0,3:0:0:0:
330,88,54260,2,0,L|332:40,1,30.0000011444092,0|0,3:0|0:0,0:0:0:0:
332,206,54433,6,0,L|297:220,1,30.0000011444092,2|0,3:0|0:0,0:0:0:0:
441,158,54607,2,0,L|486:181,1,30.0000011444092,4|0,3:0|0:0,0:0:0:0:
409,326,54780,1,2,3:0:0:0:
409,326,54866,1,0,3:0:0:0:
409,326,54953,2,0,L|400:274,1,40,10|0,3:2|0:0,0:0:0:0:
285,346,55127,5,0,3:0:0:0:
249,327,55213,1,0,3:0:0:0:
209,321,55300,1,0,3:0:0:0:
173,339,55387,1,0,3:0:0:0:
144,366,55474,2,0,L|84:342,1,40,4|0,3:0|0:0,0:0:0:0:
127,150,55647,6,0,B|182:170|182:170|247:144,1,120,10|0,3:0|0:0,0:0:0:0:
92,81,55994,6,0,L|61:236,1,143.999995605469,4|4,1:0|0:3,0:0:0:0:
52,302,56341,2,0,L|164:288,1,95.9999970703126,8|4,0:0|0:3,0:0:0:0:
307,209,56687,1,2,0:0:0:0:
194,374,56861,1,4,0:3:0:0:
401,254,57034,2,0,P|408:199|392:144,1,95.9999970703126,10|0,0:0|0:0,0:0:0:0:
280,328,57381,6,0,L|430:291,1,143.999995605469,6|4,0:3|0:3,0:0:0:0:
499,302,57728,1,8,0:0:0:0:
307,209,57901,2,0,L|203:188,1,95.9999970703126,6|0,0:3|0:0,0:0:0:0:
315,20,58248,1,4,0:3:0:0:
399,159,58422,1,8,0:0:0:0:
191,92,58595,1,0,3:0:0:0:
191,92,58682,1,0,3:0:0:0:
191,92,58768,5,4,3:2:0:0:
421,53,58942,2,0,L|469:45,1,47.9999985351563,4|4,0:3|0:3,0:0:0:0:
280,169,59115,1,8,0:0:0:0:
315,20,59289,1,4,0:3:0:0:
429,193,59462,2,0,P|449:239|454:287,1,95.9999970703126,2|4,0:0|0:3,0:0:0:0:
251,316,59809,1,10,0:0:0:0:
287,176,59982,1,0,3:0:0:0:
287,176,60069,1,0,3:0:0:0:
287,176,60156,5,2,3:0:0:0:
105,300,60329,2,0,L|91:351,1,47.9999985351563,4|4,0:3|0:3,0:0:0:0:
142,153,60503,1,8,0:0:0:0:
251,316,60676,1,4,0:3:0:0:
389,155,60849,5,10,0:0:0:0:
381,122,60936,1,0,3:0:0:0:
357,97,61023,1,0,3:0:0:0:
327,81,61109,1,0,3:0:0:0:
294,76,61196,5,10,0:0:0:0:
337,71,61283,1,0,3:0:0:0:
378,58,61370,1,0,3:0:0:0:
411,31,61456,1,0,3:0:0:0:
371,14,61543,6,0,P|370:92|405:184,1,143.999995605469,4|4,0:0|0:3,0:0:0:0:
437,225,61890,2,0,L|421:336,1,95.9999970703126,8|4,0:0|0:3,0:0:0:0:
248,174,62237,1,2,0:0:0:0:
437,225,62410,1,4,0:3:0:0:
186,260,62583,2,0,L|91:243,1,95.9999970703126,10|0,0:0|0:0,0:0:0:0:
314,384,62930,6,0,L|336:219,1,143.999995605469,6|4,0:3|0:3,0:0:0:0:
342,162,63277,1,8,0:0:0:0:
186,260,63450,1,4,0:3:0:0:
341,47,63624,2,0,L|360:148,1,95.9999970703126,2|4,0:0|0:3,0:0:0:0:
94,85,63971,2,0,P|133:56|180:46,1,95.9999970703126,10|4,0:0|3:0,0:0:0:0:
222,50,64231,1,4,3:0:0:0:
222,50,64318,6,0,L|233:106,1,47.9999985351563,10|0,3:2|0:0,0:0:0:0:
261,236,64491,2,0,L|200:208,1,47.9999985351563,6|4,3:0|3:0,0:0:0:0:
71,245,64664,2,0,L|92:202,1,47.9999985351563,10|0,3:2|0:0,0:0:0:0:
309,155,64838,6,0,L|292:354,1,180.000006866455,10|0,0:0|0:0,0:0:0:0:
436,263,65185,6,0,B|472:284|472:284|488:330,1,90.0000034332277,10|0,0:0|0:0,0:0:0:0:
390,344,65531,6,0,L|406:150,1,191.999994140625,4|4,0:0|0:3,0:0:0:0:
252,42,66052,1,8,0:0:0:0:
226,264,66225,1,4,0:3:0:0:
63,61,66398,5,10,0:0:0:0:
90,88,66485,1,0,3:0:0:0:
104,123,66572,1,0,3:0:0:0:
103,161,66659,1,0,3:0:0:0:
89,196,66745,5,10,0:0:0:0:
140,182,66832,1,0,3:0:0:0:
191,167,66919,1,0,3:0:0:0:
240,150,67005,1,0,3:0:0:0:
291,136,67092,6,0,P|366:136|431:198,1,143.999995605469,4|4,1:0|0:3,0:0:0:0:
457,250,67439,2,0,L|439:353,1,95.9999970703126,8|4,0:0|0:3,0:0:0:0:
481,115,67786,1,2,0:0:0:0:
334,226,67959,1,4,0:3:0:0:
414,40,68133,2,0,L|508:23,1,95.9999970703126,10|0,0:0|0:0,0:0:0:0:
291,136,68479,6,0,L|143:117,1,143.999995605469,6|4,0:3|0:3,0:0:0:0:
73,105,68826,1,8,0:0:0:0:
136,327,69000,2,0,P|146:283|140:218,1,95.9999970703126,6|0,0:3|0:0,0:0:0:0:
73,105,69346,1,4,0:3:0:0:
25,271,69520,1,8,0:0:0:0:
237,151,69693,1,0,3:0:0:0:
237,151,69780,1,0,3:0:0:0:
237,151,69867,6,0,P|333:146|374:187,1,143.999995605469,4|0,3:2|0:0,0:0:0:0:
464,164,70213,2,0,L|472:117,1,47.9999985351563,8|0,0:0|0:0,0:0:0:0:
288,232,70387,2,0,L|301:382,1,143.999995605469,4|0,0:0|0:0,0:0:0:0:
451,235,70734,2,0,L|460:187,1,47.9999985351563,8|0,0:0|0:0,0:0:0:0:
429,352,70907,1,8,0:0:0:0:
365,173,71081,6,0,P|305:136|236:150,1,143.999995605469,4|0,0:0|0:0,0:0:0:0:
166,192,71427,1,4,0:3:0:0:
305,42,71601,1,8,0:0:0:0:
238,237,71774,2,0,L|43:217,1,191.999994140625,4|4,0:0|3:0,0:0:0:0:
26,142,72208,1,4,3:0:0:0:
26,142,72294,2,0,L|86:116,1,47.9999985351563,8|4,0:0|3:0,0:0:0:0:
226,61,72468,1,4,3:0:0:0:
226,61,72555,1,4,3:0:0:0:
226,61,72641,5,12,0:0:0:0:
238,237,72815,1,2,3:0:0:0:
345,29,72988,5,8,0:0:0:0:
364,256,73161,1,2,3:0:0:0:
466,49,73335,5,8,0:0:0:0:
488,290,73508,1,2,3:0:0:0:
345,29,73682,5,8,0:0:0:0:
246,245,73855,1,2,3:0:0:0:
246,245,73942,1,0,3:0:0:0:
246,245,74029,5,8,0:0:0:0:
424,169,74202,1,2,0:3:0:0:
168,98,74375,5,8,0:0:0:0:
402,76,74549,1,2,0:3:0:0:
119,217,74722,5,8,0:0:0:0:
401,266,74896,1,2,0:3:0:0:
258,56,75069,1,8,0:0:0:0:
250,88,75156,1,0,3:0:0:0:
243,120,75242,1,0,3:0:0:0:
236,153,75329,1,0,3:0:0:0:
229,186,75416,6,0,L|243:288,1,95.9999970703126,12|0,0:0|3:0,0:0:0:0:
119,217,75676,1,0,3:0:0:0:
119,217,75763,2,0,L|133:322,1,95.9999970703126,8|0,0:0|3:0,0:0:0:0:
215,376,76023,1,0,3:0:0:0:
215,376,76109,6,0,L|333:348,1,95.9999970703126,12|0,0:0|3:0,0:0:0:0:
382,287,76370,1,0,3:0:0:0:
382,287,76456,2,0,L|395:228,1,47.9999985351563,8|0,0:0|0:0,0:0:0:0:
294,121,76630,2,0,L|284:69,1,47.9999985351563,8|0,0:0|0:0,0:0:0:0:
224,295,76803,6,0,P|179:357|145:290,1,180.000006866455,6|0,0:0|0:0,0:0:0:0:
188,219,77150,2,0,B|217:210|217:210|245:214|245:214|327:209,1,120.000004577637,6|0,0:0|0:0,0:0:0:0:
54,277,77497,1,8,0:0:0:0:
149,97,77670,1,4,0:3:0:0:
149,97,78017,6,0,B|214:87|214:87|275:104|275:104|340:98,1,191.999994140625,4|4,0:0|0:3,0:0:0:0:
197,294,78537,2,0,P|193:246|204:200,1,95.9999970703126,8|0,0:0|0:0,0:0:0:0:
318,255,78884,1,4,0:3:0:0:
74,258,79057,1,4,0:3:0:0:
149,97,79231,1,8,0:0:0:0:
281,338,79404,6,0,P|388:317|410:240,1,191.999994140625,4|4,0:0|0:3,0:0:0:0:
228,107,79924,2,0,P|201:152|203:215,1,95.9999970703126,8|0,0:0|0:0,0:0:0:0:
342,50,80271,1,4,0:3:0:0:
203,221,80445,1,4,0:3:0:0:
343,193,80618,1,8,0:0:0:0:
94,126,80792,5,4,0:0:0:0:
94,126,81572,1,2,0:0:0:0:
94,126,81659,2,0,L|138:76,1,47.9999985351563,10|0,0:3|0:0,0:0:0:0:
106,221,81832,2,0,L|36:228,1,47.9999985351563,6|0,0:3|0:0,0:0:0:0:
185,168,82005,2,0,L|215:210,1,47.9999985351563,10|0,0:0|0:0,0:0:0:0:
118,318,82179,5,12,0:0:0:0:
58,225,82786,1,2,0:0:0:0:
58,225,82872,2,0,P|62:204|72:180,1,47.9999985351563,0|2,0:0|0:0,0:0:0:0:
118,318,83046,1,4,0:1:0:0:
274,268,83219,2,0,B|321:256|321:256|381:275,1,95.9999970703126,4|0,0:1|0:0,0:0:0:0:
117,317,83566,6,0,B|103:123,1,191.999994140625,10|0,0:0|3:0,0:0:0:0:
133,101,84000,1,0,3:0:0:0:
171,99,84086,1,0,3:0:0:0:
206,113,84173,1,0,3:0:0:0:
242,125,84260,1,0,3:0:0:0:
279,119,84346,1,0,3:0:0:0:
312,100,84433,6,0,L|319:133,10,23.9999992675781,2|2|2|2|2|2|2|2|2|2|2,0:0|0:0|0:0|0:0|0:0|0:0|0:0|0:0|0:0|0:0|0:0,0:0:0:0:
247,7,84953,5,4,0:0:0:0:
256,192,85040,12,4,87901,0:0:0:0:
