osu file format v14

[General]
AudioFilename: Cry for the Truth(TV edit).mp3
AudioLeadIn: 0
PreviewTime: 55127
Countdown: 0
SampleSet: Soft
StackLeniency: 0.7
Mode: 0
LetterboxInBreaks: 0
WidescreenStoryboard: 0

[Editor]
DistanceSpacing: 1.1
BeatDivisor: 2
GridSize: 8
TimelineZoom: 1.2

[Metadata]
Title:Cry for the Truth(TV edit)
TitleUnicode:Cry for the Truth(TV edit)
Artist:MICHI
ArtistUnicode:MICHI
Creator:Garden
Version:Easy
Source:六花の勇者
Tags:Pho Misure rokka no yuusha braves of the six flowers opening tvsize
BeatmapID:1244555
BeatmapSetID:547857

[Difficulty]
HPDrainRate:2
CircleSize:2
OverallDifficulty:2
ApproachRate:3.5
SliderMultiplier:0.9
SliderTickRate:1

[Events]
//Background and Video events
0,0,"bg.jpg",0,0
//Break Periods
2,17350,26861
//Storyboard Layer 0 (Background)
//Storyboard Layer 1 (Fail)
//Storyboard Layer 2 (Pass)
//Storyboard Layer 3 (Foreground)
//Storyboard Sound Samples

[TimingPoints]
503,346.820809248555,4,2,1,65,1,0
33797,-100,4,2,2,65,0,0
35185,-100,4,2,1,65,0,0
55994,-100,4,2,1,80,0,1
72468,-100,4,2,1,80,0,0
72641,-100,4,2,1,80,0,1
78017,-100,4,2,1,65,0,0
84953,-100,4,2,1,65,0,1
87901,-100,4,2,1,65,0,0

[Colours]
Combo1 : 198,165,128
Combo2 : 247,68,68
Combo3 : 33,91,30
Combo4 : 115,115,115
Combo5 : 211,211,211
Combo6 : 45,63,111
Combo7 : 153,245,69

[HitObjects]
63,118,6052,6,0,P|121:86|187:92,1,135,4|4,0:0|0:3,0:0:0:0:
281,124,6919,1,0,0:0:0:0:
206,188,7266,2,0,P|184:257|207:328,1,135,4|8,0:0|0:0,0:0:0:0:
288,359,8133,2,0,L|385:343,1,90,4|6,0:3|0:3,0:0:0:0:
452,281,8826,6,0,B|427:241|427:241|437:141,1,135,4|4,0:0|0:3,0:0:0:0:
447,55,9693,1,0,0:0:0:0:
355,92,10040,2,0,P|272:101|209:57,1,135,4|8,0:0|0:0,0:0:0:0:
150,16,10907,2,0,P|129:64|132:104,1,90,4|2,0:3|0:0,0:0:0:0:
159,195,11601,6,0,L|53:210,2,90,4|8|10,0:0|0:0|0:0,0:0:0:0:
256,215,12641,1,8,0:0:0:0:
353,195,12988,2,0,L|459:210,1,90,10|10,0:0|0:0,0:0:0:0:
490,294,13682,2,0,P|437:311|372:347,1,120,8|8,0:0|0:0,0:0:0:0:
320,368,14375,6,0,L|179:352,1,135,4|4,0:0|0:0,0:0:0:0:
87,363,15242,1,4,0:3:0:0:
33,279,15589,2,0,P|24:225|64:148,1,135,4|8,0:0|0:0,0:0:0:0:
126,84,16456,2,0,L|217:107,1,90,10|2,0:0|3:0,0:0:0:0:
309,132,17150,5,4,0:1:0:0:
457,112,28248,6,0,B|373:83|373:83|330:97,1,135,4|4,0:0|0:3,0:0:0:0:
236,132,29115,1,4,0:3:0:0:
313,194,29462,2,0,L|303:340,1,135,6|8,0:3|0:0,0:0:0:0:
210,361,30329,2,0,P|159:364|116:349,1,90,2|8,3:0|0:0,0:0:0:0:
47,287,31023,6,0,L|52:143,1,135,6|4,3:0|0:3,0:0:0:0:
88,60,31890,1,4,0:3:0:0:
170,114,32237,2,0,L|317:104,1,135,6|8,0:3|0:0,0:0:0:0:
322,202,33104,2,0,L|232:208,1,90,2|10,3:0|0:0,0:0:0:0:
228,307,33797,6,0,L|406:291,1,180,4|8,0:0|3:0,0:0:0:0:
485,231,34838,1,8,0:3:0:0:
481,132,35185,2,0,P|430:72|322:89,1,180,2|2,3:0|3:0,0:0:0:0:
255,137,36225,1,8,0:0:0:0:
345,176,36572,6,0,B|351:224|351:224|333:263|333:263|346:321,1,135,2|6,3:0|0:0,0:0:0:0:
264,366,37439,1,6,0:3:0:0:
183,307,37786,2,0,L|29:288,1,135,4|8,0:0|0:0,0:0:0:0:
47,191,38653,2,0,L|145:202,1,90,10|2,0:0|3:0,0:0:0:0:
232,224,39346,6,0,B|281:223|315:192|315:192|372:199,1,135,4|4,0:0|0:0,0:0:0:0:
456,209,40213,1,4,0:0:0:0:
473,111,40560,2,0,P|428:64|338:61,1,135,4|8,0:0|0:0,0:0:0:0:
272,96,41427,2,0,P|229:101|160:80,1,90,10|2,3:2|3:0,0:0:0:0:
104,32,42121,6,0,B|84:67|84:67|98:200,1,135,4|4,0:0|0:0,0:0:0:0:
106,259,42988,1,4,0:0:0:0:
185,199,43335,2,0,P|266:177|343:199,1,135,4|8,0:0|0:0,0:0:0:0:
387,252,44202,2,0,L|484:239,1,90,8|10,0:0|0:0,0:0:0:0:
479,339,44896,6,0,B|390:351|390:351|331:347|300:296,1,180,4|12,0:0|0:0,0:0:0:0:
308,114,46283,2,0,B|395:92|395:92|442:177,1,180,12|12,0:0|0:0,0:0:0:0:
246,218,47670,6,0,L|51:196,1,180,12|2,0:0|3:0,0:0:0:0:
6,61,48884,2,0,P|70:42|155:83,1,135,4|8,0:0|0:0,0:0:0:0:
219,110,49751,2,0,L|325:90,1,90,8|8,0:0|0:0,0:0:0:0:
381,26,50445,6,0,P|352:114|394:208,1,180,4|8,0:0|0:0,0:0:0:0:
463,316,51659,2,0,L|354:307,1,90,10|4,0:0|0:3,0:0:0:0:
283,351,52352,2,0,L|143:362,1,135,0|0,3:0|0:0,0:0:0:0:
62,311,53219,6,0,P|56:275|77:218,1,90,12|0,0:0|3:0,0:0:0:0:
147,159,53913,2,0,P|80:167|12:138,2,135,8|2|10,3:2|3:0|3:2,0:0:0:0:
234,112,55300,2,0,L|231:18,1,90,0|10,3:0|3:0,0:0:0:0:
329,12,55994,6,0,L|336:195,1,180,4|2,1:0|0:0,0:0:0:0:
341,290,57034,1,10,0:0:0:0:
249,250,57381,2,0,P|184:245|105:287,2,135,6|6|8,0:3|0:3|0:0,0:0:0:0:
341,290,58768,6,0,P|432:283|485:204,1,180,4|2,3:2|0:0,0:0:0:0:
478,117,59809,1,10,0:0:0:0:
412,42,60156,2,0,L|289:54,1,90,2|8,3:0|0:0,0:0:0:0:
249,117,60849,2,0,L|139:106,1,90,10|10,0:0|0:0,0:0:0:0:
63,83,61543,6,0,P|124:123|128:230,1,180,4|2,0:0|0:0,0:0:0:0:
71,301,62583,1,10,0:0:0:0:
146,365,62930,2,0,L|341:337,1,180,6|2,0:3|0:0,0:0:0:0:
422,323,63971,1,10,0:0:0:0:
395,227,64318,6,0,B|386:181|386:181|406:144|406:144|395:79,1,135,10|10,3:2|0:0,0:0:0:0:
344,15,65185,1,10,0:0:0:0:
258,64,65531,2,0,L|102:58,1,135,4|8,0:0|0:0,0:0:0:0:
42,115,66398,2,0,P|49:163|46:222,1,90,10|10,0:0|0:0,0:0:0:0:
2,292,67092,6,0,B|89:325|91:263|188:293,1,180,4|2,1:0|0:0,0:0:0:0:
272,321,68133,1,10,0:0:0:0:
348,258,68479,2,0,L|354:107,2,135,6|6|8,0:3|0:3|0:0,0:0:0:0:
272,321,69867,6,0,B|184:304|184:304|133:323,1,135,4|4,3:2|0:0,0:0:0:0:
48,355,70734,1,8,0:0:0:0:
33,256,71081,2,0,B|26:191|26:191|51:148|51:148|45:71,1,180,4|4,0:0|0:0,0:0:0:0:
143,67,72121,2,0,L|149:132,1,45,4|8,3:0|0:0,0:0:0:0:
155,210,72641,6,0,L|246:203,1,90,12|8,0:0|0:0,0:0:0:0:
284,294,73335,2,0,L|374:283,1,90,8|8,0:0|0:0,0:0:0:0:
471,269,74029,2,0,L|457:171,1,90,8|8,0:0|0:0,0:0:0:0:
362,152,74722,2,0,L|370:56,1,90,8|8,0:0|0:0,0:0:0:0:
454,10,75416,6,0,B|378:63|282:28|282:28|249:66|193:61,1,270,12|8,0:0|0:0,0:0:0:0:
105,38,76803,2,0,L|96:138,1,90,6|6,0:0|0:0,0:0:0:0:
88,226,77497,1,8,0:0:0:0:
230,185,78017,6,0,P|304:174|381:211,1,135,4|8,0:0|0:0,0:0:0:0:
424,268,78884,2,0,P|412:201|448:134,2,135,4|4|8,0:3|0:0|0:0,0:0:0:0:
473,353,80271,1,4,0:3:0:0:
325,368,80792,5,4,0:0:0:0:
137,206,81659,2,0,B|227:211|227:211|266:248,1,135,10|12,0:3|0:0,0:0:0:0:
414,48,83046,2,0,B|325:39|325:39|276:6,1,135,4|10,0:1|0:0,0:0:0:0:
137,206,84433,2,0,B|141:245|141:245|148:261|148:261|143:287|143:287|158:314|158:314|158:357,1,135,2|4,0:0|0:0,0:0:0:0:
256,192,85127,12,4,87901,0:0:0:0:
