osu file format v14

[General]
AudioFilename: audio.mp3
AudioLeadIn: 0
PreviewTime: 55217
Countdown: 0
SampleSet: Soft
StackLeniency: 0.2
Mode: 0
LetterboxInBreaks: 0
WidescreenStoryboard: 1

[Editor]
Bookmarks: 139669,207645
DistanceSpacing: 0.5
BeatDivisor: 4
GridSize: 8
TimelineZoom: 1.7

[Metadata]
Title:Cry for the Truth (TV Size)
TitleUnicode:Cry for the Truth (TV Size)
Artist:MICHI
ArtistUnicode:MICHI
Creator:- Matha -
Version:Betrayal
Source:六花の勇者
Tags:rokka no yuusha braves of the six flowers opening japanese op anime
BeatmapID:1963866
BeatmapSetID:940312

[Difficulty]
HPDrainRate:6
CircleSize:4.2
OverallDifficulty:8.8
ApproachRate:9.2
SliderMultiplier:2.1
SliderTickRate:2

[Events]
//Background and Video events
0,0,"BG.png",0,0
//Break Periods
//Storyboard Layer 0 (Background)
//Storyboard Layer 1 (Fail)
//Storyboard Layer 2 (Pass)
//Storyboard Layer 3 (Foreground)
//Storyboard Sound Samples

[TimingPoints]
507,346.820809248555,4,2,1,40,1,0
507,-166.666666666667,4,2,1,40,0,0
4668,-166.666666666667,4,2,1,50,0,0
6056,-100,4,2,1,70,0,0
17327,-142.857142857143,4,2,1,40,0,0
26865,-200,4,2,1,40,0,0
28079,-200,4,2,1,70,0,0
28772,-100,4,2,1,70,0,0
33454,-200,4,2,1,70,0,0
33715,-200,4,2,1,5,0,0
33801,-200,4,2,1,70,0,0
35015,-100,4,2,1,70,0,0
38830,-100,4,2,1,50,0,0
39004,-100,4,2,1,55,0,0
39177,-100,4,2,1,60,0,0
39350,-100,4,2,1,70,0,0
43599,-100,4,2,1,5,0,0
43686,-100,4,2,1,70,0,0
44900,-125,4,2,1,70,0,0
45160,-125,4,2,1,5,0,0
45246,-125,4,2,1,70,0,0
48715,-100,4,2,1,70,0,0
48888,-71.4285714285714,4,2,1,70,0,0
51663,-100,4,2,1,70,0,0
55304,-100,4,2,1,50,0,0
55651,-100,4,2,1,60,0,0
55998,-83.3333333333333,4,2,1,90,0,1
65102,-83.3333333333333,4,2,1,5,0,1
65189,-83.3333333333333,4,2,1,90,0,1
65449,-83.3333333333333,4,2,1,5,0,1
65535,-83.3333333333333,4,2,1,90,0,1
72038,-83.3333333333333,4,2,1,5,0,1
72125,-83.3333333333333,4,2,1,90,0,1
76807,-166.666666666667,4,2,1,90,0,1
77154,-83.3333333333333,4,2,1,90,0,1
77414,-83.3333333333333,4,2,1,5,0,1
77501,-83.3333333333333,4,2,1,90,0,1
78021,-100,4,2,1,70,0,0
80796,-166.666666666667,4,2,1,70,0,0
82009,-100,4,2,1,70,0,0
82183,-166.666666666667,4,2,1,70,0,0
83570,-83.3333333333333,4,2,1,70,0,0
83830,-83.3333333333333,4,2,1,5,0,0
83917,-83.3333333333333,4,2,1,70,0,0
84957,-200,4,2,1,70,0,0

[Colours]
Combo1 : 255,140,85
Combo2 : 0,232,232
Combo3 : 128,128,255
Combo4 : 255,117,186
SliderTrackOverride : 40,50,70

[HitObjects]
102,343,507,86,0,P|95:303|94:258,1,62.9999980773926,2|0,0:0|0:0,0:0:0:0:
124,203,853,1,0,1:0:0:0:
8,290,1027,2,0,P|19:225|42:157,1,125.999996154785,2|0,0:0|0:0,0:0:0:0:
205,134,1547,6,0,P|212:174|213:219,1,62.9999980773926,2|0,0:0|0:0,0:0:0:0:
183,274,1893,1,0,1:0:0:0:
299,187,2067,2,0,P|287:251|264:319,1,125.999996154785,2|0,0:0|0:0,0:0:0:0:
186,361,2587,5,2,0:0:0:0:
357,326,2761,1,0,1:0:0:0:
183,274,2934,2,0,P|157:278|121:296,1,62.9999980773926,2|0,0:0|0:0,0:0:0:0:
69,358,3281,5,8,3:0:0:0:
33,286,3454,1,0,1:0:0:0:
113,199,3628,2,0,P|122:161|126:125,1,62.9999980773926,2|0,0:0|0:0,0:0:0:0:
41,88,3975,1,2,0:0:0:0:
185,54,4148,1,0,1:0:0:0:
54,8,4321,1,2,0:0:0:0:
206,132,4495,1,2,0:0:0:0:
269,77,4668,5,2,0:0:0:0:
327,155,4842,1,2,0:0:0:0:
330,170,4928,1,2,0:0:0:0:
333,185,5015,1,8,0:0:0:0:
424,53,5189,1,8,0:0:0:0:
427,33,5276,1,8,0:0:0:0:
431,14,5362,1,8,0:0:0:0:
512,182,5535,1,2,0:0:0:0:
281,254,5709,70,0,L|261:250,7,15.7499995193482,8|0|0|0|0|0|0|0,0:0|1:0|1:0|1:0|1:0|1:0|1:0|1:0,0:0:0:0:
310,266,6056,54,0,L|205:280,1,105,6|2,0:0|0:0,0:0:0:0:
18,304,6402,1,8,0:0:0:0:
145,118,6576,2,0,B|166:165|166:165|149:220,1,105,2|2,0:0|0:0,0:0:0:0:
73,371,6923,1,2,0:0:0:0:
30,171,7096,1,8,0:0:0:0:
205,279,7270,6,0,B|283:269|283:269|330:287|330:287|411:273,1,210,6|2,0:0|0:0,0:0:0:0:
432,176,7790,2,0,P|405:230|413:282,1,105,8|2,0:0|0:0,0:0:0:0:
483,111,8137,1,2,0:0:0:0:
454,133,8223,1,0,1:0:0:0:
418,140,8310,1,2,0:0:0:0:
383,129,8397,1,0,1:0:0:0:
357,104,8483,1,8,0:0:0:0:
317,71,8569,1,0,1:0:0:0:
266,67,8656,1,2,0:0:0:0:
222,93,8743,1,0,1:0:0:0:
201,141,8830,6,0,P|158:129|88:115,1,105,6|2,0:0|0:0,0:0:0:0:
245,263,9177,1,8,0:0:0:0:
317,71,9350,2,0,P|360:58|430:44,1,105,2|2,0:0|0:0,0:0:0:0:
163,224,9697,1,2,0:0:0:0:
339,299,9871,1,8,0:0:0:0:
201,141,10044,6,0,B|81:120|127:205|1:190,1,210,6|2,0:0|0:0,0:0:0:0:
150,324,10564,2,0,P|168:270|157:209,1,105,8|2,0:0|0:0,0:0:0:0:
31,103,10911,1,2,0:0:0:0:
2,289,11085,1,2,0:0:0:0:
201,141,11258,2,0,L|307:151,1,105,14|2,0:0|0:0,0:0:0:0:
460,277,11605,69,6,0:0:0:0:
460,277,11952,5,8,0:0:0:0:
385,258,12067,1,8,0:0:0:0:
312,284,12183,1,10,0:0:0:0:
240,257,12298,1,10,0:0:0:0:
240,257,12645,5,8,0:0:0:0:
309,302,12761,1,8,0:0:0:0:
388,230,12876,1,10,0:0:0:0:
470,304,12992,1,10,0:0:0:0:
485,296,13223,5,8,0:0:0:0:
471,166,13339,2,0,P|480:141|491:86,2,70,8|10|8,0:0|0:0|0:0,0:0:0:0:
388,230,13686,2,0,B|307:231|352:167|238:175,2,140,8|8|8,0:0|0:0|0:0,0:0:0:0:
391,148,14264,1,8,0:0:0:0:
395,67,14379,70,0,B|351:42|351:42|269:60,1,105,14|2,0:0|0:0,0:0:0:0:
149,113,14726,1,0,0:0:0:0:
215,335,14900,6,0,B|270:273|245:199|245:199|242:235|214:262,1,210,6|2,2:0|2:0,2:0:0:0:
155,194,15420,1,8,0:0:0:0:
370,355,15593,5,6,0:0:0:0:
322,292,15767,1,8,0:0:0:0:
355,276,15853,1,8,0:0:0:0:
391,281,15940,1,2,0:0:0:0:
215,335,16113,5,6,0:0:0:0:
479,367,16287,1,2,0:0:0:0:
370,133,16460,1,8,0:0:0:0:
391,281,16634,1,4,3:0:0:0:
401,262,16720,1,4,3:0:0:0:
409,244,16807,1,8,3:0:0:0:
362,255,16894,1,8,3:0:0:0:
331,290,16980,1,8,0:0:0:0:
321,336,17067,1,8,0:0:0:0:
330,382,17154,5,6,0:0:0:0:
247,370,17327,1,0,0:0:0:0:
167,354,17501,1,0,0:0:0:0:
222,280,17674,2,0,P|227:248|214:192,1,73.4999977569581,0|0,1:0|0:0,0:0:0:0:
107,211,18021,2,0,P|102:243|115:299,1,73.4999977569581
161,135,18368,6,0,P|121:164|21:137,1,146.999995513916,0|0,1:0|0:0,0:0:0:0:
30,146,19061,1,0,0:0:0:0:
161,52,19235,2,0,P|191:60|228:85,1,73.4999977569581,2|0,0:0|0:0,0:0:0:0:
77,16,19582,2,0,P|46:36|11:47,1,73.4999977569581
244,164,19928,5,2,0:0:0:0:
327,152,20101,1,0,0:0:0:0:
407,136,20275,1,0,0:0:0:0:
381,222,20449,2,0,P|376:256|393:315,1,73.4999977569581,0|0,1:0|0:0,0:0:0:0:
490,163,20796,2,0,P|496:127|491:90,1,73.4999977569581
197,118,21142,6,0,B|335:84|271:184|416:132,1,220.499993270874,0|0,1:0|0:0,0:0:0:0:
491,90,21836,1,0,0:0:0:0:
491,90,22356,1,0,0:0:0:0:
406,135,22703,6,0,P|408:193|423:310,1,146.999995513916,2|0,0:0|0:0,0:0:0:0:
303,281,23223,2,0,P|311:208|314:134,1,146.999995513916,0|0,1:0|0:0,0:0:0:0:
314,134,23917,1,0,0:0:0:0:
83,196,24090,6,0,B|141:188|141:188|170:200|170:200|238:188,1,146.999995513916,2|0,0:0|0:0,0:0:0:0:
224,207,24611,2,0,B|166:215|166:215|137:203|137:203|69:215,1,146.999995513916,0|0,1:0|0:0,0:0:0:0:
80,212,25304,1,0,0:0:0:0:
78,226,25391,1,0,0:0:0:0:
74,240,25478,6,0,L|85:326,1,73.4999977569581,2|0,0:0|0:0,0:0:0:0:
142,374,25824,1,0,0:0:0:0:
293,306,25998,2,0,B|161:363|211:246|60:323,1,220.499993270874,0|0,1:0|0:0,0:0:0:0:
359,168,26865,6,2,B|386:132|397:77|320:59|290:142|316:218|350:243|350:243|311:214|277:226,1,315,2|0,0:0|0:0,1:0:0:0:
314,309,28079,1,8,0:0:0:0:
337,319,28165,1,8,0:0:0:0:
363,321,28252,5,6,0:0:0:0:
194,177,28426,1,0,1:0:0:0:
142,374,28599,1,8,0:0:0:0:
288,223,28772,2,0,P|299:171|286:118,1,105,0|0,1:0|0:0,0:0:0:0:
94,126,29119,2,0,P|82:176|93:227,1,105,2|0,0:0|0:0,0:0:0:0:
181,62,29466,6,0,P|122:91|12:10,1,210,2|2,0:0|0:0,0:0:0:0:
287,19,29986,2,0,P|298:69|286:120,1,105,8|8,0:0|0:0,0:0:0:0:
239,181,30246,1,8,0:0:0:0:
239,181,30333,1,2,0:0:0:0:
381,149,30507,1,2,0:0:0:0:
179,57,30680,1,8,0:0:0:0:
298,250,30853,1,8,0:0:0:0:
300,270,30940,1,8,0:0:0:0:
302,290,31027,6,0,L|183:279,1,105,2|2,0:0|0:0,0:0:0:0:
25,255,31374,1,8,0:0:0:0:
120,326,31547,1,8,0:0:0:0:
120,347,31634,1,8,0:0:0:0:
112,365,31720,1,2,0:0:0:0:
100,111,31894,1,2,0:0:0:0:
100,111,32241,6,0,B|222:86|165:172|306:143,1,210,2|2,0:0|0:0,0:0:0:0:
441,117,32761,1,8,0:0:0:0:
311,251,32934,1,8,0:0:0:0:
307,271,33021,1,8,0:0:0:0:
303,291,33108,1,2,0:0:0:0:
460,229,33281,1,2,0:0:0:0:
305,63,33454,6,0,P|265:70|233:97,1,78.75,8|0,0:0|0:0,0:0:0:0:
298,144,33801,5,2,0:0:0:0:
165,26,33975,1,2,0:0:0:0:
119,196,34148,1,8,0:0:0:0:
298,144,34322,1,8,0:0:0:0:
326,146,34408,1,8,0:0:0:0:
354,149,34495,1,2,0:0:0:0:
94,99,34668,1,2,0:0:0:0:
195,353,34842,1,8,0:0:0:0:
119,196,35015,6,0,P|89:199|65:213,1,52.5,0|0,1:0|0:0,0:0:0:0:
36,309,35189,5,2,0:0:0:0:
244,213,35362,1,2,0:0:0:0:
9,124,35535,1,8,0:0:0:0:
254,21,35709,1,8,0:0:0:0:
290,27,35796,1,8,0:0:0:0:
325,33,35882,1,2,0:0:0:0:
94,99,36056,1,2,0:0:0:0:
410,84,36229,1,8,0:0:0:0:
244,213,36402,1,8,0:0:0:0:
240,228,36489,1,8,0:0:0:0:
236,243,36576,6,0,P|242:268|276:311,1,52.5,6|0,0:0|0:0,0:0:0:0:
406,223,36749,1,8,0:0:0:0:
391,219,36836,1,8,0:0:0:0:
376,215,36923,2,0,P|351:221|308:255,1,52.5
191,348,37096,6,0,B|60:368|137:275|-15:297,1,210,6|2,0:0|0:0,0:0:0:0:
28,381,37616,1,8,0:0:0:0:
160,247,37790,2,0,P|168:187|143:24,1,210,6|2,0:0|0:0,0:0:0:0:
46,101,38310,5,8,0:0:0:0:
266,186,38483,1,2,0:0:0:0:
217,0,38657,5,8,0:0:0:0:
246,269,38830,1,4,3:0:0:0:
272,270,38916,1,4,3:0:0:0:
297,264,39004,1,8,0:0:0:0:
334,228,39090,1,8,0:0:0:0:
345,178,39177,1,8,0:0:0:0:
325,130,39264,1,8,0:0:0:0:
281,103,39350,5,6,0:0:0:0:
266,186,39524,1,0,1:0:0:0:
401,125,39697,1,0,1:0:0:0:
199,131,39871,5,4,0:0:0:0:
180,125,40217,5,4,0:0:0:0:
160,119,40564,5,6,0:0:0:0:
88,153,40738,1,2,0:0:0:0:
77,118,40824,1,8,3:0:0:0:
90,82,40911,1,8,0:0:0:0:
155,198,41085,1,2,0:0:0:0:
165,234,41171,1,4,3:0:0:0:
153,269,41258,2,0,P|135:288|96:300,1,52.5,8|0,3:0|0:0,0:0:0:0:
211,132,41431,5,10,0:0:0:0:
260,116,41517,1,8,0:0:0:0:
310,130,41604,1,8,0:0:0:0:
345,167,41691,1,8,0:0:0:0:
404,116,41778,5,8,3:0:0:0:
394,97,41864,1,8,3:0:0:0:
388,77,41951,1,4,3:0:0:0:
388,56,42038,1,4,3:0:0:0:
392,35,42124,5,6,0:0:0:0:
411,29,42645,5,4,0:0:0:0:
433,25,42992,5,4,0:0:0:0:
310,232,43339,6,0,P|287:163|354:190,1,157.5,6|0,0:0|0:0,0:0:0:0:
394,241,43686,1,8,0:0:0:0:
381,275,43772,1,8,0:0:0:0:
353,299,43859,2,0,P|320:313|277:307,1,52.5,8|0,0:0|0:0,0:0:0:0:
447,175,44033,5,2,0:0:0:0:
447,175,44119,1,10,0:0:0:0:
447,175,44206,2,0,L|514:187,1,52.5,8|4,0:0|3:0,0:0:0:0:
277,35,44380,5,8,3:0:0:0:
277,35,44466,1,8,3:0:0:0:
277,35,44553,2,0,L|210:47,1,52.5,8|0,0:0|1:0,0:0:0:0:
152,97,44726,2,0,L|100:87,1,52.5,2|0,0:0|1:0,0:0:0:0:
25,54,44900,6,0,P|65:116|37:188,1,126,6|0,0:0|0:0,0:0:0:0:
32,202,45246,1,8,0:0:0:0:
51,186,45332,1,8,0:0:0:0:
75,178,45419,1,8,0:0:0:0:
100,177,45506,1,8,0:0:0:0:
154,231,45593,5,8,0:0:0:0:
361,21,45940,1,8,0:0:0:0:
315,29,46026,1,8,0:0:0:0:
283,60,46113,1,8,0:0:0:0:
275,106,46200,1,8,0:0:0:0:
293,147,46287,6,0,B|346:151|346:151|370:145|370:145|425:150,1,126,6|0,0:0|0:0,0:0:0:0:
475,117,46634,1,8,0:0:0:0:
459,136,46720,1,8,0:0:0:0:
451,160,46807,1,8,0:0:0:0:
450,185,46894,1,8,0:0:0:0:
504,239,46980,6,0,P|505:280|515:307,1,42,8|0,0:0|1:0,0:0:0:0:
92,199,47327,1,4,3:0:0:0:
119,231,47413,1,4,3:0:0:0:
112,270,47500,1,8,3:0:0:0:
77,291,47587,1,8,3:0:0:0:
38,276,47673,5,6,0:0:0:0:
177,119,47848,1,2,0:0:0:0:
203,361,48021,1,8,0:0:0:0:
39,115,48194,5,2,0:0:0:0:
44,86,48281,1,8,0:0:0:0:
49,57,48368,1,8,0:0:0:0:
279,278,48541,5,8,3:0:0:0:
279,278,48628,1,8,3:0:0:0:
279,278,48715,2,0,L|284:330,1,52.5,4|0,3:0|0:0,0:0:0:0:
415,88,48888,6,0,B|232:133|332:-16|90:48,1,293.999991027832,6|2,0:0|0:0,0:0:0:0:
188,205,49408,5,8,0:0:0:0:
354,0,49582,1,2,0:0:0:0:
359,263,49755,5,8,0:0:0:0:
221,0,49928,1,2,0:0:0:0:
121,255,50102,1,8,0:0:0:0:
147,279,50188,1,8,0:0:0:0:
182,290,50275,1,4,3:0:0:0:
218,284,50362,1,4,3:0:0:0:
248,263,50448,5,6,0:0:0:0:
107,171,50622,1,0,1:0:0:0:
91,346,50796,1,0,1:0:0:0:
202,97,50969,5,2,0:0:0:0:
254,362,51142,1,8,0:0:0:0:
11,249,51316,1,0,1:0:0:0:
11,249,51663,6,0,B|88:228|88:228|141:246|141:246|247:214,1,210,8|2,0:0|0:0,0:0:0:0:
239,121,52183,1,2,0:0:0:0:
329,306,52356,1,0,1:0:0:0:
418,119,52530,6,0,B|364:108|364:108|301:149,1,105,8|0,0:0|0:0,0:0:0:0:
241,310,52876,1,0,0:0:0:0:
135,151,53050,1,8,0:0:0:0:
131,130,53137,1,8,0:0:0:0:
128,109,53223,2,0,P|160:100|201:96,1,52.5,2|0,0:0|0:0,0:0:0:0:
216,205,53397,5,8,0:0:0:0:
174,236,53483,1,8,0:0:0:0:
123,241,53570,1,8,0:0:0:0:
76,219,53657,1,8,0:0:0:0:
48,175,53743,2,0,P|25:173|-29:179,1,52.5,2|0,0:0|0:0,0:0:0:0:
243,23,53917,5,8,0:0:0:0:
300,18,54003,1,8,0:0:0:0:
357,24,54090,1,8,0:0:0:0:
413,41,54177,1,8,0:0:0:0:
464,66,54264,2,0,P|468:90|465:146,1,52.5,8|0,0:0|0:0,0:0:0:0:
308,372,54437,5,6,0:0:0:0:
366,107,54611,1,8,0:0:0:0:
512,346,54784,1,6,0:0:0:0:
216,205,54957,1,14,0:0:0:0:
216,205,55304,5,0,1:0:0:0:
192,233,55391,1,8,0:0:0:0:
186,269,55478,1,2,0:0:0:0:
196,303,55564,1,0,1:0:0:0:
217,327,55651,5,10,0:0:0:0:
201,277,55737,1,8,0:0:0:0:
162,243,55824,1,8,0:0:0:0:
111,237,55911,1,8,0:0:0:0:
63,260,55998,6,0,B|10:253|10:253|12:172|94:146,1,188.999994232178,6|2,0:0|0:0,0:0:0:0:
82,68,56345,2,0,P|140:79|217:135,1,125.999996154785,8|2,0:0|0:0,0:0:0:0:
162,243,56691,1,0,1:0:0:0:
385,50,56865,2,0,P|345:50|307:70,1,62.9999980773926,2|2,0:0|0:0,0:0:0:0:
276,135,57038,2,0,L|291:273,1,125.999996154785,8|0,0:0|0:0,0:0:0:0:
492,270,57385,6,0,B|418:258|446:305|363:294,1,125.999996154785,2|0,0:0|0:0,0:0:0:0:
289,260,57645,1,2,0:0:0:0:
289,260,57732,2,2,P|260:259|210:284,1,62.9999980773926,8|0,0:0|0:0,1:0:0:0:
55,384,57905,2,0,L|66:229,1,125.999996154785,2|0,0:0|0:0,0:0:0:0:
153,74,58252,5,0,0:0:0:0:
218,175,58426,2,0,P|247:176|297:151,1,62.9999980773926,8|0,0:0|0:0,1:0:0:0:
351,32,58599,1,8,0:0:0:0:
351,32,58686,1,8,0:0:0:0:
351,32,58772,6,0,P|385:31|457:98,1,125.999996154785,6|0,0:0|0:0,0:0:0:0:
414,160,59033,1,2,0:0:0:0:
414,160,59119,2,0,P|414:200|429:258,1,62.9999980773926,8|0,0:0|0:0,0:0:0:0:
277,290,59293,2,0,P|282:222|275:141,1,125.999996154785,2|0,0:0|0:0,0:0:0:0:
217,45,59639,1,2,0:0:0:0:
5,194,59813,2,0,B|55:191|55:191|76:203|76:203|161:198,1,125.999996154785,8|0,0:0|0:0,0:0:0:0:
190,256,60073,1,8,0:0:0:0:
190,256,60160,6,0,P|190:290|183:344,1,62.9999980773926,2|0,0:0|0:0,0:0:0:0:
61,107,60333,1,0,1:0:0:0:
51,100,60420,1,2,0:0:0:0:
42,93,60507,6,0,P|39:61|39:30,1,62.9999980773926,10|0,0:0|0:0,0:0:0:0:
217,45,60680,1,2,0:0:0:0:
5,194,60853,1,8,0:0:0:0:
284,229,61027,1,2,0:0:0:0:
130,39,61200,1,8,0:0:0:0:
153,95,61286,1,8,0:0:0:0:
209,122,61373,1,8,0:0:0:0:
268,105,61460,1,8,0:0:0:0:
301,53,61547,6,0,B|417:65|417:65|362:67|354:121,1,188.999994232178,6|2,0:0|0:0,0:0:0:0:
355,184,61894,2,0,P|411:199|421:131,1,125.999996154785,8|2,0:0|0:0,0:0:0:0:
512,55,62241,6,0,P|485:19|464:-25,1,62.9999980773926,0|0,1:0|0:0,0:0:0:0:
504,235,62414,1,2,0:0:0:0:
301,53,62587,2,0,L|153:82,1,125.999996154785,8|2,0:0|0:0,0:0:0:0:
141,320,62934,6,0,B|119:374|59:343|34:299|88:222,1,188.999994232178,6|2,0:0|0:0,0:0:0:0:
33,164,63281,2,0,P|67:150|159:201,1,125.999996154785,8|2,0:0|0:0,0:0:0:0:
207,243,63541,1,2,0:0:0:0:
207,243,63628,6,0,L|298:236,1,62.9999980773926,0|0,1:0|0:0,0:0:0:0:
442,226,63801,1,2,0:0:0:0:
284,40,63975,2,0,B|252:78|252:78|262:167,1,125.999996154785,8|8,0:0|0:0,0:0:0:0:
269,238,64235,1,8,0:0:0:0:
279,327,64322,5,2,0:0:0:0:
361,112,64495,1,8,0:0:0:0:
404,116,64582,1,8,0:0:0:0:
447,121,64668,1,10,0:0:0:0:
156,222,64842,6,0,P|87:190|114:98,1,188.999994232178,2|0,0:0|0:0,0:0:0:0:
114,97,65189,2,0,B|115:156|115:156|83:203|83:203|86:299,1,188.999994232178,6|0,0:0|0:0,0:0:0:0:
90,354,65535,6,0,P|153:316|36:216,1,251.999992309571,6|0,0:0|0:0,0:0:0:0:
13,316,66056,1,8,0:0:0:0:
211,130,66229,1,2,0:0:0:0:
361,337,66402,1,8,0:0:0:0:
403,328,66488,1,8,0:0:0:0:
437,300,66575,1,8,0:0:0:0:
454,260,66662,1,8,0:0:0:0:
415,188,66749,5,8,3:0:0:0:
402,166,66835,1,8,3:0:0:0:
397,141,66922,1,4,3:0:0:0:
398,116,67009,1,4,3:0:0:0:
407,92,67096,6,0,B|440:126|440:126|367:150|303:92,1,188.999994232178,6|2,0:0|0:0,0:0:0:0:
245,159,67443,2,0,P|217:123|213:27,1,125.999996154785,8|2,0:0|0:0,0:0:0:0:
486,46,67790,1,0,1:0:0:0:
261,244,67963,2,0,P|228:243|186:225,1,62.9999980773926,2|2,0:0|0:0,0:0:0:0:
129,154,68137,2,0,B|48:136|78:199|-13:176,1,125.999996154785,8|0,0:0|0:0,0:0:0:0:
326,312,68483,6,0,P|354:245|325:176,1,125.999996154785,2|0,0:0|0:0,0:0:0:0:
397,139,68743,1,2,0:0:0:0:
397,139,68830,2,2,P|428:148|491:147,1,62.9999980773926,8|0,0:0|0:0,1:0:0:0:
207,45,69004,2,0,L|71:56,1,125.999996154785,2|0,0:0|0:0,0:0:0:0:
260,243,69350,5,2,0:0:0:0:
290,10,69524,2,0,P|301:48|284:98,1,62.9999980773926,8|0,0:0|0:0,0:0:0:0:
159,223,69697,1,8,0:0:0:0:
159,223,69784,1,8,0:0:0:0:
159,223,69871,6,0,L|8:241,1,125.999996154785,6|0,0:0|0:0,0:0:0:0:
207,45,70217,1,8,0:0:0:0:
238,329,70391,6,0,P|312:316|282:163,1,251.999992309571,12|0,0:0|0:0,0:0:0:0:
159,223,70911,1,8,0:0:0:0:
412,62,71085,6,0,B|359:190|472:174|413:318,1,251.999992309571,6|2,0:0|0:0,0:0:0:0:
496,126,71605,1,8,0:0:0:0:
254,246,71778,6,0,B|113:235|113:235|175:218,1,188.999994232178,6|0,0:0|0:0,0:0:0:0:
172,219,72125,1,8,0:0:0:0:
171,280,72211,1,8,0:0:0:0:
130,326,72298,1,8,0:0:0:0:
69,333,72385,1,8,0:0:0:0:
18,298,72471,1,8,0:0:0:0:
3,239,72558,1,8,0:0:0:0:
32,184,72645,5,6,0:0:0:0:
91,248,72819,1,2,0:0:0:0:
111,122,72992,5,8,0:0:0:0:
18,298,73165,1,2,0:0:0:0:
42,60,73339,5,8,0:0:0:0:
171,280,73512,1,2,0:0:0:0:
158,24,73686,5,8,0:0:0:0:
104,368,73859,1,2,0:0:0:0:
104,368,73946,1,2,0:0:0:0:
104,368,74033,1,8,0:0:0:0:
422,229,74206,1,2,0:0:0:0:
32,184,74379,5,8,0:0:0:0:
425,252,74553,1,2,0:0:0:0:
158,24,74726,6,0,B|132:68|132:68|151:166,1,125.999996154785,8|2,0:0|0:0,0:0:0:0:
191,384,75073,1,8,0:0:0:0:
377,136,75246,5,8,0:0:0:0:
394,129,75333,1,8,0:0:0:0:
412,124,75420,5,12,0:0:0:0:
393,182,75506,1,8,3:0:0:0:
340,215,75593,1,8,3:0:0:0:
279,206,75680,1,8,3:0:0:0:
238,161,75767,1,8,3:0:0:0:
193,117,75853,1,8,3:0:0:0:
132,106,75940,1,4,3:0:0:0:
76,133,76027,1,4,3:0:0:0:
45,186,76113,5,4,3:0:0:0:
57,112,76199,1,4,3:0:0:0:
108,57,76286,1,4,3:0:0:0:
180,38,76373,1,4,3:0:0:0:
251,62,76459,1,4,3:0:0:0:
298,119,76546,1,4,3:0:0:0:
307,193,76633,1,4,3:0:0:0:
274,260,76719,1,4,3:0:0:0:
211,299,76807,6,0,B|130:283,1,62.9999980773926,14|2,0:0|0:0,0:0:0:0:
339,46,77154,6,0,B|480:30|480:30|420:77,1,188.999994232178,6|0,0:0|0:0,0:0:0:0:
430,70,77501,5,8,0:0:0:0:
33,27,77674,1,2,0:0:0:0:
33,27,78021,6,0,B|90:127|-13:114|46:236,1,210,6|2,0:0|0:0,0:0:0:0:
222,178,78541,2,0,L|82:165,1,105,8|0,0:0|0:0,0:0:0:0:
180,317,78888,1,2,0:0:0:0:
295,89,79061,1,2,0:0:0:0:
395,284,79235,1,8,0:0:0:0:
222,37,79408,6,0,P|276:5|389:95,1,210,2|2,0:0|0:0,0:0:0:0:
512,94,79928,2,0,P|490:100|435:145,1,52.5,8|8,0:0|0:0,0:0:0:0:
356,155,80102,2,0,P|346:175|345:246,1,52.5,8|8,0:0|0:0,0:0:0:0:
371,362,80275,1,2,0:0:0:0:
295,89,80449,1,2,0:0:0:0:
180,317,80622,1,8,0:0:0:0:
11,105,80796,6,0,B|111:151|84:68|204:127,1,188.999994232178,6|0,0:0|0:0,0:0:0:0:
192,121,81663,5,8,0:0:0:0:
243,61,81836,1,8,0:0:0:0:
270,90,81923,1,8,0:0:0:0:
275,129,82009,2,0,P|268:161|241:192,1,52.5,8|2,0:0|0:0,0:0:0:0:
397,50,82183,6,0,B|434:59|467:48|467:48|410:108|444:175,1,188.999994232178,2|0,0:0|0:0,0:0:0:0:
437,156,83050,5,12,0:0:0:0:
160,20,83223,1,12,0:0:0:0:
160,20,83570,6,0,B|150:83|150:83|174:125|174:125|156:236,1,188.999994232178,2|0,0:0|0:0,0:0:0:0:
157,220,83917,1,8,0:0:0:0:
202,178,84003,1,8,0:0:0:0:
263,181,84090,1,8,0:0:0:0:
305,226,84177,1,8,0:0:0:0:
303,288,84263,1,8,0:0:0:0:
259,330,84350,1,8,0:0:0:0:
197,328,84437,5,8,3:0:0:0:
204,297,84524,1,8,3:0:0:0:
210,266,84611,1,8,3:0:0:0:
216,235,84697,1,4,3:0:0:0:
222,204,84784,1,4,3:0:0:0:
228,173,84871,1,4,3:0:0:0:
243,98,84957,6,0,B|305:85|370:127|370:127|432:175|508:119|508:119|435:138|387:232|387:232|430:190|505:209|504:276|465:350|378:375|319:344|319:344|327:336|327:336|319:336|319:336|327:328|327:328|319:328|319:328|327:320|327:320|319:320|319:320|327:312|327:312|319:312|319:312|327:304|327:304|319:304|319:304|327:296|327:296|319:296|319:296|327:288,1,892.5,6|0,0:0|1:0,0:0:0:0:
