osu file format v14

[General]
AudioFilename: audio.mp3
AudioLeadIn: 0
PreviewTime: -1
Countdown: 1
SampleSet: None
StackLeniency: 0.7
Mode: 0
LetterboxInBreaks: 0
WidescreenStoryboard: 0

[Editor]
Bookmarks: 73686
DistanceSpacing: 0.8
BeatDivisor: 4
GridSize: 4
TimelineZoom: 1

[Metadata]
Title:Afro Trap part 3
TitleUnicode:Afro Trap part 3
Artist:MHD
ArtistUnicode:MHD
Creator:- Mika -
Version:Champion league
Source:MHD
Tags:Afro Trap MHD Rap
BeatmapID:1034651
BeatmapSetID:485145

[Difficulty]
HPDrainRate:5
CircleSize:4.3
OverallDifficulty:5
ApproachRate:9
SliderMultiplier:1.4
SliderTickRate:1

[Events]
//Background and Video events
0,0,"mhd.jpg",0,0
//Break Periods
//Storyboard Layer 0 (Background)
//Storyboard Layer 1 (Fail)
//Storyboard Layer 2 (Pass)
//Storyboard Layer 3 (Foreground)
//Storyboard Sound Samples

[TimingPoints]
2368.57906767976,244.24053182917,4,1,0,100,1,0

[HitObjects]
376,236,42363,5,0,0:0:0:0:
376,236,42485,1,0,0:0:0:0:
376,236,42607,1,6,0:0:0:0:
132,30,42851,1,0,0:0:0:0:
213,312,43095,1,0,0:0:0:0:
342,69,43339,1,0,0:0:0:0:
342,69,43462,1,0,0:0:0:0:
342,69,43584,1,6,0:0:0:0:
114,318,43828,1,0,0:0:0:0:
245,46,44133,5,0,0:0:0:0:
376,288,44316,1,0,0:0:0:0:
429,47,44561,1,0,0:0:0:0:
79,244,44805,1,0,0:0:0:0:
451,173,45049,1,0,0:0:0:0:
83,79,45293,1,0,0:0:0:0:
83,79,45415,1,0,0:0:0:0:
83,79,45537,1,2,0:0:0:0:
344,320,45782,1,0,0:0:0:0:
336,64,46026,5,0,0:0:0:0:
120,148,46270,2,2,L|144:176,1,35
328,168,46515,2,2,L|300:188,1,35
128,256,46759,2,2,L|168:292,1,35
336,272,47003,2,2,L|308:292,1,35
64,40,47308,1,0,0:0:0:0:
224,324,47553,1,0,0:0:0:0:
376,48,47736,1,0,0:0:0:0:
376,48,47858,1,0,0:0:0:0:
376,48,47980,5,2,0:0:0:0:
88,192,48224,1,0,0:0:0:0:
436,192,48469,1,0,0:0:0:0:
256,36,48713,1,0,0:0:0:0:
256,328,48957,1,0,0:0:0:0:
144,44,49201,1,0,0:0:0:0:
144,44,49323,1,0,0:0:0:0:
144,44,49446,1,2,0:0:0:0:
348,296,49690,1,0,0:0:0:0:
72,212,49934,5,0,0:0:0:0:
120,148,50178,2,2,L|144:176,1,35
328,168,50423,2,2,L|300:188,1,35
128,256,50667,2,2,L|168:292,1,35
336,272,50911,2,2,L|308:292,1,35
64,324,51216,1,0,0:0:0:0:
192,48,51399,1,0,0:0:0:0:
324,320,51644,1,0,0:0:0:0:
324,320,51766,1,0,0:0:0:0:
324,320,51888,5,2,0:0:0:0:
464,48,52132,1,0,0:0:0:0:
324,320,52376,1,0,0:0:0:0:
172,32,52621,1,0,0:0:0:0:
64,320,52865,1,0,0:0:0:0:
436,280,53109,1,0,0:0:0:0:
436,280,53231,1,0,0:0:0:0:
436,280,53353,1,2,0:0:0:0:
56,148,53598,1,0,0:0:0:0:
428,52,53842,5,0,0:0:0:0:
120,148,54086,2,2,L|144:176,1,35
328,168,54331,2,2,L|300:188,1,35
128,256,54575,2,2,L|168:292,1,35
336,272,54819,2,2,L|308:292,1,35
72,124,55124,1,0,0:0:0:0:
264,320,55307,1,0,0:0:0:0:
144,104,55551,1,0,0:0:0:0:
144,104,55673,1,0,0:0:0:0:
144,104,55795,5,2,0:0:0:0:
436,72,56040,1,0,0:0:0:0:
164,296,56284,1,0,0:0:0:0:
408,316,56528,1,0,0:0:0:0:
96,56,56773,1,0,0:0:0:0:
264,292,57017,1,0,0:0:0:0:
313,293,57078,1,0,0:0:0:0:
358,272,57139,1,0,0:0:0:0:
388,231,57200,1,0,0:0:0:0:
120,64,57505,5,0,0:0:0:0:
440,168,57750,1,0,0:0:0:0:
272,76,57994,1,0,0:0:0:0:
272,76,58116,1,0,0:0:0:0:
272,76,58238,1,0,0:0:0:0:
72,208,58482,1,0,0:0:0:0:
408,308,58727,1,0,0:0:0:0:
152,328,58971,1,0,0:0:0:0:
304,88,59215,1,0,0:0:0:0:
132,176,59459,5,0,0:0:0:0:
132,176,59581,1,0,0:0:0:0:
132,176,59703,1,0,0:0:0:0:
216,312,59948,1,0,0:0:0:0:
392,80,60192,1,0,0:0:0:0:
88,76,60436,1,0,0:0:0:0:
424,312,60681,1,0,0:0:0:0:
296,96,60925,1,0,0:0:0:0:
296,96,61047,1,0,0:0:0:0:
296,96,61169,5,0,0:0:0:0:
192,320,61413,1,0,0:0:0:0:
96,100,61657,1,0,0:0:0:0:
32,316,61901,2,2,L|56:344,1,35
192,40,62146,2,2,L|152:48,1,35
284,312,62390,2,2,L|324:348,1,35
420,80,62634,2,2,L|392:100,1,35
88,44,63001,1,0,0:0:0:0:
88,44,63062,1,0,0:0:0:0:
88,44,63123,5,0,0:0:0:0:
400,64,63367,1,0,0:0:0:0:
72,184,63611,1,0,0:0:0:0:
408,220,63856,1,0,0:0:0:0:
72,296,64100,1,0,0:0:0:0:
400,344,64344,1,0,0:0:0:0:
72,48,64588,1,0,0:0:0:0:
420,164,64833,1,0,0:0:0:0:
420,164,64955,1,0,0:0:0:0:
420,164,65077,5,0,0:0:0:0:
44,280,65321,1,0,0:0:0:0:
404,104,65565,1,0,0:0:0:0:
256,44,65810,2,2,L|312:80,1,35
472,192,66055,2,2,L|440:248,1,35
256,336,66299,2,2,L|192:312,1,35
36,192,66543,2,2,L|68:160,1,35
360,96,66909,1,0,0:0:0:0:
360,96,67031,1,0,0:0:0:0:
84,240,67275,5,0,0:0:0:0:
84,240,67397,1,0,0:0:0:0:
84,240,67519,1,0,0:0:0:0:
416,96,67763,1,0,0:0:0:0:
264,316,68008,1,0,0:0:0:0:
128,148,68252,1,0,0:0:0:0:
272,88,68496,1,0,0:0:0:0:
384,280,68740,1,0,0:0:0:0:
384,280,68863,1,0,0:0:0:0:
384,280,68985,5,0,0:0:0:0:
56,216,69229,1,0,0:0:0:0:
380,176,69473,1,0,0:0:0:0:
272,88,69717,1,0,0:0:0:0:
174,84,69778,1,0,0:0:0:0:
98,144,69839,1,0,0:0:0:0:
78,240,69900,1,0,0:0:0:0:
368,280,70206,1,0,0:0:0:0:
368,280,70450,1,0,0:0:0:0:
80,256,70816,5,0,0:0:0:0:
80,256,70938,1,0,0:0:0:0:
372,108,71183,1,0,0:0:0:0:
372,108,71305,1,0,0:0:0:0:
372,108,71427,1,0,0:0:0:0:
64,144,71671,1,0,0:0:0:0:
380,312,71916,1,0,0:0:0:0:
284,48,72160,1,0,0:0:0:0:
128,332,72404,1,0,0:0:0:0:
416,192,72648,5,0,0:0:0:0:
92,144,72892,1,0,0:0:0:0:
152,312,73137,1,0,0:0:0:0:
376,72,73381,1,0,0:0:0:0:
348,324,73686,5,0,0:0:0:0:
393,257,73747,1,0,0:0:0:0:
392,178,73808,1,0,0:0:0:0:
334,123,73869,1,0,0:0:0:0:
255,102,73930,1,0,0:0:0:0:
176,115,73991,1,0,0:0:0:0:
113,165,74052,1,0,0:0:0:0:
88,242,74113,1,0,0:0:0:0:
104,321,74174,1,0,0:0:0:0:
184,336,74236,5,0,0:0:0:0:
263,317,74297,1,0,0:0:0:0:
334,279,74358,1,0,0:0:0:0:
390,220,74419,1,0,0:0:0:0:
414,143,74480,1,0,0:0:0:0:
391,67,74541,1,0,0:0:0:0:
312,44,74602,5,0,0:0:0:0:
230,51,74663,1,0,0:0:0:0:
154,79,74724,1,0,0:0:0:0:
100,138,74785,1,0,0:0:0:0:
96,217,74846,1,0,0:0:0:0:
140,285,74907,1,0,0:0:0:0:
209,326,74968,1,0,0:0:0:0:
