osu file format v14

[General]
AudioFilename: 02 - Little Dark Age.ogg
AudioLeadIn: 0
PreviewTime: 60103
Countdown: 0
SampleSet: Normal
StackLeniency: 0.7
Mode: 1
LetterboxInBreaks: 0
WidescreenStoryboard: 0

[Editor]
DistanceSpacing: 2
BeatDivisor: 8
GridSize: 32
TimelineZoom: 0.8

[Metadata]
Title:Little Dark Age
TitleUnicode:Little Dark Age
Artist:MGMT
ArtistUnicode:MGMT
Creator:meiqth
Version:Oni
Source:
Tags:synthwave pop James Richardson Electronic EnGlIsH Psychedelic synthPOp syNth-pOP
BeatmapID:4070038
BeatmapSetID:1963708

[Difficulty]
HPDrainRate:5
CircleSize:5
OverallDifficulty:5
ApproachRate:5
SliderMultiplier:1.4
SliderTickRate:1

[Events]
//Background and Video events
0,0,"bg12+.png",0,-11
//Break Periods
2,188399,196846
//Storyboard Layer 0 (Background)
//Storyboard Layer 1 (Fail)
//Storyboard Layer 2 (Pass)
//Storyboard Layer 3 (Foreground)
//Storyboard Layer 4 (Overlay)
//Storyboard Sound Samples

[TimingPoints]
1123,615.384615384615,4,1,0,40,1,0
1123,-125,4,1,0,40,0,0
20815,-100,4,1,0,50,0,0
60199,-80,4,1,0,70,0,1
79892,-80,4,1,0,50,0,0
80046,-100,4,1,0,50,0,0
129122,-80,4,1,0,70,0,1
148815,-80,4,1,0,50,0,0
148969,-100,4,1,0,50,0,0
167276,-100,4,1,0,60,0,0
168507,-80,4,1,0,70,0,1
188199,-80,4,1,0,50,0,0
188747,-100,4,1,0,50,0,0
198046,-100,4,1,0,40,0,0
215276,-83.3333333333333,4,1,0,60,0,0
217738,-80,4,1,0,70,0,1
257122,-80,4,1,0,60,0,0

[HitObjects]
256,192,15892,5,0,0:0:0:0:
256,192,16815,1,0,0:0:0:0:
256,192,17122,1,0,0:0:0:0:
256,192,18353,5,0,0:0:0:0:
256,192,19430,1,0,0:0:0:0:
256,192,19584,1,0,0:0:0:0:
256,192,19892,1,0,0:0:0:0:
256,192,20199,1,8,0:0:0:0:
256,192,20661,1,8,0:0:0:0:
256,192,20815,1,0,0:0:0:0:
256,192,21430,5,8,0:0:0:0:
256,192,21738,1,8,0:0:0:0:
256,192,22046,1,0,0:0:0:0:
256,192,22199,1,0,0:0:0:0:
256,192,22507,1,8,0:0:0:0:
256,192,22661,1,0,0:0:0:0:
256,192,22969,1,8,0:0:0:0:
256,192,23122,1,8,0:0:0:0:
256,192,23276,1,0,0:0:0:0:
256,192,23892,1,8,0:0:0:0:
256,192,24199,1,0,0:0:0:0:
256,192,24507,1,8,0:0:0:0:
256,192,24661,1,8,0:0:0:0:
256,192,24815,1,0,0:0:0:0:
256,192,25122,1,8,0:0:0:0:
256,192,25430,1,0,0:0:0:0:
256,192,25738,1,8,0:0:0:0:
256,192,26353,1,0,0:0:0:0:
256,192,26661,1,0,0:0:0:0:
256,192,26969,1,8,0:0:0:0:
256,192,27276,1,0,0:0:0:0:
256,192,27584,1,8,0:0:0:0:
256,192,27738,1,8,0:0:0:0:
256,192,28046,1,0,0:0:0:0:
256,192,28199,1,8,0:0:0:0:
256,192,28507,1,8,0:0:0:0:
256,192,28815,1,0,0:0:0:0:
256,192,29122,1,8,0:0:0:0:
256,192,29430,1,0,0:0:0:0:
256,192,29738,1,0,0:0:0:0:
256,192,30046,1,8,0:0:0:0:
256,192,30353,1,8,0:0:0:0:
256,192,30661,1,0,0:0:0:0:
256,192,31276,5,8,0:0:0:0:
256,192,31584,1,0,0:0:0:0:
256,192,31892,1,8,0:0:0:0:
256,192,32046,1,8,0:0:0:0:
256,192,32353,1,0,0:0:0:0:
256,192,32507,1,8,0:0:0:0:
256,192,32815,1,0,0:0:0:0:
256,192,32969,1,0,0:0:0:0:
256,192,33122,1,8,0:0:0:0:
256,192,33738,1,8,0:0:0:0:
256,192,34046,1,0,0:0:0:0:
256,192,34353,1,8,0:0:0:0:
256,192,34661,1,8,0:0:0:0:
256,192,34969,1,0,0:0:0:0:
256,192,35122,1,0,0:0:0:0:
256,192,35430,1,8,0:0:0:0:
256,192,35584,1,0,0:0:0:0:
256,192,36199,1,0,0:0:0:0:
256,192,36507,1,0,0:0:0:0:
256,192,36815,1,8,0:0:0:0:
256,192,36969,1,0,0:0:0:0:
256,192,37276,1,0,0:0:0:0:
256,192,37430,1,8,0:0:0:0:
256,192,37584,1,8,0:0:0:0:
256,192,37892,1,0,0:0:0:0:
256,192,38046,1,0,0:0:0:0:
256,192,38353,1,8,0:0:0:0:
256,192,38661,1,0,0:0:0:0:
256,192,38969,1,8,0:0:0:0:
256,192,39276,1,0,0:0:0:0:
256,192,39584,1,0,0:0:0:0:
256,192,39892,1,8,0:0:0:0:
256,192,40199,1,8,0:0:0:0:
256,192,40353,1,8,0:0:0:0:
256,192,40507,1,0,0:0:0:0:
256,192,40815,5,8,0:0:0:0:
256,192,40969,1,0,0:0:0:0:
256,192,41122,1,8,0:0:0:0:
256,192,41430,1,0,0:0:0:0:
256,192,41738,1,8,0:0:0:0:
256,192,41892,1,8,0:0:0:0:
256,192,42199,1,0,0:0:0:0:
256,192,42353,1,8,0:0:0:0:
256,192,42661,1,0,0:0:0:0:
256,192,42815,1,0,0:0:0:0:
256,192,42969,1,8,0:0:0:0:
256,192,43276,1,0,0:0:0:0:
256,192,43430,1,8,0:0:0:0:
256,192,43584,1,0,0:0:0:0:
256,192,43892,1,8,0:0:0:0:
256,192,44199,1,0,0:0:0:0:
256,192,44353,1,0,0:0:0:0:
256,192,44661,1,8,0:0:0:0:
256,192,44815,1,0,0:0:0:0:
256,192,45122,1,8,0:0:0:0:
256,192,45430,1,0,0:0:0:0:
256,192,45738,1,8,0:0:0:0:
256,192,45892,1,0,0:0:0:0:
256,192,46046,1,8,0:0:0:0:
256,192,46353,1,8,0:0:0:0:
256,192,46661,1,0,0:0:0:0:
256,192,46969,1,8,0:0:0:0:
256,192,47122,1,0,0:0:0:0:
256,192,47276,1,8,0:0:0:0:
256,192,47430,1,8,0:0:0:0:
256,192,47738,1,0,0:0:0:0:
256,192,47892,1,0,0:0:0:0:
256,192,48199,1,8,0:0:0:0:
256,192,48507,1,0,0:0:0:0:
256,192,48815,1,8,0:0:0:0:
256,192,49122,1,0,0:0:0:0:
256,192,49430,1,0,0:0:0:0:
256,192,49738,1,8,0:0:0:0:
256,192,50046,1,8,0:0:0:0:
256,192,50353,1,0,0:0:0:0:
256,192,50661,5,8,0:0:0:0:
256,192,50815,1,0,0:0:0:0:
256,192,50969,1,8,0:0:0:0:
256,192,51276,1,0,0:0:0:0:
256,192,51584,1,8,0:0:0:0:
256,192,51738,1,8,0:0:0:0:
256,192,52046,1,0,0:0:0:0:
256,192,52199,1,8,0:0:0:0:
256,192,52507,1,0,0:0:0:0:
256,192,52661,1,0,0:0:0:0:
256,192,52815,1,8,0:0:0:0:
256,192,53122,1,0,0:0:0:0:
256,192,53276,1,8,0:0:0:0:
256,192,53430,1,0,0:0:0:0:
256,192,53738,1,8,0:0:0:0:
256,192,54046,1,0,0:0:0:0:
256,192,54353,1,8,0:0:0:0:
256,192,54661,1,0,0:0:0:0:
256,192,54815,1,0,0:0:0:0:
256,192,55122,1,8,0:0:0:0:
256,192,55276,1,0,0:0:0:0:
256,192,55584,1,8,0:0:0:0:
256,192,55738,1,0,0:0:0:0:
256,192,55892,1,8,0:0:0:0:
256,192,56199,1,0,0:0:0:0:
256,192,56353,1,0,0:0:0:0:
256,192,56507,1,8,0:0:0:0:
256,192,56661,1,0,0:0:0:0:
256,192,56969,1,0,0:0:0:0:
256,192,57122,1,8,0:0:0:0:
256,192,57276,1,8,0:0:0:0:
256,192,57584,1,0,0:0:0:0:
256,192,57738,1,0,0:0:0:0:
256,192,58046,1,8,0:0:0:0:
256,192,58353,1,0,0:0:0:0:
256,192,58661,1,0,0:0:0:0:
256,192,58969,1,8,0:0:0:0:
256,192,59276,1,0,0:0:0:0:
256,192,59584,1,8,0:0:0:0:
256,192,59892,1,8,0:0:0:0:
256,192,60199,1,4,0:0:0:0:
256,192,60507,5,8,0:0:0:0:
256,192,60661,1,8,0:0:0:0:
256,192,60815,1,0,0:0:0:0:
256,192,60969,1,0,0:0:0:0:
256,192,61122,1,8,0:0:0:0:
256,192,61430,1,0,0:0:0:0:
256,192,61584,1,0,0:0:0:0:
256,192,61738,1,8,0:0:0:0:
256,192,61892,1,0,0:0:0:0:
256,192,62046,1,8,0:0:0:0:
256,192,62199,1,8,0:0:0:0:
256,192,62353,1,0,0:0:0:0:
256,192,62507,1,8,0:0:0:0:
256,192,62661,1,0,0:0:0:0:
256,192,62969,1,8,0:0:0:0:
256,192,63122,1,8,0:0:0:0:
256,192,63276,1,0,0:0:0:0:
256,192,63430,1,8,0:0:0:0:
256,192,63584,1,0,0:0:0:0:
256,192,63892,1,8,0:0:0:0:
256,192,64046,1,0,0:0:0:0:
256,192,64199,1,8,0:0:0:0:
256,192,64507,1,0,0:0:0:0:
256,192,64661,1,8,0:0:0:0:
256,192,64815,1,0,0:0:0:0:
256,192,65122,1,12,0:0:0:0:
256,192,65430,1,0,0:0:0:0:
256,192,65584,1,0,0:0:0:0:
256,192,65738,1,8,0:0:0:0:
256,192,65892,1,0,0:0:0:0:
256,192,66046,1,8,0:0:0:0:
256,192,66353,1,0,0:0:0:0:
256,192,66507,1,0,0:0:0:0:
256,192,66661,1,8,0:0:0:0:
256,192,66815,1,8,0:0:0:0:
256,192,66969,1,0,0:0:0:0:
256,192,67122,1,8,0:0:0:0:
256,192,67276,1,0,0:0:0:0:
256,192,67430,1,0,0:0:0:0:
256,192,67584,1,8,0:0:0:0:
256,192,67892,1,0,0:0:0:0:
256,192,68046,1,8,0:0:0:0:
256,192,68199,1,0,0:0:0:0:
256,192,68353,1,0,0:0:0:0:
256,192,68507,1,8,0:0:0:0:
256,192,68815,1,0,0:0:0:0:
256,192,68969,1,8,0:0:0:0:
256,192,69276,1,8,0:0:0:0:
256,192,69430,1,0,0:0:0:0:
256,192,69584,1,0,0:0:0:0:
256,192,69738,1,8,0:0:0:0:
256,192,70046,1,4,0:0:0:0:
256,192,70353,5,8,0:0:0:0:
256,192,70507,1,0,0:0:0:0:
256,192,70661,1,8,0:0:0:0:
256,192,70815,1,8,0:0:0:0:
256,192,70969,1,0,0:0:0:0:
256,192,71276,1,8,0:0:0:0:
256,192,71430,1,8,0:0:0:0:
256,192,71584,1,0,0:0:0:0:
256,192,71738,1,8,0:0:0:0:
256,192,71892,1,0,0:0:0:0:
256,192,72046,1,0,0:0:0:0:
256,192,72199,1,8,0:0:0:0:
256,192,72353,1,8,0:0:0:0:
256,192,72507,1,0,0:0:0:0:
256,192,72815,1,8,0:0:0:0:
256,192,72969,1,8,0:0:0:0:
256,192,73122,1,0,0:0:0:0:
256,192,73276,1,0,0:0:0:0:
256,192,73430,1,8,0:0:0:0:
256,192,73738,1,0,0:0:0:0:
256,192,73892,1,8,0:0:0:0:
256,192,74199,1,8,0:0:0:0:
256,192,74353,1,8,0:0:0:0:
256,192,74507,1,0,0:0:0:0:
256,192,74661,1,8,0:0:0:0:
256,192,74969,1,4,0:0:0:0:
256,192,75276,1,0,0:0:0:0:
256,192,75430,1,8,0:0:0:0:
256,192,75738,1,8,0:0:0:0:
256,192,75892,1,0,0:0:0:0:
256,192,76046,1,0,0:0:0:0:
256,192,76199,1,8,0:0:0:0:
256,192,76353,1,0,0:0:0:0:
256,192,76661,1,0,0:0:0:0:
256,192,76815,1,8,0:0:0:0:
256,192,77122,1,0,0:0:0:0:
256,192,77276,1,0,0:0:0:0:
256,192,77430,1,8,0:0:0:0:
256,192,77738,1,0,0:0:0:0:
256,192,77892,1,8,0:0:0:0:
256,192,78199,1,8,0:0:0:0:
256,192,78353,1,0,0:0:0:0:
256,192,78507,1,0,0:0:0:0:
256,192,78661,1,0,0:0:0:0:
256,192,78815,1,8,0:0:0:0:
256,192,79122,1,8,0:0:0:0:
256,192,79276,1,0,0:0:0:0:
256,192,79584,1,8,0:0:0:0:
256,192,79738,1,8,0:0:0:0:
256,192,79892,1,0,0:0:0:0:
256,192,80507,5,8,0:0:0:0:
256,192,80661,1,0,0:0:0:0:
256,192,80969,1,8,0:0:0:0:
256,192,81430,1,0,0:0:0:0:
256,192,81738,1,8,0:0:0:0:
256,192,81892,1,8,0:0:0:0:
256,192,82046,1,0,0:0:0:0:
256,192,82353,1,8,0:0:0:0:
256,192,82661,1,0,0:0:0:0:
256,192,82815,1,0,0:0:0:0:
256,192,82969,1,8,0:0:0:0:
256,192,83122,1,0,0:0:0:0:
256,192,83430,1,8,0:0:0:0:
256,192,83892,1,0,0:0:0:0:
256,192,84199,1,8,0:0:0:0:
256,192,84353,1,0,0:0:0:0:
256,192,84507,1,8,0:0:0:0:
256,192,84661,1,8,0:0:0:0:
256,192,84815,1,4,0:0:0:0:
256,192,85122,5,8,0:0:0:0:
256,192,85276,1,8,0:0:0:0:
256,192,85430,1,0,0:0:0:0:
256,192,85584,1,8,0:0:0:0:
256,192,85892,1,0,0:0:0:0:
256,192,86353,1,8,0:0:0:0:
256,192,86661,1,0,0:0:0:0:
256,192,86815,1,0,0:0:0:0:
256,192,86969,1,8,0:0:0:0:
256,192,87276,1,0,0:0:0:0:
256,192,87584,1,8,0:0:0:0:
256,192,87738,1,8,0:0:0:0:
256,192,87892,1,0,0:0:0:0:
256,192,88046,1,8,0:0:0:0:
256,192,88353,1,0,0:0:0:0:
256,192,88815,1,8,0:0:0:0:
256,192,89122,1,0,0:0:0:0:
256,192,89276,1,8,0:0:0:0:
256,192,89430,1,0,0:0:0:0:
256,192,89584,1,8,0:0:0:0:
256,192,89738,1,4,0:0:0:0:
256,192,90353,5,8,0:0:0:0:
256,192,90661,1,0,0:0:0:0:
256,192,90969,1,8,0:0:0:0:
256,192,91122,1,8,0:0:0:0:
256,192,91430,1,0,0:0:0:0:
256,192,91584,1,8,0:0:0:0:
256,192,91892,1,8,0:0:0:0:
256,192,92046,1,8,0:0:0:0:
256,192,92199,1,0,0:0:0:0:
256,192,92815,1,0,0:0:0:0:
256,192,93122,1,8,0:0:0:0:
256,192,93430,1,0,0:0:0:0:
256,192,93584,1,0,0:0:0:0:
256,192,93892,1,8,0:0:0:0:
256,192,94046,1,0,0:0:0:0:
256,192,94353,1,0,0:0:0:0:
256,192,94661,1,8,0:0:0:0:
256,192,94969,1,0,0:0:0:0:
256,192,95122,1,0,0:0:0:0:
256,192,95276,1,8,0:0:0:0:
256,192,95430,1,0,0:0:0:0:
256,192,95738,1,8,0:0:0:0:
256,192,96199,1,0,0:0:0:0:
256,192,96507,1,8,0:0:0:0:
256,192,96661,1,8,0:0:0:0:
256,192,96969,1,0,0:0:0:0:
256,192,97122,1,0,0:0:0:0:
256,192,97430,1,0,0:0:0:0:
256,192,97584,1,8,0:0:0:0:
256,192,97892,1,0,0:0:0:0:
256,192,98199,1,8,0:0:0:0:
256,192,98661,1,0,0:0:0:0:
256,192,98969,1,8,0:0:0:0:
256,192,99122,1,8,0:0:0:0:
256,192,99276,1,0,0:0:0:0:
256,192,99584,1,8,0:0:0:0:
256,192,100199,5,8,0:0:0:0:
256,192,100507,1,0,0:0:0:0:
256,192,100815,1,8,0:0:0:0:
256,192,100969,1,8,0:0:0:0:
256,192,101122,1,0,0:0:0:0:
256,192,101430,1,8,0:0:0:0:
256,192,101738,1,0,0:0:0:0:
256,192,101892,1,8,0:0:0:0:
256,192,102046,1,0,0:0:0:0:
256,192,102661,1,0,0:0:0:0:
256,192,102969,1,0,0:0:0:0:
256,192,103276,1,8,0:0:0:0:
256,192,103430,1,0,0:0:0:0:
256,192,103584,1,8,0:0:0:0:
256,192,103892,1,0,0:0:0:0:
256,192,104199,1,0,0:0:0:0:
256,192,104507,1,8,0:0:0:0:
256,192,104815,1,0,0:0:0:0:
256,192,104969,1,0,0:0:0:0:
256,192,105122,1,8,0:0:0:0:
256,192,105276,1,0,0:0:0:0:
256,192,105584,1,8,0:0:0:0:
256,192,105738,1,8,0:0:0:0:
256,192,105892,1,0,0:0:0:0:
256,192,106199,1,0,0:0:0:0:
256,192,106353,1,8,0:0:0:0:
256,192,106507,1,8,0:0:0:0:
256,192,106815,1,0,0:0:0:0:
256,192,106969,1,0,0:0:0:0:
256,192,107276,1,0,0:0:0:0:
256,192,107430,1,8,0:0:0:0:
256,192,107738,1,0,0:0:0:0:
256,192,108046,1,8,0:0:0:0:
256,192,108507,1,0,0:0:0:0:
256,192,108815,1,8,0:0:0:0:
256,192,108969,1,8,0:0:0:0:
256,192,109122,1,0,0:0:0:0:
256,192,109430,1,8,0:0:0:0:
256,192,109584,1,0,0:0:0:0:
256,192,109738,1,8,0:0:0:0:
256,192,109892,1,8,0:0:0:0:
256,192,110046,1,0,0:0:0:0:
256,192,110199,1,8,0:0:0:0:
256,192,110353,1,0,0:0:0:0:
256,192,110661,1,8,0:0:0:0:
256,192,110815,1,8,0:0:0:0:
256,192,111122,1,0,0:0:0:0:
256,192,111276,1,8,0:0:0:0:
256,192,111584,1,0,0:0:0:0:
256,192,111738,1,0,0:0:0:0:
256,192,111892,1,8,0:0:0:0:
256,192,112199,1,0,0:0:0:0:
256,192,112353,1,8,0:0:0:0:
256,192,112507,1,0,0:0:0:0:
256,192,112815,1,8,0:0:0:0:
256,192,113122,1,0,0:0:0:0:
256,192,113276,1,0,0:0:0:0:
256,192,113584,1,8,0:0:0:0:
256,192,113738,1,0,0:0:0:0:
256,192,114046,1,8,0:0:0:0:
256,192,114353,1,0,0:0:0:0:
256,192,114661,1,8,0:0:0:0:
256,192,114815,1,0,0:0:0:0:
256,192,114969,1,8,0:0:0:0:
256,192,115276,1,8,0:0:0:0:
256,192,115584,1,0,0:0:0:0:
256,192,115892,1,8,0:0:0:0:
256,192,116046,1,0,0:0:0:0:
256,192,116199,1,8,0:0:0:0:
256,192,116353,1,8,0:0:0:0:
256,192,116661,1,0,0:0:0:0:
256,192,116815,1,0,0:0:0:0:
256,192,117122,1,0,0:0:0:0:
256,192,117276,1,8,0:0:0:0:
256,192,117584,1,0,0:0:0:0:
256,192,117892,1,8,0:0:0:0:
256,192,118353,1,0,0:0:0:0:
256,192,118661,1,8,0:0:0:0:
256,192,118815,1,8,0:0:0:0:
256,192,118969,1,0,0:0:0:0:
256,192,119276,1,0,0:0:0:0:
256,192,119584,5,8,0:0:0:0:
256,192,119738,1,0,0:0:0:0:
256,192,119892,1,8,0:0:0:0:
256,192,120199,1,0,0:0:0:0:
256,192,120507,1,8,0:0:0:0:
256,192,120661,1,8,0:0:0:0:
256,192,120969,1,0,0:0:0:0:
256,192,121122,1,8,0:0:0:0:
256,192,121430,1,8,0:0:0:0:
256,192,121584,1,8,0:0:0:0:
256,192,121738,1,0,0:0:0:0:
256,192,122046,1,0,0:0:0:0:
256,192,122199,1,8,0:0:0:0:
256,192,122353,1,0,0:0:0:0:
256,192,122661,1,8,0:0:0:0:
256,192,122969,1,0,0:0:0:0:
256,192,123122,1,0,0:0:0:0:
256,192,123430,1,8,0:0:0:0:
256,192,123584,1,0,0:0:0:0:
256,192,123892,1,0,0:0:0:0:
256,192,124046,1,0,0:0:0:0:
256,192,124199,1,8,0:0:0:0:
256,192,124507,1,8,0:0:0:0:
256,192,124661,1,0,0:0:0:0:
256,192,124815,1,8,0:0:0:0:
256,192,125122,1,0,0:0:0:0:
256,192,125276,1,0,0:0:0:0:
256,192,125430,1,8,0:0:0:0:
256,192,125584,1,0,0:0:0:0:
256,192,125892,1,0,0:0:0:0:
256,192,126046,1,8,0:0:0:0:
256,192,126199,1,8,0:0:0:0:
256,192,126507,1,0,0:0:0:0:
256,192,126661,1,0,0:0:0:0:
256,192,126969,1,8,0:0:0:0:
256,192,127276,1,0,0:0:0:0:
256,192,127584,1,0,0:0:0:0:
256,192,127892,1,8,0:0:0:0:
256,192,128199,1,0,0:0:0:0:
256,192,128507,1,8,0:0:0:0:
256,192,128815,1,8,0:0:0:0:
256,192,129122,1,4,0:0:0:0:
256,192,129430,5,8,0:0:0:0:
256,192,129584,1,8,0:0:0:0:
256,192,129738,1,0,0:0:0:0:
256,192,129892,1,0,0:0:0:0:
256,192,130046,1,8,0:0:0:0:
256,192,130353,1,0,0:0:0:0:
256,192,130507,1,8,0:0:0:0:
256,192,130661,1,0,0:0:0:0:
256,192,130815,1,0,0:0:0:0:
256,192,130969,1,8,0:0:0:0:
256,192,131122,1,8,0:0:0:0:
256,192,131276,1,0,0:0:0:0:
256,192,131430,1,8,0:0:0:0:
256,192,131584,1,0,0:0:0:0:
256,192,131892,1,8,0:0:0:0:
256,192,132046,1,0,0:0:0:0:
256,192,132199,1,8,0:0:0:0:
256,192,132353,1,8,0:0:0:0:
256,192,132507,1,0,0:0:0:0:
256,192,132815,1,8,0:0:0:0:
256,192,133122,1,8,0:0:0:0:
256,192,133276,1,0,0:0:0:0:
256,192,133430,1,0,0:0:0:0:
256,192,133584,1,8,0:0:0:0:
256,192,133892,1,8,0:0:0:0:
256,192,134046,1,4,0:0:0:0:
256,192,134353,1,0,0:0:0:0:
256,192,134507,1,0,0:0:0:0:
256,192,134661,1,8,0:0:0:0:
256,192,134815,1,8,0:0:0:0:
256,192,134969,1,0,0:0:0:0:
256,192,135276,1,8,0:0:0:0:
256,192,135430,1,0,0:0:0:0:
256,192,135584,1,8,0:0:0:0:
256,192,135738,1,8,0:0:0:0:
256,192,135892,1,0,0:0:0:0:
256,192,136046,1,8,0:0:0:0:
256,192,136199,1,0,0:0:0:0:
256,192,136353,1,0,0:0:0:0:
256,192,136507,1,8,0:0:0:0:
256,192,136815,1,0,0:0:0:0:
256,192,136969,1,8,0:0:0:0:
256,192,137122,1,0,0:0:0:0:
256,192,137276,1,0,0:0:0:0:
256,192,137430,1,8,0:0:0:0:
256,192,137738,1,0,0:0:0:0:
256,192,137892,1,8,0:0:0:0:
256,192,138199,1,8,0:0:0:0:
256,192,138353,1,8,0:0:0:0:
256,192,138507,1,0,0:0:0:0:
256,192,138661,1,8,0:0:0:0:
256,192,138969,1,4,0:0:0:0:
256,192,139276,5,8,0:0:0:0:
256,192,139430,1,8,0:0:0:0:
256,192,139584,1,0,0:0:0:0:
256,192,139738,1,8,0:0:0:0:
256,192,139892,1,0,0:0:0:0:
256,192,140199,1,8,0:0:0:0:
256,192,140353,1,0,0:0:0:0:
256,192,140507,1,8,0:0:0:0:
256,192,140661,1,8,0:0:0:0:
256,192,140815,1,0,0:0:0:0:
256,192,140969,1,0,0:0:0:0:
256,192,141122,1,8,0:0:0:0:
256,192,141276,1,0,0:0:0:0:
256,192,141430,1,8,0:0:0:0:
256,192,141738,1,0,0:0:0:0:
256,192,141892,1,8,0:0:0:0:
256,192,142046,1,0,0:0:0:0:
256,192,142199,1,0,0:0:0:0:
256,192,142353,1,8,0:0:0:0:
256,192,142661,1,0,0:0:0:0:
256,192,142815,1,8,0:0:0:0:
256,192,142969,1,0,0:0:0:0:
256,192,143276,1,8,0:0:0:0:
256,192,143430,1,0,0:0:0:0:
256,192,143584,1,8,0:0:0:0:
256,192,143892,1,4,0:0:0:0:
256,192,144199,1,0,0:0:0:0:
256,192,144353,1,8,0:0:0:0:
256,192,144661,1,8,0:0:0:0:
256,192,144815,1,0,0:0:0:0:
256,192,144969,1,0,0:0:0:0:
256,192,145122,1,8,0:0:0:0:
256,192,145276,1,8,0:0:0:0:
256,192,145584,1,0,0:0:0:0:
256,192,145738,1,8,0:0:0:0:
256,192,146046,1,0,0:0:0:0:
256,192,146199,1,0,0:0:0:0:
256,192,146353,1,8,0:0:0:0:
256,192,146661,1,0,0:0:0:0:
256,192,146815,1,8,0:0:0:0:
256,192,147122,1,8,0:0:0:0:
256,192,147276,1,0,0:0:0:0:
256,192,147430,1,0,0:0:0:0:
256,192,147584,1,8,0:0:0:0:
256,192,147738,1,8,0:0:0:0:
256,192,148046,1,0,0:0:0:0:
256,192,148199,1,8,0:0:0:0:
256,192,148507,1,8,0:0:0:0:
256,192,148661,1,8,0:0:0:0:
256,192,148815,1,0,0:0:0:0:
256,192,149430,1,8,0:0:0:0:
256,192,149584,1,8,0:0:0:0:
256,192,149738,1,0,0:0:0:0:
256,192,149892,1,0,0:0:0:0:
256,192,150046,1,8,0:0:0:0:
256,192,150661,1,8,0:0:0:0:
256,192,150815,1,0,0:0:0:0:
256,192,150969,1,0,0:0:0:0:
256,192,151122,1,0,0:0:0:0:
256,192,151276,1,8,0:0:0:0:
256,192,151892,1,0,0:0:0:0:
256,192,152046,1,8,0:0:0:0:
256,192,152199,1,0,0:0:0:0:
256,192,152353,1,0,0:0:0:0:
256,192,152507,1,8,0:0:0:0:
256,192,153122,1,0,0:0:0:0:
256,192,153276,1,0,0:0:0:0:
256,192,153430,1,8,0:0:0:0:
256,192,153584,1,0,0:0:0:0:
256,192,153738,1,8,0:0:0:0:
256,192,154046,1,0,0:0:0:0:
256,192,154199,1,0,0:0:0:0:
256,192,154353,1,8,0:0:0:0:
256,192,154507,1,0,0:0:0:0:
256,192,154661,1,8,0:0:0:0:
256,192,154815,1,8,0:0:0:0:
256,192,154969,1,0,0:0:0:0:
256,192,155276,1,0,0:0:0:0:
256,192,155430,1,8,0:0:0:0:
256,192,155584,1,0,0:0:0:0:
256,192,156199,1,8,0:0:0:0:
256,192,156353,1,8,0:0:0:0:
256,192,156507,1,0,0:0:0:0:
256,192,156661,1,0,0:0:0:0:
256,192,156815,1,8,0:0:0:0:
256,192,157430,1,8,0:0:0:0:
256,192,157584,1,0,0:0:0:0:
256,192,157892,1,0,0:0:0:0:
256,192,158046,1,8,0:0:0:0:
256,192,158353,1,8,0:0:0:0:
256,192,158507,1,8,0:0:0:0:
256,192,158661,1,0,0:0:0:0:
256,192,158969,5,0,0:0:0:0:
256,192,159122,1,0,0:0:0:0:
256,192,159276,1,8,0:0:0:0:
256,192,159430,1,8,0:0:0:0:
256,192,159584,1,0,0:0:0:0:
256,192,159892,1,8,0:0:0:0:
256,192,160507,1,8,0:0:0:0:
256,192,160661,1,0,0:0:0:0:
256,192,160815,1,0,0:0:0:0:
256,192,161122,1,8,0:0:0:0:
256,192,161738,1,0,0:0:0:0:
256,192,161892,1,8,0:0:0:0:
256,192,162046,1,0,0:0:0:0:
256,192,162353,1,8,0:0:0:0:
256,192,162969,1,0,0:0:0:0:
256,192,163122,1,0,0:0:0:0:
256,192,163276,1,8,0:0:0:0:
256,192,163430,1,0,0:0:0:0:
256,192,163584,1,8,0:0:0:0:
256,192,163892,1,0,0:0:0:0:
256,192,164046,1,0,0:0:0:0:
256,192,164199,1,8,0:0:0:0:
256,192,164353,1,0,0:0:0:0:
256,192,164507,1,8,0:0:0:0:
256,192,164661,1,8,0:0:0:0:
256,192,164815,1,0,0:0:0:0:
256,192,165122,1,0,0:0:0:0:
256,192,165276,1,8,0:0:0:0:
256,192,165430,1,0,0:0:0:0:
256,192,166046,1,8,0:0:0:0:
256,192,166199,1,8,0:0:0:0:
256,192,166353,1,0,0:0:0:0:
256,192,166507,1,0,0:0:0:0:
256,192,166661,1,8,0:0:0:0:
256,192,167276,1,8,0:0:0:0:
256,192,167430,1,0,0:0:0:0:
256,192,167738,1,0,0:0:0:0:
256,192,167892,1,8,0:0:0:0:
256,192,168046,1,8,0:0:0:0:
256,192,168353,1,8,0:0:0:0:
256,192,168507,1,4,0:0:0:0:
256,192,168815,5,8,0:0:0:0:
256,192,168969,1,8,0:0:0:0:
256,192,169122,1,0,0:0:0:0:
256,192,169276,1,0,0:0:0:0:
256,192,169430,1,8,0:0:0:0:
256,192,169738,1,0,0:0:0:0:
256,192,169892,1,0,0:0:0:0:
256,192,170046,1,8,0:0:0:0:
256,192,170199,1,0,0:0:0:0:
256,192,170353,1,8,0:0:0:0:
256,192,170507,1,8,0:0:0:0:
256,192,170661,1,0,0:0:0:0:
256,192,170815,1,0,0:0:0:0:
256,192,170969,1,8,0:0:0:0:
256,192,171276,1,0,0:0:0:0:
256,192,171430,1,0,0:0:0:0:
256,192,171584,1,8,0:0:0:0:
256,192,171738,1,0,0:0:0:0:
256,192,171892,1,8,0:0:0:0:
256,192,172199,1,0,0:0:0:0:
256,192,172507,1,8,0:0:0:0:
256,192,172661,1,8,0:0:0:0:
256,192,172815,1,0,0:0:0:0:
256,192,172969,1,8,0:0:0:0:
256,192,173276,1,8,0:0:0:0:
256,192,173430,1,4,0:0:0:0:
256,192,173738,1,0,0:0:0:0:
256,192,173892,1,8,0:0:0:0:
256,192,174046,1,0,0:0:0:0:
256,192,174199,1,0,0:0:0:0:
256,192,174353,1,8,0:0:0:0:
256,192,174661,1,0,0:0:0:0:
256,192,174815,1,0,0:0:0:0:
256,192,174969,1,8,0:0:0:0:
256,192,175122,1,8,0:0:0:0:
256,192,175276,1,0,0:0:0:0:
256,192,175430,1,8,0:0:0:0:
256,192,175584,1,0,0:0:0:0:
256,192,175738,1,0,0:0:0:0:
256,192,175892,1,8,0:0:0:0:
256,192,176199,1,0,0:0:0:0:
256,192,176353,1,0,0:0:0:0:
256,192,176507,1,8,0:0:0:0:
256,192,176661,1,0,0:0:0:0:
256,192,176815,1,8,0:0:0:0:
256,192,177122,1,0,0:0:0:0:
256,192,177276,1,8,0:0:0:0:
256,192,177584,1,8,0:0:0:0:
256,192,177738,1,0,0:0:0:0:
256,192,178046,1,8,0:0:0:0:
256,192,178353,1,4,0:0:0:0:
256,192,178661,5,8,0:0:0:0:
256,192,178815,1,0,0:0:0:0:
256,192,178969,1,0,0:0:0:0:
256,192,179122,1,0,0:0:0:0:
256,192,179276,1,8,0:0:0:0:
256,192,179584,1,0,0:0:0:0:
256,192,179738,1,0,0:0:0:0:
256,192,179892,1,8,0:0:0:0:
256,192,180046,1,8,0:0:0:0:
256,192,180199,1,0,0:0:0:0:
256,192,180353,1,8,0:0:0:0:
256,192,180507,1,0,0:0:0:0:
256,192,180661,1,0,0:0:0:0:
256,192,180815,1,8,0:0:0:0:
256,192,181122,1,0,0:0:0:0:
256,192,181276,1,0,0:0:0:0:
256,192,181430,1,8,0:0:0:0:
256,192,181584,1,8,0:0:0:0:
256,192,181738,1,0,0:0:0:0:
256,192,182046,1,8,0:0:0:0:
256,192,182199,1,0,0:0:0:0:
256,192,182353,1,8,0:0:0:0:
256,192,182661,1,0,0:0:0:0:
256,192,182815,1,8,0:0:0:0:
256,192,182969,1,0,0:0:0:0:
256,192,183276,1,12,0:0:0:0:
256,192,183584,1,0,0:0:0:0:
256,192,183738,1,8,0:0:0:0:
256,192,184046,1,0,0:0:0:0:
256,192,184199,1,8,0:0:0:0:
256,192,184353,1,8,0:0:0:0:
256,192,184507,1,0,0:0:0:0:
256,192,184661,1,8,0:0:0:0:
256,192,184969,1,8,0:0:0:0:
256,192,185122,1,0,0:0:0:0:
256,192,185430,1,8,0:0:0:0:
256,192,185584,1,0,0:0:0:0:
256,192,185738,1,8,0:0:0:0:
256,192,186046,1,0,0:0:0:0:
256,192,186199,1,8,0:0:0:0:
256,192,186507,1,8,0:0:0:0:
256,192,186661,1,0,0:0:0:0:
256,192,186815,1,0,0:0:0:0:
256,192,186969,1,8,0:0:0:0:
256,192,187122,1,8,0:0:0:0:
256,192,187430,1,0,0:0:0:0:
256,192,187584,1,8,0:0:0:0:
256,192,187892,1,8,0:0:0:0:
256,192,188046,1,8,0:0:0:0:
256,192,188199,1,0,0:0:0:0:
256,192,198046,5,4,0:0:0:0:
256,192,199276,1,0,0:0:0:0:
256,192,199430,1,0,0:0:0:0:
256,192,199892,1,8,0:0:0:0:
256,192,200199,1,0,0:0:0:0:
256,192,200353,1,8,0:0:0:0:
256,192,201738,5,0,0:0:0:0:
256,192,202046,1,0,0:0:0:0:
256,192,202353,1,8,0:0:0:0:
256,192,202661,1,0,0:0:0:0:
256,192,202969,1,8,0:0:0:0:
256,192,207276,5,12,0:0:0:0:
256,192,207892,5,0,0:0:0:0:
256,192,208199,1,8,0:0:0:0:
256,192,208507,1,8,0:0:0:0:
256,192,208815,1,0,0:0:0:0:
256,192,209122,1,8,0:0:0:0:
256,192,209276,1,8,0:0:0:0:
256,192,209738,1,8,0:0:0:0:
256,192,210046,1,0,0:0:0:0:
256,192,210199,1,8,0:0:0:0:
256,192,210353,1,0,0:0:0:0:
256,192,210969,5,0,0:0:0:0:
256,192,211276,1,8,0:0:0:0:
256,192,211584,1,0,0:0:0:0:
256,192,211738,1,0,0:0:0:0:
256,192,212199,1,0,0:0:0:0:
256,192,212507,1,0,0:0:0:0:
256,192,212815,1,8,0:0:0:0:
256,192,213430,1,0,0:0:0:0:
256,192,213738,1,0,0:0:0:0:
256,192,214046,1,8,0:0:0:0:
256,192,214353,1,0,0:0:0:0:
256,192,214661,1,8,0:0:0:0:
256,192,214969,1,8,0:0:0:0:
256,192,215276,5,0,0:0:0:0:
256,192,215353,1,0,0:0:0:0:
256,192,215430,1,0,0:0:0:0:
256,192,215584,1,0,0:0:0:0:
256,192,215892,1,8,0:0:0:0:
256,192,216046,1,8,0:0:0:0:
256,192,216199,1,0,0:0:0:0:
256,192,216276,1,0,0:0:0:0:
256,192,216353,1,0,0:0:0:0:
256,192,216507,1,8,0:0:0:0:
256,192,216661,1,8,0:0:0:0:
256,192,216815,1,0,0:0:0:0:
256,192,217122,1,8,0:0:0:0:
256,192,217276,1,8,0:0:0:0:
256,192,217430,1,8,0:0:0:0:
256,192,217584,1,8,0:0:0:0:
256,192,217738,1,4,0:0:0:0:
256,192,218046,5,8,0:0:0:0:
256,192,218199,1,8,0:0:0:0:
256,192,218353,1,0,0:0:0:0:
256,192,218507,1,0,0:0:0:0:
256,192,218661,1,8,0:0:0:0:
256,192,218969,1,0,0:0:0:0:
256,192,219122,1,0,0:0:0:0:
256,192,219276,1,8,0:0:0:0:
256,192,219430,1,0,0:0:0:0:
256,192,219584,1,8,0:0:0:0:
256,192,219738,1,8,0:0:0:0:
256,192,219892,1,0,0:0:0:0:
256,192,220046,1,8,0:0:0:0:
256,192,220199,1,0,0:0:0:0:
256,192,220507,1,8,0:0:0:0:
256,192,220661,1,8,0:0:0:0:
256,192,220815,1,0,0:0:0:0:
256,192,220969,1,8,0:0:0:0:
256,192,221122,1,0,0:0:0:0:
256,192,221430,1,8,0:0:0:0:
256,192,221584,1,0,0:0:0:0:
256,192,221738,1,8,0:0:0:0:
256,192,222046,1,0,0:0:0:0:
256,192,222199,1,8,0:0:0:0:
256,192,222353,1,0,0:0:0:0:
256,192,222661,1,12,0:0:0:0:
256,192,222969,1,0,0:0:0:0:
256,192,223122,1,0,0:0:0:0:
256,192,223276,1,8,0:0:0:0:
256,192,223430,1,0,0:0:0:0:
256,192,223584,1,8,0:0:0:0:
256,192,223892,1,0,0:0:0:0:
256,192,224046,1,8,0:0:0:0:
256,192,224199,1,0,0:0:0:0:
256,192,224353,1,0,0:0:0:0:
256,192,224507,1,8,0:0:0:0:
256,192,224661,1,8,0:0:0:0:
256,192,224815,1,0,0:0:0:0:
256,192,224969,1,0,0:0:0:0:
256,192,225122,1,8,0:0:0:0:
256,192,225430,1,0,0:0:0:0:
256,192,225584,1,8,0:0:0:0:
256,192,225738,1,0,0:0:0:0:
256,192,225892,1,0,0:0:0:0:
256,192,226046,1,8,0:0:0:0:
256,192,226353,1,0,0:0:0:0:
256,192,226507,1,8,0:0:0:0:
256,192,226661,1,0,0:0:0:0:
256,192,226969,1,8,0:0:0:0:
256,192,227122,1,0,0:0:0:0:
256,192,227276,1,8,0:0:0:0:
256,192,227584,1,4,0:0:0:0:
256,192,227892,5,8,0:0:0:0:
256,192,228046,1,0,0:0:0:0:
256,192,228199,1,8,0:0:0:0:
256,192,228353,1,8,0:0:0:0:
256,192,228507,1,0,0:0:0:0:
256,192,228815,1,8,0:0:0:0:
256,192,228969,1,8,0:0:0:0:
256,192,229122,1,0,0:0:0:0:
256,192,229276,1,0,0:0:0:0:
256,192,229430,1,8,0:0:0:0:
256,192,229584,1,8,0:0:0:0:
256,192,229738,1,0,0:0:0:0:
256,192,229892,1,8,0:0:0:0:
256,192,230046,1,0,0:0:0:0:
256,192,230353,1,8,0:0:0:0:
256,192,230507,1,8,0:0:0:0:
256,192,230661,1,0,0:0:0:0:
256,192,230815,1,0,0:0:0:0:
256,192,230969,1,8,0:0:0:0:
256,192,231276,1,8,0:0:0:0:
256,192,231430,1,0,0:0:0:0:
256,192,231584,1,8,0:0:0:0:
256,192,231892,1,8,0:0:0:0:
256,192,232046,1,8,0:0:0:0:
256,192,232199,1,0,0:0:0:0:
256,192,232507,1,12,0:0:0:0:
256,192,232815,1,0,0:0:0:0:
256,192,232969,1,8,0:0:0:0:
256,192,233276,1,8,0:0:0:0:
256,192,233430,1,0,0:0:0:0:
256,192,233584,1,0,0:0:0:0:
256,192,233738,1,8,0:0:0:0:
256,192,233892,1,0,0:0:0:0:
256,192,234199,1,0,0:0:0:0:
256,192,234353,1,8,0:0:0:0:
256,192,234661,1,0,0:0:0:0:
256,192,234815,1,0,0:0:0:0:
256,192,234969,1,8,0:0:0:0:
256,192,235276,1,0,0:0:0:0:
256,192,235430,1,8,0:0:0:0:
256,192,235738,1,8,0:0:0:0:
256,192,235892,1,0,0:0:0:0:
256,192,236046,1,0,0:0:0:0:
256,192,236199,1,0,0:0:0:0:
256,192,236353,1,8,0:0:0:0:
256,192,236661,1,8,0:0:0:0:
256,192,236815,1,0,0:0:0:0:
256,192,237122,1,8,0:0:0:0:
256,192,237276,1,8,0:0:0:0:
256,192,237430,1,4,0:0:0:0:
256,192,237738,5,8,0:0:0:0:
256,192,237892,1,0,0:0:0:0:
256,192,238046,1,8,0:0:0:0:
256,192,238199,1,8,0:0:0:0:
256,192,238353,1,0,0:0:0:0:
256,192,238507,1,8,0:0:0:0:
256,192,238661,1,0,0:0:0:0:
256,192,238815,1,0,0:0:0:0:
256,192,238969,1,8,0:0:0:0:
256,192,239122,1,0,0:0:0:0:
256,192,239276,1,8,0:0:0:0:
256,192,239430,1,8,0:0:0:0:
256,192,239584,1,0,0:0:0:0:
256,192,239738,1,0,0:0:0:0:
256,192,239892,1,8,0:0:0:0:
256,192,240199,1,0,0:0:0:0:
256,192,240353,1,0,0:0:0:0:
256,192,240507,1,8,0:0:0:0:
256,192,240661,1,0,0:0:0:0:
256,192,240815,1,8,0:0:0:0:
256,192,240969,1,8,0:0:0:0:
256,192,241122,1,0,0:0:0:0:
256,192,241430,1,8,0:0:0:0:
256,192,241584,1,8,0:0:0:0:
256,192,241738,1,0,0:0:0:0:
256,192,241892,1,8,0:0:0:0:
256,192,242046,1,0,0:0:0:0:
256,192,242199,1,8,0:0:0:0:
256,192,242353,1,4,0:0:0:0:
256,192,242661,1,8,0:0:0:0:
256,192,242815,1,0,0:0:0:0:
256,192,242969,1,8,0:0:0:0:
256,192,243122,1,8,0:0:0:0:
256,192,243276,1,0,0:0:0:0:
256,192,243430,1,0,0:0:0:0:
256,192,243584,1,8,0:0:0:0:
256,192,243738,1,0,0:0:0:0:
256,192,243892,1,8,0:0:0:0:
256,192,244046,1,8,0:0:0:0:
256,192,244199,1,0,0:0:0:0:
256,192,244353,1,8,0:0:0:0:
256,192,244507,1,0,0:0:0:0:
256,192,244661,1,0,0:0:0:0:
256,192,244815,1,8,0:0:0:0:
256,192,245122,1,0,0:0:0:0:
256,192,245276,1,8,0:0:0:0:
256,192,245430,1,0,0:0:0:0:
256,192,245584,1,0,0:0:0:0:
256,192,245738,1,8,0:0:0:0:
256,192,245892,1,8,0:0:0:0:
256,192,246046,1,0,0:0:0:0:
256,192,246199,1,8,0:0:0:0:
256,192,246507,1,8,0:0:0:0:
256,192,246661,1,0,0:0:0:0:
256,192,246815,1,0,0:0:0:0:
256,192,246969,1,8,0:0:0:0:
256,192,247122,1,8,0:0:0:0:
256,192,247276,1,4,0:0:0:0:
256,192,247584,5,8,0:0:0:0:
256,192,247738,1,0,0:0:0:0:
256,192,247892,1,0,0:0:0:0:
256,192,248046,1,0,0:0:0:0:
256,192,248199,1,8,0:0:0:0:
256,192,248353,1,8,0:0:0:0:
256,192,248507,1,0,0:0:0:0:
256,192,248661,1,0,0:0:0:0:
256,192,248815,1,8,0:0:0:0:
256,192,248969,1,8,0:0:0:0:
256,192,249122,1,0,0:0:0:0:
256,192,249276,1,8,0:0:0:0:
256,192,249430,1,0,0:0:0:0:
256,192,249584,1,0,0:0:0:0:
256,192,249738,1,8,0:0:0:0:
256,192,250046,1,0,0:0:0:0:
256,192,250199,1,0,0:0:0:0:
256,192,250353,1,8,0:0:0:0:
256,192,250507,1,8,0:0:0:0:
256,192,250661,1,0,0:0:0:0:
256,192,250815,1,8,0:0:0:0:
256,192,250969,1,0,0:0:0:0:
256,192,251122,1,0,0:0:0:0:
256,192,251276,1,8,0:0:0:0:
256,192,251584,1,0,0:0:0:0:
256,192,251738,1,8,0:0:0:0:
256,192,251892,1,0,0:0:0:0:
256,192,252046,1,8,0:0:0:0:
256,192,252199,1,4,0:0:0:0:
256,192,252507,1,0,0:0:0:0:
256,192,252661,1,8,0:0:0:0:
256,192,252969,1,8,0:0:0:0:
256,192,253122,1,0,0:0:0:0:
256,192,253276,1,0,0:0:0:0:
256,192,253430,1,8,0:0:0:0:
256,192,253584,1,8,0:0:0:0:
256,192,253738,1,0,0:0:0:0:
256,192,253892,1,8,0:0:0:0:
256,192,254046,1,0,0:0:0:0:
256,192,254199,1,8,0:0:0:0:
256,192,254353,1,0,0:0:0:0:
256,192,254507,1,0,0:0:0:0:
256,192,254661,1,8,0:0:0:0:
256,192,254969,1,0,0:0:0:0:
256,192,255122,1,8,0:0:0:0:
256,192,255276,1,0,0:0:0:0:
256,192,255430,1,8,0:0:0:0:
256,192,255584,1,8,0:0:0:0:
256,192,255738,1,0,0:0:0:0:
256,192,255815,1,0,0:0:0:0:
256,192,255892,1,0,0:0:0:0:
256,192,256046,1,0,0:0:0:0:
256,192,256199,1,8,0:0:0:0:
256,192,256353,1,8,0:0:0:0:
256,192,256507,1,0,0:0:0:0:
256,192,256661,1,0,0:0:0:0:
256,192,256815,1,8,0:0:0:0:
256,192,256969,1,8,0:0:0:0:
256,192,257122,1,4,0:0:0:0:
256,192,257430,1,0,0:0:0:0:
256,192,257584,1,0,0:0:0:0:
256,192,257738,1,8,0:0:0:0:
256,192,258046,1,0,0:0:0:0:
256,192,258353,1,8,0:0:0:0:
256,192,258507,1,0,0:0:0:0:
256,192,258815,1,0,0:0:0:0:
256,192,258969,1,8,0:0:0:0:
256,192,259122,1,8,0:0:0:0:
256,192,259276,1,0,0:0:0:0:
256,192,259430,1,8,0:0:0:0:
256,192,259584,1,0,0:0:0:0:
256,192,259892,1,8,0:0:0:0:
256,192,260046,1,8,0:0:0:0:
256,192,260353,1,0,0:0:0:0:
256,192,260507,1,8,0:0:0:0:
256,192,260815,1,8,0:0:0:0:
256,192,261122,1,0,0:0:0:0:
256,192,261276,1,8,0:0:0:0:
256,192,261430,1,0,0:0:0:0:
256,192,261738,1,0,0:0:0:0:
256,192,262046,1,12,0:0:0:0:
256,192,262353,1,0,0:0:0:0:
256,192,262507,1,0,0:0:0:0:
256,192,262661,1,8,0:0:0:0:
256,192,262969,1,0,0:0:0:0:
256,192,263276,1,8,0:0:0:0:
256,192,263584,1,0,0:0:0:0:
256,192,263892,1,8,0:0:0:0:
256,192,264046,1,0,0:0:0:0:
256,192,264199,1,8,0:0:0:0:
256,192,264353,1,8,0:0:0:0:
256,192,264507,1,0,0:0:0:0:
256,192,264815,1,8,0:0:0:0:
256,192,264969,1,8,0:0:0:0:
256,192,265276,1,8,0:0:0:0:
256,192,265430,1,0,0:0:0:0:
256,192,265738,1,8,0:0:0:0:
256,192,266046,1,0,0:0:0:0:
256,192,266199,1,8,0:0:0:0:
256,192,266353,1,0,0:0:0:0:
256,192,266507,1,8,0:0:0:0:
256,192,266815,1,8,0:0:0:0:
256,192,266969,1,4,0:0:0:0:
256,192,267276,1,8,0:0:0:0:
256,192,267430,1,8,0:0:0:0:
256,192,267584,1,0,0:0:0:0:
256,192,267892,1,8,0:0:0:0:
256,192,268199,1,0,0:0:0:0:
256,192,268507,1,8,0:0:0:0:
256,192,268815,1,0,0:0:0:0:
256,192,268969,1,0,0:0:0:0:
256,192,269122,1,8,0:0:0:0:
256,192,269276,1,0,0:0:0:0:
256,192,269430,1,8,0:0:0:0:
256,192,269738,1,0,0:0:0:0:
256,192,269892,1,0,0:0:0:0:
256,192,270046,1,8,0:0:0:0:
256,192,270353,1,8,0:0:0:0:
256,192,270661,1,0,0:0:0:0:
256,192,270969,1,8,0:0:0:0:
256,192,271276,1,0,0:0:0:0:
256,192,271430,1,8,0:0:0:0:
256,192,271584,1,0,0:0:0:0:
256,192,271738,1,0,0:0:0:0:
256,192,271892,1,12,0:0:0:0:
256,192,272199,1,0,0:0:0:0:
256,192,272353,1,0,0:0:0:0:
256,192,272507,1,8,0:0:0:0:
256,192,272815,1,8,0:0:0:0:
256,192,273122,1,0,0:0:0:0:
256,192,273276,1,0,0:0:0:0:
256,192,273430,1,8,0:0:0:0:
256,192,273738,1,0,0:0:0:0:
256,192,273892,1,8,0:0:0:0:
256,192,274199,1,0,0:0:0:0:
256,192,274353,1,0,0:0:0:0:
256,192,274661,1,8,0:0:0:0:
256,192,274969,1,0,0:0:0:0:
256,192,275122,1,8,0:0:0:0:
256,192,275430,1,0,0:0:0:0:
256,192,275584,1,0,0:0:0:0:
256,192,275892,1,8,0:0:0:0:
256,192,276199,1,0,0:0:0:0:
256,192,276353,1,8,0:0:0:0:
256,192,276507,1,8,0:0:0:0:
256,192,276661,1,8,0:0:0:0:
256,192,276815,1,4,0:0:0:0:
256,192,277122,1,0,0:0:0:0:
256,192,277276,1,0,0:0:0:0:
256,192,277430,1,8,0:0:0:0:
256,192,277738,1,0,0:0:0:0:
256,192,278046,1,8,0:0:0:0:
256,192,278353,1,0,0:0:0:0:
256,192,278661,1,8,0:0:0:0:
256,192,278815,1,8,0:0:0:0:
256,192,278969,1,0,0:0:0:0:
256,192,279122,1,8,0:0:0:0:
256,192,279276,1,0,0:0:0:0:
256,192,279584,1,8,0:0:0:0:
256,192,279738,1,8,0:0:0:0:
256,192,280046,1,0,0:0:0:0:
256,192,280199,1,8,0:0:0:0:
256,192,280507,1,8,0:0:0:0:
256,192,280815,1,0,0:0:0:0:
256,192,280969,1,0,0:0:0:0:
256,192,281122,1,8,0:0:0:0:
256,192,281276,1,8,0:0:0:0:
256,192,281584,1,0,0:0:0:0:
256,192,281738,1,12,0:0:0:0:
256,192,282046,1,0,0:0:0:0:
256,192,282199,1,0,0:0:0:0:
256,192,282353,1,8,0:0:0:0:
256,192,282661,1,0,0:0:0:0:
256,192,282969,1,8,0:0:0:0:
256,192,283276,1,0,0:0:0:0:
256,192,283584,1,8,0:0:0:0:
256,192,283738,1,8,0:0:0:0:
256,192,283892,1,0,0:0:0:0:
256,192,284046,1,0,0:0:0:0:
256,192,284199,1,8,0:0:0:0:
256,192,284507,1,0,0:0:0:0:
256,192,284661,1,0,0:0:0:0:
256,192,284969,1,8,0:0:0:0:
256,192,285122,1,0,0:0:0:0:
256,192,285430,1,8,0:0:0:0:
256,192,285584,1,8,0:0:0:0:
256,192,285738,1,8,0:0:0:0:
256,192,286046,1,0,0:0:0:0:
256,192,286199,1,0,0:0:0:0:
256,192,286353,1,0,0:0:0:0:
256,192,286661,1,12,0:0:0:0:
256,192,286969,1,8,0:0:0:0:
256,192,287122,1,8,0:0:0:0:
256,192,287276,1,0,0:0:0:0:
256,192,287584,1,8,0:0:0:0:
256,192,287892,1,0,0:0:0:0:
256,192,288199,1,8,0:0:0:0:
256,192,288507,1,0,0:0:0:0:
256,192,288661,1,0,0:0:0:0:
256,192,288815,1,8,0:0:0:0:
256,192,288969,1,0,0:0:0:0:
256,192,289122,1,8,0:0:0:0:
256,192,289430,1,0,0:0:0:0:
256,192,289584,1,8,0:0:0:0:
256,192,289738,1,0,0:0:0:0:
256,192,290046,1,8,0:0:0:0:
256,192,290353,1,0,0:0:0:0:
256,192,290661,1,8,0:0:0:0:
256,192,290969,1,0,0:0:0:0:
256,192,291122,1,8,0:0:0:0:
256,192,291276,1,0,0:0:0:0:
256,192,291430,1,0,0:0:0:0:
256,192,291584,1,12,0:0:0:0:
256,192,291892,1,0,0:0:0:0:
256,192,292046,1,8,0:0:0:0:
256,192,292353,1,0,0:0:0:0:
256,192,292507,1,8,0:0:0:0:
256,192,292661,1,8,0:0:0:0:
256,192,292815,1,0,0:0:0:0:
256,192,292969,1,8,0:0:0:0:
256,192,293276,1,8,0:0:0:0:
256,192,293430,1,0,0:0:0:0:
256,192,293738,1,8,0:0:0:0:
256,192,293892,1,0,0:0:0:0:
256,192,294046,1,8,0:0:0:0:
256,192,294353,1,0,0:0:0:0:
256,192,294507,1,8,0:0:0:0:
256,192,294661,1,0,0:0:0:0:
256,192,294738,1,0,0:0:0:0:
256,192,294815,1,0,0:0:0:0:
256,192,294969,1,8,0:0:0:0:
256,192,295122,1,8,0:0:0:0:
256,192,295276,1,0,0:0:0:0:
256,192,295430,1,8,0:0:0:0:
256,192,295738,1,8,0:0:0:0:
256,192,295892,1,0,0:0:0:0:
256,192,296199,1,8,0:0:0:0:
256,192,296353,1,8,0:0:0:0:
256,192,296507,1,0,0:0:0:0:
