osu file format v14

[General]
AudioFilename: drop_it_like_the_nasdaqwav by MF DEEJ.mp3
AudioLeadIn: 0
PreviewTime: 342
Countdown: 0
SampleSet: Soft
StackLeniency: 0.2
Mode: 0
LetterboxInBreaks: 0
WidescreenStoryboard: 1

[Editor]
Bookmarks: 1453,2009,2564,3120,3490,3860,4416,4972,5527,6083,6453,6823,7379,7935,8490,9046,9416,9786,10342,10897,11453,12009,12379,13490,14231,14416,14601,14786,14972,15157,15342,16453,16638,17935,18675,18698,18722,18745,19416,20897,22379,23397,23490,23583,23860,26268,26823,28120,29231,29786,31083,31638
DistanceSpacing: 1.95
BeatDivisor: 16
GridSize: 32
TimelineZoom: 1.3

[Metadata]
Title:drop_it_like_the_nasdaq.wav
TitleUnicode:drop_it_like_the_nasdaq.wav
Artist:MF DEEJ
ArtistUnicode:MF DEEJ
Creator:Ringating
Version:NASDAQ
Source:
Tags:Childish_Gambino pishifat
BeatmapID:921505
BeatmapSetID:414255

[Difficulty]
HPDrainRate:8
CircleSize:4
OverallDifficulty:7.5
ApproachRate:8.5
SliderMultiplier:0.999999999999999
SliderTickRate:2

[Events]
//Background and Video events
0,0,"nasdaq.wav.png",0,0
//Break Periods
//Storyboard Layer 0 (Background)
//Storyboard Layer 1 (Fail)
//Storyboard Layer 2 (Pass)
//Storyboard Layer 3 (Foreground)
//Storyboard Sound Samples

[TimingPoints]
898,370.37037037037,4,2,0,80,1,0
12749,-100,4,2,0,80,0,1
24601,-83.3333333333333,4,2,0,80,0,0

[Colours]
Combo1 : 153,153,153
Combo2 : 255,85,0
Combo3 : 153,94,61

[HitObjects]
146,184,342,5,0,0:0:0:0:
183,83,527,1,0,0:0:0:0:
79,101,712,1,0,0:0:0:0:
250,167,898,5,0,1:0:0:0:
250,167,1268,1,0,0:0:0:0:
107,284,1453,1,0,1:0:0:0:
146,184,1638,1,0,0:0:0:0:
213,266,1823,1,0,0:0:0:0:
355,149,2009,1,0,1:0:0:0:
317,249,2194,1,0,0:0:0:0:
250,167,2379,5,0,0:0:0:0:
423,231,2564,1,0,1:0:0:0:
384,331,2749,1,0,0:0:0:0:
317,249,2935,1,0,0:0:0:0:
461,131,3120,1,0,1:0:0:0:
461,131,3490,1,0,1:0:0:0:
461,131,3860,5,0,1:0:0:0:
317,249,4231,1,0,0:0:0:0:
489,313,4416,1,0,1:0:0:0:
317,249,4601,1,0,0:0:0:0:
317,249,4972,1,0,1:0:0:0:
279,349,5157,1,0,0:0:0:0:
384,331,5342,5,0,0:0:0:0:
212,267,5527,1,0,1:0:0:0:
250,167,5712,1,0,0:0:0:0:
146,184,5897,1,0,0:0:0:0:
317,249,6083,1,0,1:0:0:0:
317,249,6453,1,0,1:0:0:0:
317,249,6823,5,0,1:0:0:0:
317,249,7194,1,0,0:0:0:0:
287,66,7379,1,0,1:0:0:0:
317,249,7564,1,0,0:0:0:0:
317,249,7935,1,0,1:0:0:0:
279,349,8120,1,0,0:0:0:0:
384,331,8305,5,0,0:0:0:0:
212,267,8490,1,0,1:0:0:0:
250,167,8675,1,0,0:0:0:0:
317,249,8860,1,0,0:0:0:0:
146,184,9046,1,0,1:0:0:0:
146,184,9416,1,0,1:0:0:0:
146,184,9786,5,0,1:0:0:0:
107,284,9972,1,0,0:0:0:0:
212,267,10157,1,0,0:0:0:0:
183,83,10342,1,0,1:0:0:0:
146,184,10527,1,0,0:0:0:0:
79,101,10712,1,0,0:0:0:0:
250,167,10897,1,0,1:0:0:0:
287,66,11083,1,0,0:0:0:0:
317,249,11268,5,0,0:0:0:0:
146,184,11453,1,0,1:0:0:0:
250,167,11638,1,0,0:0:0:0:
355,150,11823,1,0,0:0:0:0:
384,331,12009,1,0,1:0:0:0:
384,331,12379,1,0,1:0:0:0:
279,349,12564,1,0,0:0:0:0:
57,276,12749,6,0,B|38:229|38:229|45:167,1,99.9999999999999,4|0,0:1|0:0,0:0:0:0:
147,39,13305,1,0,0:0:0:0:
349,117,13490,1,2,0:3:0:0:
349,117,13860,1,0,0:0:0:0:
349,117,14231,5,0,0:0:0:0:
226,137,14416,1,0,0:0:0:0:
305,234,14601,1,0,0:0:0:0:
349,117,14786,1,0,0:0:0:0:
181,255,14972,1,2,0:3:0:0:
226,137,15157,1,0,0:0:0:0:
305,234,15342,1,0,0:0:0:0:
260,352,15527,1,0,0:0:0:0:
226,137,15712,5,0,0:0:0:0:
349,117,15897,1,0,0:0:0:0:
305,234,16083,1,0,0:0:0:0:
226,137,16268,1,0,0:0:0:0:
428,214,16453,1,2,0:3:0:0:
384,331,16638,1,0,0:0:0:0:
305,234,16823,1,0,0:0:0:0:
260,352,17009,1,0,0:0:0:0:
182,254,17194,5,0,0:0:0:0:
305,234,17379,1,0,0:0:0:0:
103,157,17564,1,0,0:0:0:0:
182,254,17749,1,0,0:0:0:0:
147,39,17935,1,2,0:3:0:0:
147,39,18305,1,0,0:0:0:0:
25,60,18490,1,0,0:0:0:0:
226,137,18675,6,0,B|275:149|275:149|322:136,1,99.9999999999999,4|0,0:1|0:0,0:0:0:0:
270,19,19231,1,0,0:0:0:0:
305,234,19416,1,2,0:3:0:0:
349,117,19601,1,0,0:0:0:0:
428,214,19786,1,0,0:0:0:0:
305,234,19972,1,0,0:0:0:0:
349,117,20157,5,0,0:0:0:0:
226,137,20342,1,0,0:0:0:0:
305,234,20527,1,0,0:0:0:0:
182,254,20712,1,0,0:0:0:0:
384,331,20897,1,2,0:3:0:0:
384,331,21268,1,0,0:0:0:0:
428,214,21453,1,0,0:0:0:0:
305,234,21638,5,0,0:0:0:0:
349,117,21823,1,0,0:0:0:0:
428,214,22009,1,0,0:0:0:0:
474,95,22194,1,0,0:0:0:0:
305,234,22379,1,2,0:3:0:0:
226,137,22564,1,0,0:0:0:0:
349,117,22749,1,0,0:0:0:0:
270,19,22935,1,0,0:0:0:0:
226,137,23120,5,0,0:0:0:0:
147,39,23305,1,0,0:0:0:0:
182,254,23490,1,0,0:0:0:0:
103,157,23675,1,0,0:0:0:0:
305,234,23860,1,2,0:3:0:0:
305,234,24231,1,0,0:0:0:0:
305,234,24601,6,0,L|186:245,1,119.999996337891,0|0,1:0|0:0,0:0:0:0:
117,96,25157,1,0,1:0:0:0:
103,175,25712,6,0,L|222:164,1,119.999996337891,0|0,1:0|0:0,0:0:0:0:
251,351,26268,1,0,1:0:0:0:
182,266,26453,1,0,0:0:0:0:
291,248,26638,1,0,0:0:0:0:
142,369,26823,1,0,1:0:0:0:
142,369,27194,1,0,1:0:0:0:
142,369,27564,6,0,P|134:341|126:305,1,59.9999981689453,0|0,1:0|0:0,0:0:0:0:
167,207,27935,1,0,0:0:0:0:
345,275,28120,1,0,1:0:0:0:
236,293,28305,1,0,0:0:0:0:
236,293,28675,1,0,1:0:0:0:
236,293,29046,5,0,0:0:0:0:
207,104,29231,1,0,1:0:0:0:
167,207,29416,1,0,0:0:0:0:
276,190,29601,1,0,0:0:0:0:
98,121,29786,1,0,1:0:0:0:
98,121,30157,1,0,1:0:0:0:
98,121,30527,6,0,B|106:242,1,119.999996337891,0|0,1:0|0:0,0:0:0:0:
251,361,31083,1,0,1:0:0:0:
213,258,31268,1,0,0:0:0:0:
143,343,31453,1,0,0:0:0:0:
321,276,31638,1,0,1:0:0:0:
213,258,31823,1,0,0:0:0:0:
256,192,32009,12,0,33953,0:0:0:0:
