osu file format v14

[General]
AudioFilename: audio.mp3
AudioLeadIn: 0
PreviewTime: 342
Countdown: 0
SampleSet: Soft
StackLeniency: 0.4
Mode: 0
LetterboxInBreaks: 0
WidescreenStoryboard: 0

[Editor]
DistanceSpacing: 1.95
BeatDivisor: 4
GridSize: 4
TimelineZoom: 1

[Metadata]
Title:drop_it_like_the_nasdaq.wav
TitleUnicode:drop_it_like_the_nasdaq.wav
Artist:MF DEEJ
ArtistUnicode:MF DEEJ
Creator:Ancelysia
Version:Hard R
Source:
Tags:Childish_Gambino Bonfire soundcloud Vulkin
BeatmapID:1425596
BeatmapSetID:673646

[Difficulty]
HPDrainRate:5
CircleSize:4
OverallDifficulty:4.6
ApproachRate:8
SliderMultiplier:1.1
SliderTickRate:1

[Events]
//Background and Video events
0,0,"BG.jpg",0,0
//Break Periods
//Storyboard Layer 0 (Background)
//Storyboard Layer 1 (Fail)
//Storyboard Layer 2 (Pass)
//Storyboard Layer 3 (Foreground)
//Storyboard Sound Samples

[TimingPoints]
342,370.37037037037,4,2,1,70,1,0
342,-133.333333333333,4,2,1,70,0,0
898,370.37037037037,4,2,1,70,1,0
12749,-100,4,2,1,70,0,1
18490,-100,4,2,1,70,0,0
18675,-100,4,2,1,70,0,1
24601,-133.333333333333,4,2,1,70,0,0
32009,-133.333333333333,4,2,1,5,0,0

[Colours]
Combo1 : 128,128,128
Combo2 : 0,202,0
Combo3 : 18,124,255
Combo4 : 242,24,57
Combo5 : 255,192,0
Combo6 : 128,128,128

[HitObjects]
188,64,342,69,0,0:0:0:0:
188,64,527,2,0,L|248:56,1,41.2500015735627
300,104,898,22,0,P|356:120|412:108,1,110,0|0,1:0|0:0,0:0:0:0:
480,188,1453,2,0,L|360:196,1,110,0|0,1:0|0:0,0:0:0:0:
304,232,2009,2,0,L|228:228,1,55,0|0,1:0|0:0,0:0:0:0:
136,272,2564,2,0,L|208:276,1,55,0|0,1:0|0:0,0:0:0:0:
256,316,3120,1,0,1:0:0:0:
256,316,3490,1,0,1:0:0:0:
256,316,3860,6,0,P|280:272|272:196,1,110,0|0,1:0|0:0,0:0:0:0:
196,264,4416,2,0,P|203:214|169:145,1,110,0|0,1:0|0:0,0:0:0:0:
128,220,4972,2,0,L|64:212,1,55,0|0,1:0|0:0,0:0:0:0:
24,132,5527,2,0,L|88:140,1,55,0|0,1:0|0:0,0:0:0:0:
152,88,6083,1,0,1:0:0:0:
152,88,6453,1,0,1:0:0:0:
228,140,6823,6,0,L|340:132,1,110,0|0,1:0|0:0,0:0:0:0:
296,208,7379,2,0,L|416:200,1,110,0|0,1:0|0:0,0:0:0:0:
456,268,7935,2,0,L|388:276,1,55,0|0,1:0|0:0,0:0:0:0:
354,333,8490,2,0,L|300:340,1,55,0|0,1:0|0:0,0:0:0:0:
232,304,9046,1,0,1:0:0:0:
232,304,9416,1,0,1:0:0:0:
232,304,9786,5,0,1:0:0:0:
244,212,9972,1,0,0:0:0:0:
144,288,10157,1,0,0:0:0:0:
124,180,10342,1,0,1:0:0:0:
232,304,10527,37,0,0:0:0:0:
248,184,10713,1,0,0:0:0:0:
144,288,10898,1,0,1:0:0:0:
120,148,11083,1,0,0:0:0:0:
120,148,11268,22,0,L|184:156,1,55,0|0,0:0|1:0,0:0:0:0:
240,196,11638,2,0,L|294:202,1,55
356,248,12009,2,0,L|465:258,1,110,0|0,1:0|1:0,0:0:0:0:
496,352,12564,1,0,0:0:0:0:
496,352,12749,6,0,L|504:236,1,110,4|0,0:1|0:0,0:0:0:0:
336,380,13305,2,0,L|328:280,1,55,0|8,1:0|0:1,0:0:0:0:
316,192,13860,1,0,0:0:0:0:
316,192,14231,38,0,P|288:140|288:100,1,55
228,192,14601,2,0,P|209:136|216:97,1,55,0|0,0:0|1:0,0:0:0:0:
136,172,14972,2,0,P|137:113|157:79,1,55,8|0,0:1|0:0,0:0:0:0:
60,112,15342,2,0,P|81:57|111:32,1,55
132,0,15712,5,4,3:0:0:0:
152,112,15897,1,0,0:0:0:0:
216,4,16083,5,0,0:0:0:0:
232,84,16268,1,0,1:0:0:0:
296,32,16453,6,0,P|336:24|368:32,1,55,8|0,0:1|0:0,0:0:0:0:
332,104,16823,2,0,P|372:111|399:129,1,55,0|0,3:0|0:0,0:0:0:0:
432,184,17194,37,0,0:0:0:0:
412,296,17379,1,0,0:0:0:0:
348,188,17565,5,4,3:0:0:0:
332,268,17750,1,0,1:0:0:0:
264,216,17935,6,0,P|209:220|160:198,1,110,8|0,0:1|0:0,0:0:0:0:
108,148,18490,1,0,0:0:0:0:
108,148,18675,5,4,0:1:0:0:
88,260,18860,1,0,0:0:0:0:
24,152,19046,37,0,0:0:0:0:
8,232,19231,1,0,1:0:0:0:
88,260,19416,6,0,P|132:276|160:272,1,55,8|0,0:1|0:0,0:0:0:0:
200,316,19786,2,0,P|246:312|270:297,1,55,0|0,1:0|0:0,0:0:0:0:
320,268,20157,5,0,0:0:0:0:
340,156,20342,1,0,0:0:0:0:
404,264,20528,5,4,3:0:0:0:
420,184,20713,1,0,1:0:0:0:
320,268,20897,38,0,P|265:274|213:257,1,110,8|0,0:1|0:0,0:0:0:0:
160,200,21453,1,0,0:0:0:0:
160,200,21638,6,0,L|236:188,2,55,4|0|0,3:0|0:0|0:0,0:0:0:0:
96,268,22194,1,0,1:0:0:0:
96,268,22379,6,0,L|20:256,2,55,8|0|4,0:1|0:0|3:0,0:0:0:0:
172,320,22935,1,0,0:0:0:0:
248,360,23120,5,0,0:0:0:0:
248,360,23305,2,0,L|328:352,1,55,0|0,3:0|3:0,0:0:0:0:
372,380,23675,1,0,0:0:0:0:
436,336,23860,2,0,P|454:284|452:230,1,110,0|0,1:0|0:0,0:0:0:0:
404,80,24601,21,0,1:0:0:0:
340,132,24972,2,0,L|264:136,1,41.2500015735627,0|0,0:0|1:0,0:0:0:0:
299,135,25712,1,0,1:0:0:0:
232,172,26083,2,0,L|152:180,1,41.2500015735627,0|0,0:0|1:0,0:0:0:0:
132,132,26453,2,0,L|56:136,1,41.2500015735627
32,180,26823,1,0,1:0:0:0:
32,180,27194,1,0,1:0:0:0:
32,180,27564,70,0,P|0:264|0:272,1,82.5000031471254,0|0,1:0|0:0,0:0:0:0:
76,244,28120,2,0,P|72:314|87:356,1,82.5000031471254,0|0,1:3|0:3,0:3:0:0:
120,384,28675,1,0,1:0:0:0:
188,316,29046,6,0,L|268:324,1,41.2500015735627,0|0,0:0|1:0,0:0:0:0:
292,276,29416,2,0,L|344:284,1,41.2500015735627
396,232,29786,2,0,L|477:244,1,82.5000031471254,0|0,1:0|1:0,0:0:0:0:
496,316,30527,70,0,P|455:335|384:323,1,82.5000031471254,0|0,1:0|0:0,0:0:0:0:
354,384,31083,2,0,P|310:372|264:317,1,82.5000031471254,0|0,1:0|0:0,0:0:0:0:
236,288,31638,2,0,L|176:284,1,41.2500015735627,0|0,1:0|0:0,0:0:0:0:
256,192,32009,12,0,34046,0:0:0:0:
