osu file format v14

[General]
AudioFilename: audio.mp3
AudioLeadIn: 0
PreviewTime: 14385
Countdown: 0
SampleSet: Normal
StackLeniency: 0.7
Mode: 1
LetterboxInBreaks: 0
WidescreenStoryboard: 1

[Editor]
Bookmarks: 1585,27185,52785,81585,107185,132785
DistanceSpacing: 0.8
BeatDivisor: 4
GridSize: 32
TimelineZoom: 2.5

[Metadata]
Title:SPIRAL
TitleUnicode:SPIRAL
Artist:METAROOM
ArtistUnicode:METAROOM
Creator:Ulqui
Version:ONI
Source:
Tags:electronic instrumental glitchcore woosungko TWC2022 GF HD2
BeatmapID:3683990
BeatmapSetID:1783072

[Difficulty]
HPDrainRate:6
CircleSize:7
OverallDifficulty:6
ApproachRate:10
SliderMultiplier:1.4
SliderTickRate:1

[Events]
//Background and Video events
0,0,"spiral.JPG",0,0
//Break Periods
2,52985,57135
//Storyboard Layer 0 (Background)
//Storyboard Layer 1 (Fail)
//Storyboard Layer 2 (Pass)
//Storyboard Layer 3 (Foreground)
//Storyboard Layer 4 (Overlay)
//Storyboard Sound Samples

[TimingPoints]
1585,400,4,1,0,100,1,0
1585,-111.111111111111,4,1,0,100,0,0
1784,-109.090909090909,4,1,0,100,0,0
1884,-108.108108108108,4,1,0,100,0,0
1984,-107.142857142857,4,1,0,100,0,0
2184,-105.263157894737,4,1,0,100,0,0
2384,-103.448275862069,4,1,0,100,0,0
2484,-102.564102564103,4,1,0,100,0,0
2584,-101.694915254237,4,1,0,100,0,0
2684,-100.840336134454,4,1,0,100,0,0
2784,-100,4,1,0,100,0,0
2984,-98.3606557377049,4,1,0,100,0,0
3184,-96.7741935483871,4,1,0,100,0,0
3284,-96,4,1,0,100,0,0
3384,-95.2380952380952,4,1,0,100,0,0
3584,-93.75,4,1,0,100,0,0
3784,-92.3076923076923,4,1,0,100,0,0
3884,-91.6030534351145,4,1,0,100,0,0
4285,-125,4,1,0,100,0,0
4685,-90.9090909090909,4,1,0,100,0,0
4984,-92.3076923076923,4,1,0,100,0,0
5084,-93.0232558139535,4,1,0,100,0,0
5184,-93.75,4,1,0,100,0,0
5384,-95.2380952380952,4,1,0,100,0,0
5584,-96.7741935483871,4,1,0,100,0,0
5684,-97.5609756097561,4,1,0,100,0,0
5784,-98.3606557377049,4,1,0,100,0,0
5884,-99.1735537190083,4,1,0,100,0,0
5984,-100,4,1,0,100,0,0
6184,-101.694915254237,4,1,0,100,0,0
6384,-103.448275862069,4,1,0,100,0,0
6484,-104.347826086957,4,1,0,100,0,0
6584,-105.263157894737,4,1,0,100,0,0
6684,-106.194690265487,4,1,0,100,0,0
6784,-107.142857142857,4,1,0,100,0,0
6984,-109.090909090909,4,1,0,100,0,0
7084,-110.091743119266,4,1,0,100,0,0
7184,-111.111111111111,4,1,0,100,0,0
7329,-117.647058823529,4,1,0,100,0,0
7485,-125,4,1,0,100,0,0
7885,-91.5750915750916,4,1,0,100,0,0
8184,-92.9368029739777,4,1,0,100,0,0
8284,-93.6329588014981,4,1,0,100,0,0
8384,-94.3396226415094,4,1,0,100,0,0
8584,-95.7854406130268,4,1,0,100,0,0
8784,-97.2762645914397,4,1,0,100,0,0
8984,-98.8142292490119,4,1,0,100,0,0
9184,-100.401606425703,4,1,0,100,0,0
9384,-102.040816326531,4,1,0,100,0,0
9584,-103.734439834025,4,1,0,100,0,0
9684,-104.602510460251,4,1,0,100,0,0
9784,-105.48523206751,4,1,0,100,0,0
9984,-107.296137339056,4,1,0,100,0,0
10184,-109.170305676856,4,1,0,100,0,0
10284,-110.132158590308,4,1,0,100,0,0
10685,-125,4,1,0,100,0,0
10885,-111.111111111111,4,1,0,100,0,0
11085,-90.9090909090909,4,1,0,100,0,0
11384,-92.1052631578947,4,1,0,100,0,0
11484,-92.7152317880794,4,1,0,100,0,0
11584,-93.3333333333333,4,1,0,100,0,0
11784,-94.5945945945946,4,1,0,100,0,0
11884,-95.2380952380952,4,1,0,100,0,0
12084,-96.551724137931,4,1,0,100,0,0
12184,-97.2222222222222,4,1,0,100,0,0
12284,-97.9020979020979,4,1,0,100,0,0
12384,-98.5915492957747,4,1,0,100,0,0
12584,-100,4,1,0,100,0,0
12685,-125,4,1,0,100,0,0
12885,-117.647058823529,4,1,0,100,0,0
13085,-133.333333333333,4,1,0,100,0,0
13935,-66.6666666666667,4,1,0,100,0,0
14385,-111.111111111111,4,1,0,100,0,0
14584,-109.48905109489,4,1,0,100,0,0
14684,-108.695652173913,4,1,0,100,0,0
14784,-107.913669064748,4,1,0,100,0,0
14984,-106.382978723404,4,1,0,100,0,0
15184,-104.895104895105,4,1,0,100,0,0
15284,-104.166666666667,4,1,0,100,0,0
15384,-103.448275862069,4,1,0,100,0,0
15484,-102.739726027397,4,1,0,100,0,0
15584,-102.040816326531,4,1,0,100,0,0
15784,-100.671140939597,4,1,0,100,0,0
15984,-99.3377483443709,4,1,0,100,0,0
16084,-98.6842105263158,4,1,0,100,0,0
16184,-98.0392156862745,4,1,0,100,0,0
16384,-96.7741935483871,4,1,0,100,0,0
16584,-95.5414012738854,4,1,0,100,0,0
16784,-94.3396226415094,4,1,0,100,0,0
16984,-93.167701863354,4,1,0,100,0,0
17034,-92.5925925925926,4,1,0,100,0,0
17134,-92.0245398773006,4,1,0,100,0,0
17284,-91.4634146341463,4,1,0,100,0,0
17334,-90.9090909090909,4,1,0,100,0,0
17435,-111.111111111111,4,1,0,100,0,0
17485,-83.3333333333333,4,1,0,100,0,0
18184,-90.9090909090909,4,1,0,100,0,0
18284,-91.6666666666667,4,1,0,100,0,0
18484,-93.2203389830509,4,1,0,100,0,0
18584,-94.017094017094,4,1,0,100,0,0
18684,-94.8275862068965,4,1,0,100,0,0
18784,-95.6521739130435,4,1,0,100,0,0
18984,-97.3451327433628,4,1,0,100,0,0
19184,-99.0990990990991,4,1,0,100,0,0
19284,-100,4,1,0,100,0,0
19384,-100.917431192661,4,1,0,100,0,0
19484,-101.851851851852,4,1,0,100,0,0
19584,-102.803738317757,4,1,0,100,0,0
19884,-105.769230769231,4,1,0,100,0,0
19984,-106.796116504854,4,1,0,100,0,0
20084,-107.843137254902,4,1,0,100,0,0
20184,-108.910891089109,4,1,0,100,0,0
20285,-110,4,1,0,100,0,0
20384,-111.111111111111,4,1,0,100,0,0
20585,-100,4,1,0,100,0,0
20784,-90.9090909090909,4,1,0,100,0,0
20984,-92.1658986175115,4,1,0,100,0,0
21084,-92.8074245939675,4,1,0,100,0,0
21184,-93.4579439252336,4,1,0,100,0,0
21384,-94.7867298578199,4,1,0,100,0,0
21484,-95.4653937947494,4,1,0,100,0,0
21584,-96.1538461538461,4,1,0,100,0,0
21684,-96.8523002421308,4,1,0,100,0,0
21784,-97.5609756097561,4,1,0,100,0,0
21984,-99.009900990099,4,1,0,100,0,0
22184,-100.502512562814,4,1,0,100,0,0
22384,-102.040816326531,4,1,0,100,0,0
22484,-102.827763496144,4,1,0,100,0,0
22584,-103.626943005181,4,1,0,100,0,0
22784,-105.263157894737,4,1,0,100,0,0
22984,-106.951871657754,4,1,0,100,0,0
23084,-107.816711590297,4,1,0,100,0,0
23184,-108.695652173913,4,1,0,100,0,0
23284,-109.58904109589,4,1,0,100,0,0
23384,-110.497237569061,4,1,0,100,0,0
23584,-112.359550561798,4,1,0,100,0,0
23717,-113.633135422289,4,1,0,100,0,0
23850,-114.935923222803,4,1,0,100,0,0
23984,-116.279069767442,4,1,0,100,0,0
24117,-117.643598717685,4,1,0,100,0,0
24250,-119.040533301589,4,1,0,100,0,0
24384,-120.481927710843,4,1,0,100,0,0
24784,-125,4,1,0,100,0,0
25584,-125,4,1,0,100,0,0
26385,-105.263157894737,4,1,0,100,0,0
27185,-90.9090909090909,4,1,0,100,0,0
27584,-93.75,4,1,0,100,0,0
27784,-95.2380952380952,4,1,0,100,0,0
27984,-96.7741935483871,4,1,0,100,0,0
28184,-98.3606557377049,4,1,0,100,0,0
28284,-99.1735537190083,4,1,0,100,0,0
28384,-100,4,1,0,100,0,0
28584,-101.694915254237,4,1,0,100,0,0
28684,-102.564102564103,4,1,0,100,0,0
28784,-103.448275862069,4,1,0,100,0,0
28884,-104.347826086957,4,1,0,100,0,0
28984,-105.263157894737,4,1,0,100,0,0
29184,-107.142857142857,4,1,0,100,0,0
29384,-109.090909090909,4,1,0,100,0,0
29584,-111.111111111111,4,1,0,100,0,0
29885,-125,4,1,0,100,0,0
30285,-100.478468899522,4,1,0,100,0,0
30584,-101.449275362319,4,1,0,100,0,0
30684,-101.941747572816,4,1,0,100,0,0
30784,-102.439024390244,4,1,0,100,0,0
30984,-103.448275862069,4,1,0,100,0,0
31084,-103.960396039604,4,1,0,100,0,0
31484,-106.060606060606,4,1,0,100,0,0
31584,-106.598984771574,4,1,0,100,0,0
31784,-107.692307692308,4,1,0,100,0,0
31984,-108.80829015544,4,1,0,100,0,0
32184,-109.947643979058,4,1,0,100,0,0
32384,-111.111111111111,4,1,0,100,0,0
33085,-125,4,1,0,100,0,0
33485,-91.5032679738562,4,1,0,100,0,0
33784,-92.7152317880794,4,1,0,100,0,0
33884,-93.3333333333333,4,1,0,100,0,0
33984,-93.9597315436242,4,1,0,100,0,0
34184,-95.2380952380952,4,1,0,100,0,0
34284,-95.8904109589041,4,1,0,100,0,0
34384,-96.551724137931,4,1,0,100,0,0
34484,-97.2222222222222,4,1,0,100,0,0
34584,-97.9020979020979,4,1,0,100,0,0
34784,-99.290780141844,4,1,0,100,0,0
34984,-100.719424460432,4,1,0,100,0,0
35184,-102.189781021898,4,1,0,100,0,0
35284,-102.941176470588,4,1,0,100,0,0
35384,-103.703703703704,4,1,0,100,0,0
35484,-104.477611940299,4,1,0,100,0,0
35584,-105.263157894737,4,1,0,100,0,0
35784,-106.870229007634,4,1,0,100,0,0
35884,-107.692307692308,4,1,0,100,0,0
36084,-109.375,4,1,0,100,0,0
36184,-110.236220472441,4,1,0,100,0,0
36285,-111.111111111111,4,1,0,100,0,0
36685,-111.111111111111,4,1,0,100,0,0
36984,-109.375,4,1,0,100,0,0
37084,-108.527131782946,4,1,0,100,0,0
37184,-107.692307692308,4,1,0,100,0,0
37284,-106.870229007634,4,1,0,100,0,0
37384,-106.060606060606,4,1,0,100,0,0
37584,-104.477611940299,4,1,0,100,0,0
37684,-103.703703703704,4,1,0,100,0,0
37784,-102.941176470588,4,1,0,100,0,0
37884,-102.189781021898,4,1,0,100,0,0
37984,-101.449275362319,4,1,0,100,0,0
38184,-100,4,1,0,100,0,0
38285,-125,4,1,0,100,0,0
38485,-117.647058823529,4,1,0,100,0,0
38685,-133.333333333333,4,1,0,100,0,0
39535,-66.6666666666667,4,1,0,100,0,0
39935,-111.111111111111,4,1,0,100,0,0
40184,-109.48905109489,4,1,0,100,0,0
40284,-108.695652173913,4,1,0,100,0,0
40384,-107.913669064748,4,1,0,100,0,0
40584,-106.382978723404,4,1,0,100,0,0
40784,-104.895104895105,4,1,0,100,0,0
40884,-104.166666666667,4,1,0,100,0,0
40984,-103.448275862069,4,1,0,100,0,0
41084,-102.739726027397,4,1,0,100,0,0
41184,-102.040816326531,4,1,0,100,0,0
41384,-100.671140939597,4,1,0,100,0,0
41584,-99.3377483443709,4,1,0,100,0,0
41684,-98.6842105263158,4,1,0,100,0,0
41784,-98.0392156862745,4,1,0,100,0,0
41984,-96.7741935483871,4,1,0,100,0,0
42184,-95.5414012738854,4,1,0,100,0,0
42284,-94.9367088607595,4,1,0,100,0,0
42384,-94.3396226415094,4,1,0,100,0,0
42584,-93.167701863354,4,1,0,100,0,0
42684,-92.5925925925926,4,1,0,100,0,0
42784,-92.0245398773006,4,1,0,100,0,0
42884,-91.4634146341463,4,1,0,100,0,0
42984,-90.9090909090909,4,1,0,100,0,0
43085,-83.3333333333333,4,1,0,100,0,0
43784,-90.9090909090909,4,1,0,100,0,0
43884,-91.6666666666667,4,1,0,100,0,0
44084,-93.2203389830509,4,1,0,100,0,0
44184,-94.017094017094,4,1,0,100,0,0
44284,-94.8275862068965,4,1,0,100,0,0
44384,-95.6521739130435,4,1,0,100,0,0
44584,-97.3451327433628,4,1,0,100,0,0
44784,-99.0990990990991,4,1,0,100,0,0
44884,-100,4,1,0,100,0,0
44984,-100.917431192661,4,1,0,100,0,0
45084,-101.851851851852,4,1,0,100,0,0
45184,-102.803738317757,4,1,0,100,0,0
45460,-105.769230769231,4,1,0,100,0,0
45560,-106.796116504854,4,1,0,100,0,0
45660,-107.843137254902,4,1,0,100,0,0
45760,-108.910891089109,4,1,0,100,0,0
45860,-110,4,1,0,100,0,0
45911,-111.111111111111,4,1,0,100,0,0
46384,-90.9090909090909,4,1,0,100,0,0
46584,-92.1658986175115,4,1,0,100,0,0
46684,-92.8074245939675,4,1,0,100,0,0
46784,-93.4579439252336,4,1,0,100,0,0
46984,-94.7867298578199,4,1,0,100,0,0
47084,-95.4653937947494,4,1,0,100,0,0
47184,-96.1538461538461,4,1,0,100,0,0
47284,-96.8523002421308,4,1,0,100,0,0
47384,-97.5609756097561,4,1,0,100,0,0
47584,-99.009900990099,4,1,0,100,0,0
47784,-100.502512562814,4,1,0,100,0,0
47984,-102.040816326531,4,1,0,100,0,0
48084,-102.827763496144,4,1,0,100,0,0
48184,-103.626943005181,4,1,0,100,0,0
48384,-105.263157894737,4,1,0,100,0,0
48584,-106.951871657754,4,1,0,100,0,0
48684,-107.816711590297,4,1,0,100,0,0
48784,-108.695652173913,4,1,0,100,0,0
48884,-109.58904109589,4,1,0,100,0,0
48984,-110.497237569061,4,1,0,100,0,0
49184,-112.359550561798,4,1,0,100,0,0
49317,-113.633135422289,4,1,0,100,0,0
49450,-114.935923222803,4,1,0,100,0,0
49584,-116.279069767442,4,1,0,100,0,0
49717,-117.643598717685,4,1,0,100,0,0
49850,-119.040533301589,4,1,0,100,0,0
49984,-120.481927710843,4,1,0,100,0,0
50384,-125,4,1,0,100,0,0
51135,-125,4,1,0,100,0,0
51936,-117.64705882353,4,1,0,100,0,0
52735,-125,4,1,0,100,0,0
57584,-133.333333333333,4,1,0,100,0,0
57935,-123.076923076923,4,1,0,100,0,0
58335,-114.285714285714,4,1,0,100,0,0
58735,-106.666666666667,4,1,0,100,0,0
59135,-100,4,1,0,100,0,0
59384,-100.719424460432,4,1,0,100,0,0
59484,-101.083032490975,4,1,0,100,0,0
59584,-101.449275362319,4,1,0,100,0,0
59784,-102.189781021898,4,1,0,100,0,0
59984,-102.941176470588,4,1,0,100,0,0
60584,-105.263157894737,4,1,0,100,0,0
60684,-105.660377358491,4,1,0,100,0,0
60784,-106.060606060606,4,1,0,100,0,0
60884,-106.463878326996,4,1,0,100,0,0
60984,-106.870229007634,4,1,0,100,0,0
61384,-108.527131782946,4,1,0,100,0,0
61484,-108.949416342412,4,1,0,100,0,0
61584,-109.375,4,1,0,100,0,0
62184,-112,4,1,0,100,0,0
62284,-112.449799196787,4,1,0,100,0,0
62384,-112.903225806452,4,1,0,100,0,0
62584,-113.821138211382,4,1,0,100,0,0
62784,-114.754098360656,4,1,0,100,0,0
62984,-115.702479338843,4,1,0,100,0,0
63084,-116.182572614108,4,1,0,100,0,0
63184,-116.666666666667,4,1,0,100,0,0
63384,-117.647058823529,4,1,0,100,0,0
63584,-118.64406779661,4,1,0,100,0,0
63784,-119.65811965812,4,1,0,100,0,0
63984,-120.689655172414,4,1,0,100,0,0
64184,-121.739130434783,4,1,0,100,0,0
64284,-122.270742358079,4,1,0,100,0,0
64384,-122.80701754386,4,1,0,100,0,0
64484,-123.348017621145,4,1,0,100,0,0
64584,-123.893805309735,4,1,0,100,0,0
64684,-124.444444444444,4,1,0,100,0,0
64735,-125,4,1,0,100,0,0
64985,-117.647058823529,4,1,0,100,0,0
65135,-111.111111111111,4,1,0,100,0,0
65584,-111.111111111111,4,1,0,100,0,0
65784,-105.263157894737,4,1,0,100,0,0
65884,-106.382978723404,4,1,0,100,0,0
65984,-107.52688172043,4,1,0,100,0,0
66184,-111.111111111111,4,1,0,100,0,0
66384,-103.092783505155,4,1,0,100,0,0
66484,-104.166666666667,4,1,0,100,0,0
66584,-105.263157894737,4,1,0,100,0,0
66684,-106.382978723404,4,1,0,100,0,0
66784,-107.52688172043,4,1,0,100,0,0
66984,-111.111111111111,4,1,0,100,0,0
67184,-101.010101010101,4,1,0,100,0,0
67284,-102.040816326531,4,1,0,100,0,0
67484,-104.166666666667,4,1,0,100,0,0
67584,-105.263157894737,4,1,0,100,0,0
67684,-106.382978723404,4,1,0,100,0,0
67784,-107.52688172043,4,1,0,100,0,0
67984,-111.111111111111,4,1,0,100,0,0
68185,-103.092783505155,4,1,0,100,0,0
68284,-104.166666666667,4,1,0,100,0,0
68384,-105.263157894737,4,1,0,100,0,0
68484,-106.382978723404,4,1,0,100,0,0
68584,-107.52688172043,4,1,0,100,0,0
68784,-105.263157894737,4,1,0,100,0,0
68984,-100,4,1,0,100,0,0
69084,-101.010101010101,4,1,0,100,0,0
69184,-102.040816326531,4,1,0,100,0,0
69384,-100,4,1,0,100,0,0
69584,-93.4579439252336,4,1,0,100,0,0
69684,-94.3396226415094,4,1,0,100,0,0
69784,-95.2380952380952,4,1,0,100,0,0
69884,-96.1538461538461,4,1,0,100,0,0
69984,-97.0873786407767,4,1,0,100,0,0
70184,-95.2380952380952,4,1,0,100,0,0
70384,-88.495575221239,4,1,0,100,0,0
70484,-89.1530460624071,4,1,0,100,0,0
70684,-90.4977375565611,4,1,0,100,0,0
70784,-91.1854103343465,4,1,0,100,0,0
70884,-91.8836140888208,4,1,0,100,0,0
70984,-92.5925925925926,4,1,0,100,0,0
71184,-111.111111111111,4,1,0,100,0,0
71235,-111.111111111111,4,1,0,100,0,0
71985,-90.9090909090909,4,1,0,100,0,1
72184,-92.1501706484642,4,1,0,100,0,1
72284,-92.7835051546392,4,1,0,100,0,1
72384,-93.4256055363322,4,1,0,100,0,1
72584,-94.7368421052632,4,1,0,100,0,1
72684,-95.4063604240283,4,1,0,100,0,1
72784,-96.7741935483871,4,1,0,100,0,1
72984,-97.4729241877256,4,1,0,100,0,1
73084,-98.1818181818182,4,1,0,100,0,1
73184,-98.9010989010989,4,1,0,100,0,1
73384,-100.371747211896,4,1,0,100,0,1
73484,-101.123595505618,4,1,0,100,0,1
73584,-101.88679245283,4,1,0,100,0,1
73684,-102.661596958175,4,1,0,100,0,1
73784,-103.448275862069,4,1,0,100,0,1
73984,-105.058365758755,4,1,0,100,0,1
74184,-106.719367588933,4,1,0,100,0,1
74284,-107.569721115538,4,1,0,100,0,1
74384,-108.433734939759,4,1,0,100,0,1
74584,-110.204081632653,4,1,0,100,0,1
74684,-111.111111111111,4,1,0,100,0,1
74984,-105.263157894737,4,1,0,100,0,1
75084,-104.627766599598,4,1,0,100,0,1
75184,-104,4,1,0,100,0,1
75384,-102.766798418972,4,1,0,100,0,1
75584,-101.5625,4,1,0,100,0,1
75784,-100.3861003861,4,1,0,100,0,1
75884,-99.8080614203455,4,1,0,100,0,1
75984,-99.236641221374,4,1,0,100,0,1
76184,-98.1132075471698,4,1,0,100,0,1
76384,-97.0149253731343,4,1,0,100,0,1
76584,-95.9409594095941,4,1,0,100,0,1
76784,-94.8905109489051,4,1,0,100,0,1
76984,-93.8628158844765,4,1,0,100,0,1
77084,-93.3572710951526,4,1,0,100,0,1
77184,-92.8571428571428,4,1,0,100,0,1
77284,-92.3623445825932,4,1,0,100,0,1
77384,-91.8727915194346,4,1,0,100,0,1
77484,-91.3884007029877,4,1,0,100,0,1
77584,-90.9090909090909,4,1,0,100,0,1
78385,-125,4,1,0,100,0,0
79885,-125,4,1,0,100,0,0
81085,-111.111111111111,4,1,0,100,0,0
81285,-105.263157894737,4,1,0,100,0,0
81535,-90.9090909090909,4,1,0,100,0,0
81884,-92.7152317880794,4,1,0,100,0,0
81984,-93.3333333333333,4,1,0,100,0,0
82184,-94.5945945945946,4,1,0,100,0,0
82484,-96.551724137931,4,1,0,100,0,0
82584,-97.2222222222222,4,1,0,100,0,0
82684,-97.9020979020979,4,1,0,100,0,0
82784,-98.5915492957747,4,1,0,100,0,0
82984,-100,4,1,0,100,0,0
83184,-101.449275362319,4,1,0,100,0,0
83484,-103.703703703704,4,1,0,100,0,0
83584,-104.477611940299,4,1,0,100,0,0
83784,-106.060606060606,4,1,0,100,0,0
83984,-107.692307692308,4,1,0,100,0,0
84184,-109.375,4,1,0,100,0,0
84285,-111.111111111111,4,1,0,100,0,0
84685,-83.3333333333333,4,1,0,100,0,0
85835,-90.9090909090908,4,1,0,100,0,0
86085,-117.647058823529,4,1,0,100,0,0
86285,-125,4,1,0,100,0,0
87485,-125,4,1,0,100,0,0
87885,-90.9090909090909,4,1,0,100,0,0
88184,-92.3076923076923,4,1,0,100,0,0
88284,-93.0232558139535,4,1,0,100,0,0
88384,-93.75,4,1,0,100,0,0
88584,-95.2380952380952,4,1,0,100,0,0
88684,-96,4,1,0,100,0,0
88784,-96.7741935483871,4,1,0,100,0,0
88884,-97.5609756097561,4,1,0,100,0,0
88984,-98.3606557377049,4,1,0,100,0,0
89184,-100,4,1,0,100,0,0
89384,-101.694915254237,4,1,0,100,0,0
89584,-103.448275862069,4,1,0,100,0,0
89684,-104.347826086957,4,1,0,100,0,0
89784,-105.263157894737,4,1,0,100,0,0
89884,-106.194690265487,4,1,0,100,0,0
89984,-107.142857142857,4,1,0,100,0,0
90184,-109.090909090909,4,1,0,100,0,0
90284,-110.091743119266,4,1,0,100,0,0
90685,-125,4,1,0,100,0,0
91085,-90.9090909090909,4,1,0,100,0,0
91384,-92.1052631578947,4,1,0,100,0,0
91484,-92.7152317880794,4,1,0,100,0,0
91584,-93.3333333333333,4,1,0,100,0,0
91784,-94.5945945945946,4,1,0,100,0,0
91884,-95.2380952380952,4,1,0,100,0,0
92084,-96.551724137931,4,1,0,100,0,0
92184,-97.2222222222222,4,1,0,100,0,0
92284,-97.9020979020979,4,1,0,100,0,0
92384,-98.5915492957747,4,1,0,100,0,0
92584,-100,4,1,0,100,0,0
92685,-125,4,1,0,100,0,0
92885,-117.647058823529,4,1,0,100,0,0
93085,-133.333333333333,4,1,0,100,0,0
93935,-66.6666666666667,4,1,0,100,0,0
94335,-100,4,1,0,100,0,0
94584,-101.694915254237,4,1,0,100,0,0
94784,-103.448275862069,4,1,0,100,0,0
94984,-105.263157894737,4,1,0,100,0,0
95184,-107.142857142857,4,1,0,100,0,0
95384,-109.090909090909,4,1,0,100,0,0
95484,-110.091743119266,4,1,0,100,0,0
95584,-111.111111111111,4,1,0,100,0,0
95784,-111.111111111111,4,1,0,100,0,0
95984,-108.108108108108,4,1,0,100,0,0
96084,-106.666666666667,4,1,0,100,0,0
96184,-105.263157894737,4,1,0,100,0,0
96384,-102.564102564103,4,1,0,100,0,0
96584,-100,4,1,0,100,0,0
96684,-98.7654320987654,4,1,0,100,0,0
96784,-97.5609756097561,4,1,0,100,0,0
96984,-95.2380952380952,4,1,0,100,0,0
97084,-94.1176470588235,4,1,0,100,0,0
97184,-93.0232558139535,4,1,0,100,0,0
97284,-91.9540229885057,4,1,0,100,0,0
97384,-90.9090909090909,4,1,0,100,0,0
97485,-83.3333333333333,4,1,0,100,0,0
98184,-90.9090909090909,4,1,0,100,0,0
98284,-91.6666666666667,4,1,0,100,0,0
98484,-93.2203389830509,4,1,0,100,0,0
98584,-94.017094017094,4,1,0,100,0,0
98684,-94.8275862068965,4,1,0,100,0,0
98784,-95.6521739130435,4,1,0,100,0,0
98984,-97.3451327433628,4,1,0,100,0,0
99184,-99.0990990990991,4,1,0,100,0,0
99284,-100,4,1,0,100,0,0
99384,-100.917431192661,4,1,0,100,0,0
99484,-101.851851851852,4,1,0,100,0,0
99584,-102.803738317757,4,1,0,100,0,0
99884,-105.769230769231,4,1,0,100,0,0
99984,-106.796116504854,4,1,0,100,0,0
100084,-107.843137254902,4,1,0,100,0,0
100184,-108.910891089109,4,1,0,100,0,0
100284,-110,4,1,0,100,0,0
100335,-111.111111111111,4,1,0,100,0,0
100735,-90.9090909090909,4,1,0,100,0,0
100984,-92.1658986175115,4,1,0,100,0,0
101084,-92.8074245939675,4,1,0,100,0,0
101184,-93.4579439252336,4,1,0,100,0,0
101384,-94.7867298578199,4,1,0,100,0,0
101484,-95.4653937947494,4,1,0,100,0,0
101584,-96.1538461538461,4,1,0,100,0,0
101684,-96.8523002421308,4,1,0,100,0,0
101784,-97.5609756097561,4,1,0,100,0,0
101984,-99.009900990099,4,1,0,100,0,0
102135,-100.502512562814,4,1,0,100,0,0
102335,-102.040816326531,4,1,0,100,0,0
102484,-102.827763496144,4,1,0,100,0,0
102584,-103.626943005181,4,1,0,100,0,0
102735,-105.263157894737,4,1,0,100,0,0
102984,-106.951871657754,4,1,0,100,0,0
103084,-107.816711590297,4,1,0,100,0,0
103184,-108.695652173913,4,1,0,100,0,0
103284,-109.58904109589,4,1,0,100,0,0
103384,-110.497237569061,4,1,0,100,0,0
103535,-112.359550561798,4,1,0,100,0,0
103717,-113.633135422289,4,1,0,100,0,0
103850,-114.935923222803,4,1,0,100,0,0
103935,-116.279069767442,4,1,0,100,0,0
104117,-117.643598717685,4,1,0,100,0,0
104250,-119.040533301589,4,1,0,100,0,0
104384,-120.481927710843,4,1,0,100,0,0
104735,-125,4,1,0,100,0,0
105535,-125,4,1,0,100,0,0
106336,-105.263157894737,4,1,0,100,0,0
107160,-90.9090909090909,4,1,0,100,0,0
107559,-93.75,4,1,0,100,0,0
107759,-95.2380952380952,4,1,0,100,0,0
107959,-96.7741935483871,4,1,0,100,0,0
108159,-98.3606557377049,4,1,0,100,0,0
108259,-99.1735537190083,4,1,0,100,0,0
108359,-100,4,1,0,100,0,0
108559,-101.694915254237,4,1,0,100,0,0
108659,-102.564102564103,4,1,0,100,0,0
108759,-103.448275862069,4,1,0,100,0,0
108859,-104.347826086957,4,1,0,100,0,0
108959,-105.263157894737,4,1,0,100,0,0
109159,-107.142857142857,4,1,0,100,0,0
109359,-109.090909090909,4,1,0,100,0,0
109559,-111.111111111111,4,1,0,100,0,0
109860,-125,4,1,0,100,0,0
110260,-100.478468899522,4,1,0,100,0,0
110559,-101.449275362319,4,1,0,100,0,0
110659,-101.941747572816,4,1,0,100,0,0
110759,-102.439024390244,4,1,0,100,0,0
110959,-103.448275862069,4,1,0,100,0,0
111059,-103.960396039604,4,1,0,100,0,0
111459,-106.060606060606,4,1,0,100,0,0
111559,-106.598984771574,4,1,0,100,0,0
111759,-107.692307692308,4,1,0,100,0,0
111959,-108.80829015544,4,1,0,100,0,0
112159,-109.947643979058,4,1,0,100,0,0
112359,-111.111111111111,4,1,0,100,0,0
113060,-125,4,1,0,100,0,0
113460,-90.9090909090909,4,1,0,100,0,0
113759,-92.1052631578947,4,1,0,100,0,0
113859,-92.7152317880794,4,1,0,100,0,0
113959,-93.3333333333333,4,1,0,100,0,0
114159,-94.5945945945946,4,1,0,100,0,0
114259,-95.2380952380952,4,1,0,100,0,0
114359,-95.8904109589041,4,1,0,100,0,0
114459,-96.551724137931,4,1,0,100,0,0
114559,-97.2222222222222,4,1,0,100,0,0
114759,-98.5915492957747,4,1,0,100,0,0
114959,-100,4,1,0,100,0,0
115159,-101.449275362319,4,1,0,100,0,0
115259,-102.189781021898,4,1,0,100,0,0
115359,-102.941176470588,4,1,0,100,0,0
115459,-103.703703703704,4,1,0,100,0,0
115559,-104.477611940299,4,1,0,100,0,0
115759,-106.060606060606,4,1,0,100,0,0
115859,-106.870229007634,4,1,0,100,0,0
116059,-108.527131782946,4,1,0,100,0,0
116159,-109.375,4,1,0,100,0,0
116260,-110.236220472441,4,1,0,100,0,0
116384,-111.111111111111,4,1,0,100,0,0
116660,-111.111111111111,4,1,0,100,0,0
116959,-109.375,4,1,0,100,0,0
117059,-108.527131782946,4,1,0,100,0,0
117159,-107.692307692308,4,1,0,100,0,0
117259,-106.870229007634,4,1,0,100,0,0
117359,-106.060606060606,4,1,0,100,0,0
117559,-104.477611940299,4,1,0,100,0,0
117659,-103.703703703704,4,1,0,100,0,0
117759,-102.941176470588,4,1,0,100,0,0
117859,-102.189781021898,4,1,0,100,0,0
117959,-101.449275362319,4,1,0,100,0,0
118159,-100,4,1,0,100,0,0
118260,-125,4,1,0,100,0,0
118485,-117.647058823529,4,1,0,100,0,0
118660,-133.333333333333,4,1,0,100,0,0
119510,-66.6666666666667,4,1,0,100,0,0
119910,-111.111111111111,4,1,0,100,0,0
120159,-109.48905109489,4,1,0,100,0,0
120259,-108.695652173913,4,1,0,100,0,0
120359,-107.913669064748,4,1,0,100,0,0
120559,-106.382978723404,4,1,0,100,0,0
120759,-104.895104895105,4,1,0,100,0,0
120859,-104.166666666667,4,1,0,100,0,0
120959,-103.448275862069,4,1,0,100,0,0
121059,-102.739726027397,4,1,0,100,0,0
121159,-102.040816326531,4,1,0,100,0,0
121359,-100.671140939597,4,1,0,100,0,0
121559,-99.3377483443709,4,1,0,100,0,0
121659,-98.6842105263158,4,1,0,100,0,0
121759,-98.0392156862745,4,1,0,100,0,0
121959,-96.7741935483871,4,1,0,100,0,0
122159,-95.5414012738854,4,1,0,100,0,0
122259,-94.9367088607595,4,1,0,100,0,0
122359,-94.3396226415094,4,1,0,100,0,0
122559,-93.167701863354,4,1,0,100,0,0
122659,-92.5925925925926,4,1,0,100,0,0
122759,-92.0245398773006,4,1,0,100,0,0
122859,-91.4634146341463,4,1,0,100,0,0
122959,-90.9090909090909,4,1,0,100,0,0
123060,-83.3333333333333,4,1,0,100,0,0
123759,-90.9090909090909,4,1,0,100,0,0
123859,-91.6666666666667,4,1,0,100,0,0
124059,-93.2203389830509,4,1,0,100,0,0
124159,-94.017094017094,4,1,0,100,0,0
124259,-94.8275862068965,4,1,0,100,0,0
124359,-95.6521739130435,4,1,0,100,0,0
124559,-97.3451327433628,4,1,0,100,0,0
124759,-99.0990990990991,4,1,0,100,0,0
124859,-100,4,1,0,100,0,0
124959,-100.917431192661,4,1,0,100,0,0
125059,-101.851851851852,4,1,0,100,0,0
125159,-102.803738317757,4,1,0,100,0,0
125459,-105.769230769231,4,1,0,100,0,0
125559,-106.796116504854,4,1,0,100,0,0
125659,-107.843137254902,4,1,0,100,0,0
125759,-108.910891089109,4,1,0,100,0,0
125859,-110,4,1,0,100,0,0
125959,-111.111111111111,4,1,0,100,0,0
126359,-90.9090909090909,4,1,0,100,0,0
126559,-92.1658986175115,4,1,0,100,0,0
126659,-92.8074245939675,4,1,0,100,0,0
126759,-93.4579439252336,4,1,0,100,0,0
126959,-94.7867298578199,4,1,0,100,0,0
127059,-95.4653937947494,4,1,0,100,0,0
127159,-96.1538461538461,4,1,0,100,0,0
127259,-96.8523002421308,4,1,0,100,0,0
127359,-97.5609756097561,4,1,0,100,0,0
127559,-99.009900990099,4,1,0,100,0,0
127759,-100.502512562814,4,1,0,100,0,0
127959,-102.040816326531,4,1,0,100,0,0
128059,-102.827763496144,4,1,0,100,0,0
128159,-103.626943005181,4,1,0,100,0,0
128359,-105.263157894737,4,1,0,100,0,0
128559,-106.951871657754,4,1,0,100,0,0
128659,-107.816711590297,4,1,0,100,0,0
128759,-108.695652173913,4,1,0,100,0,0
128859,-109.58904109589,4,1,0,100,0,0
128959,-110.497237569061,4,1,0,100,0,0
129159,-112.359550561798,4,1,0,100,0,0
129292,-113.633135422289,4,1,0,100,0,0
129425,-114.935923222803,4,1,0,100,0,0
129559,-116.279069767442,4,1,0,100,0,0
129692,-117.643598717685,4,1,0,100,0,0
129825,-119.040533301589,4,1,0,100,0,0
129959,-120.481927710843,4,1,0,100,0,0
130359,-125,4,1,0,100,0,0
131110,-125,4,1,0,100,0,0
131911,-117.64705882353,4,1,0,100,0,0
132710,-125,4,1,0,100,0,0

[HitObjects]
211,156,1585,5,0,0:0:0:0:
147,105,1785,1,0,0:0:0:0:
147,105,1885,1,2,0:0:0:0:
160,107,1985,1,2,0:0:0:0:
208,197,2185,1,0,0:0:0:0:
208,197,2385,1,0,0:0:0:0:
208,197,2485,1,2,0:0:0:0:
208,197,2585,1,0,0:0:0:0:
212,47,2685,1,0,0:0:0:0:
182,87,2785,1,2,0:0:0:0:
182,87,2985,1,0,0:0:0:0:
182,87,3185,1,0,0:0:0:0:
181,97,3285,1,2,0:0:0:0:
181,99,3385,1,2,0:0:0:0:
194,77,3585,1,0,0:0:0:0:
193,77,3785,1,2,0:0:0:0:
193,77,3885,1,0,0:0:0:0:
203,76,4385,1,2,0:0:0:0:
234,76,4785,1,2,0:0:0:0:
188,117,4985,1,0,0:0:0:0:
186,127,5085,1,2,0:0:0:0:
186,127,5185,1,2,0:0:0:0:
186,130,5385,1,0,0:0:0:0:
183,131,5585,1,0,0:0:0:0:
236,48,5685,1,2,0:0:0:0:
236,48,5785,1,0,0:0:0:0:
236,48,5885,1,0,0:0:0:0:
236,48,5985,1,2,0:0:0:0:
236,48,6185,1,0,0:0:0:0:
236,48,6385,1,0,0:0:0:0:
236,48,6485,1,2,0:0:0:0:
236,48,6585,1,2,0:0:0:0:
228,39,6685,1,2,0:0:0:0:
228,39,6785,1,0,0:0:0:0:
208,84,6985,1,0,0:0:0:0:
245,70,7085,1,2,0:0:0:0:
226,67,7185,1,0,0:0:0:0:
64,64,7385,1,0,0:0:0:0:
218,55,7585,1,2,0:0:0:0:
216,60,7985,1,0,0:0:0:0:
216,60,8185,1,0,0:0:0:0:
216,60,8285,1,2,0:0:0:0:
216,60,8385,1,2,0:0:0:0:
226,75,8585,1,2,0:0:0:0:
226,75,8785,1,2,0:0:0:0:
226,75,8985,1,0,0:0:0:0:
226,75,9185,1,2,0:0:0:0:
181,57,9385,1,0,0:0:0:0:
176,47,9585,1,0,0:0:0:0:
176,48,9685,1,2,0:0:0:0:
176,48,9785,1,0,0:0:0:0:
176,48,9985,1,2,0:0:0:0:
176,48,10185,1,0,0:0:0:0:
176,48,10285,1,2,0:0:0:0:
231,32,10785,1,2,0:0:0:0:
365,246,10985,1,2,0:0:0:0:
365,246,11185,1,0,0:0:0:0:
178,120,11385,1,0,0:0:0:0:
185,122,11485,1,0,0:0:0:0:
186,124,11585,1,2,0:0:0:0:
194,77,11785,1,0,0:0:0:0:
170,23,11885,1,2,0:0:0:0:
194,77,12085,1,2,0:0:0:0:
174,51,12185,1,0,0:0:0:0:
174,51,12285,1,0,0:0:0:0:
174,51,12385,1,2,0:0:0:0:
202,67,12585,1,0,0:0:0:0:
205,69,12985,1,2,0:0:0:0:
194,107,13185,2,0,L|359:99,1,157.500006008148
205,69,13985,5,2,0:0:0:0:
201,172,14385,1,0,0:0:0:0:
201,172,14585,1,0,0:0:0:0:
201,172,14685,1,2,0:0:0:0:
201,172,14785,1,2,0:0:0:0:
201,172,14985,1,0,0:0:0:0:
201,172,15185,1,0,0:0:0:0:
201,172,15285,1,2,0:0:0:0:
201,172,15385,1,0,0:0:0:0:
204,40,15485,1,0,0:0:0:0:
201,172,15585,1,2,0:0:0:0:
201,172,15785,1,0,0:0:0:0:
201,172,15985,1,2,0:0:0:0:
201,172,16085,1,2,0:0:0:0:
201,172,16185,1,0,0:0:0:0:
201,172,16385,1,0,0:0:0:0:
201,172,16585,1,2,0:0:0:0:
201,172,16785,1,2,0:0:0:0:
182,84,16985,1,0,0:0:0:0:
182,84,17085,1,2,0:0:0:0:
182,84,17185,1,0,0:0:0:0:
181,88,17285,1,2,0:0:0:0:
182,87,17385,1,0,0:0:0:0:
189,85,17585,1,2,0:0:0:0:
189,85,17685,1,2,0:0:0:0:
189,85,17785,1,2,0:0:0:0:
189,85,17885,1,2,0:0:0:0:
189,85,17985,1,2,0:0:0:0:
191,86,18185,1,0,0:0:0:0:
212,125,18285,1,0,0:0:0:0:
212,125,18485,1,2,0:0:0:0:
212,125,18585,1,0,0:0:0:0:
212,125,18685,1,0,0:0:0:0:
212,125,18785,1,2,0:0:0:0:
195,92,18985,1,0,0:0:0:0:
195,92,19185,1,0,0:0:0:0:
195,92,19285,1,2,0:0:0:0:
195,92,19385,1,2,0:0:0:0:
210,66,19485,1,2,0:0:0:0:
210,66,19585,1,0,0:0:0:0:
198,75,19885,1,0,0:0:0:0:
195,77,19985,1,2,0:0:0:0:
199,26,20085,1,0,0:0:0:0:
206,45,20185,1,2,0:0:0:0:
231,50,20285,1,2,0:0:0:0:
206,45,20385,1,2,0:0:0:0:
222,60,20785,1,0,0:0:0:0:
217,77,20985,1,0,0:0:0:0:
217,77,21085,1,2,0:0:0:0:
217,77,21185,1,2,0:0:0:0:
225,122,21385,1,0,0:0:0:0:
225,122,21485,1,0,0:0:0:0:
225,122,21585,1,0,0:0:0:0:
222,124,21685,1,0,0:0:0:0:
225,122,21785,1,0,0:0:0:0:
225,122,21985,1,2,0:0:0:0:
235,131,22185,1,0,0:0:0:0:
235,131,22385,1,0,0:0:0:0:
235,131,22485,1,2,0:0:0:0:
235,131,22585,1,0,0:0:0:0:
235,131,22785,1,2,0:0:0:0:
235,131,22985,1,0,0:0:0:0:
204,36,23085,1,0,0:0:0:0:
204,36,23185,1,0,0:0:0:0:
261,102,23285,1,0,0:0:0:0:
204,36,23385,1,0,0:0:0:0:
204,36,23585,1,2,0:0:0:0:
288,79,23718,1,2,0:0:0:0:
288,79,23851,1,2,0:0:0:0:
288,79,23985,1,2,0:0:0:0:
220,39,24118,1,2,0:0:0:0:
214,42,24251,1,2,0:0:0:0:
222,103,24385,1,2,0:0:0:0:
222,103,24785,1,0,0:0:0:0:
208,138,26385,1,0,0:0:0:0:
167,188,27185,1,2,0:0:0:0:
160,199,27585,1,0,0:0:0:0:
158,197,27785,1,2,0:0:0:0:
196,52,27985,1,2,0:0:0:0:
158,198,28185,1,0,0:0:0:0:
197,87,28285,1,0,0:0:0:0:
160,199,28385,1,2,0:0:0:0:
160,199,28585,1,0,0:0:0:0:
197,87,28685,1,0,0:0:0:0:
197,87,28885,1,2,0:0:0:0:
158,198,28985,1,2,0:0:0:0:
159,194,29185,1,0,0:0:0:0:
229,152,29385,1,2,0:0:0:0:
189,50,29585,1,0,0:0:0:0:
177,97,29985,1,2,0:0:0:0:
177,97,30385,1,0,0:0:0:0:
180,88,30585,1,0,0:0:0:0:
181,88,30685,1,2,0:0:0:0:
181,88,30785,1,2,0:0:0:0:
181,88,30985,1,0,0:0:0:0:
180,89,31085,1,0,0:0:0:0:
180,88,31485,1,2,0:0:0:0:
180,88,31585,1,2,0:0:0:0:
193,99,31785,1,0,0:0:0:0:
193,99,31985,1,0,0:0:0:0:
193,99,32185,1,2,0:0:0:0:
196,101,32385,1,0,0:0:0:0:
232,88,33185,1,2,0:0:0:0:
200,114,33585,1,2,0:0:0:0:
200,114,33785,1,0,0:0:0:0:
198,117,33885,1,2,0:0:0:0:
200,114,33985,1,2,0:0:0:0:
183,77,34185,1,2,0:0:0:0:
194,61,34285,1,0,0:0:0:0:
183,77,34385,1,0,0:0:0:0:
183,77,34485,1,2,0:0:0:0:
183,77,34585,1,2,0:0:0:0:
194,61,34785,1,0,0:0:0:0:
194,61,34985,1,2,0:0:0:0:
187,64,35185,1,2,0:0:0:0:
187,64,35285,1,2,0:0:0:0:
187,64,35385,1,2,0:0:0:0:
187,67,35485,1,2,0:0:0:0:
186,69,35585,1,0,0:0:0:0:
182,60,35785,1,2,0:0:0:0:
182,60,35885,1,2,0:0:0:0:
174,27,36085,1,0,0:0:0:0:
174,27,36185,1,0,0:0:0:0:
174,27,36385,1,2,0:0:0:0:
229,61,36785,1,0,0:0:0:0:
208,83,36985,1,0,0:0:0:0:
208,83,37085,1,0,0:0:0:0:
208,83,37185,1,2,0:0:0:0:
192,45,37285,1,0,0:0:0:0:
192,45,37385,1,0,0:0:0:0:
191,50,37585,1,2,0:0:0:0:
191,51,37685,1,2,0:0:0:0:
191,50,37785,1,0,0:0:0:0:
190,59,37885,1,2,0:0:0:0:
190,59,37985,1,2,0:0:0:0:
167,83,38185,1,0,0:0:0:0:
171,88,38585,1,2,0:0:0:0:
256,192,38785,12,0,39185,0:0:0:0:
228,118,39585,5,2,0:0:0:0:
201,172,39985,1,0,0:0:0:0:
201,172,40185,1,0,0:0:0:0:
201,172,40285,1,2,0:0:0:0:
201,172,40385,1,2,0:0:0:0:
201,172,40585,1,0,0:0:0:0:
201,172,40785,1,0,0:0:0:0:
201,172,40885,1,2,0:0:0:0:
201,172,40985,1,0,0:0:0:0:
204,40,41085,1,0,0:0:0:0:
201,172,41185,1,2,0:0:0:0:
201,172,41385,1,0,0:0:0:0:
201,172,41585,1,2,0:0:0:0:
201,172,41685,1,2,0:0:0:0:
201,172,41785,1,0,0:0:0:0:
201,172,41985,1,0,0:0:0:0:
201,172,42185,1,2,0:0:0:0:
163,112,42285,1,0,0:0:0:0:
201,172,42385,1,2,0:0:0:0:
182,84,42585,1,0,0:0:0:0:
182,84,42685,1,2,0:0:0:0:
182,84,42785,1,0,0:0:0:0:
181,88,42885,1,2,0:0:0:0:
182,87,42985,1,0,0:0:0:0:
189,85,43185,1,2,0:0:0:0:
189,85,43285,1,2,0:0:0:0:
189,85,43385,1,2,0:0:0:0:
189,85,43485,1,2,0:0:0:0:
189,85,43585,1,2,0:0:0:0:
191,86,43785,1,0,0:0:0:0:
212,125,43885,1,0,0:0:0:0:
212,125,44085,1,2,0:0:0:0:
212,125,44185,1,0,0:0:0:0:
212,125,44285,1,0,0:0:0:0:
212,125,44385,1,2,0:0:0:0:
195,92,44585,1,0,0:0:0:0:
195,92,44785,1,0,0:0:0:0:
195,92,44885,1,2,0:0:0:0:
195,92,44985,1,2,0:0:0:0:
210,66,45085,1,2,0:0:0:0:
210,66,45185,1,0,0:0:0:0:
198,75,45485,1,0,0:0:0:0:
195,77,45585,1,2,0:0:0:0:
199,26,45685,1,0,0:0:0:0:
206,45,45785,1,2,0:0:0:0:
231,50,45885,1,2,0:0:0:0:
206,45,45985,1,2,0:0:0:0:
222,60,46385,1,0,0:0:0:0:
217,77,46585,1,0,0:0:0:0:
217,77,46685,1,2,0:0:0:0:
217,77,46785,1,2,0:0:0:0:
225,122,46985,1,0,0:0:0:0:
225,122,47085,1,0,0:0:0:0:
225,122,47185,1,0,0:0:0:0:
222,124,47285,1,0,0:0:0:0:
225,122,47385,1,0,0:0:0:0:
225,122,47585,1,2,0:0:0:0:
235,131,47785,1,0,0:0:0:0:
235,131,47985,1,0,0:0:0:0:
235,131,48085,1,2,0:0:0:0:
235,131,48185,1,0,0:0:0:0:
235,131,48385,1,2,0:0:0:0:
235,131,48585,1,0,0:0:0:0:
204,36,48685,1,0,0:0:0:0:
204,36,48785,1,0,0:0:0:0:
261,102,48885,1,0,0:0:0:0:
204,36,48985,1,0,0:0:0:0:
204,36,49185,1,2,0:0:0:0:
288,79,49318,1,2,0:0:0:0:
288,79,49451,1,2,0:0:0:0:
288,79,49585,1,2,0:0:0:0:
220,39,49718,1,2,0:0:0:0:
214,42,49851,1,2,0:0:0:0:
222,103,49985,1,2,0:0:0:0:
222,103,50385,1,0,0:0:0:0:
212,164,52785,1,0,0:0:0:0:
216,148,57585,5,2,0:0:0:0:
216,148,57985,1,2,0:0:0:0:
216,148,58385,1,2,0:0:0:0:
216,148,58785,1,2,0:0:0:0:
216,148,59185,1,0,0:0:0:0:
216,148,59385,1,2,0:0:0:0:
216,148,59485,1,2,0:0:0:0:
216,148,59585,1,2,0:0:0:0:
216,148,59785,1,0,0:0:0:0:
216,148,59985,1,0,0:0:0:0:
229,141,60585,1,0,0:0:0:0:
229,141,60685,1,0,0:0:0:0:
229,141,60785,1,0,0:0:0:0:
229,141,60885,1,0,0:0:0:0:
229,141,60985,1,2,0:0:0:0:
228,96,61385,1,2,0:0:0:0:
228,96,61485,1,2,0:0:0:0:
228,96,61585,1,2,0:0:0:0:
210,126,62185,1,0,0:0:0:0:
210,126,62285,1,0,0:0:0:0:
210,126,62385,1,0,0:0:0:0:
199,138,62585,1,2,0:0:0:0:
199,138,62785,1,2,0:0:0:0:
199,138,62985,1,0,0:0:0:0:
199,138,63085,1,0,0:0:0:0:
199,138,63185,1,0,0:0:0:0:
202,102,63385,1,2,0:0:0:0:
202,102,63585,1,2,0:0:0:0:
202,105,63785,1,0,0:0:0:0:
191,122,64185,1,2,0:0:0:0:
191,122,64285,1,0,0:0:0:0:
191,122,64385,1,2,0:0:0:0:
173,121,64485,1,0,0:0:0:0:
191,122,64585,1,2,0:0:0:0:
176,132,64685,1,0,0:0:0:0:
161,135,64785,1,0,0:0:0:0:
194,86,64985,1,0,0:0:0:0:
194,86,65185,1,2,0:0:0:0:
194,86,65585,1,0,0:0:0:0:
197,98,65785,1,2,0:0:0:0:
192,57,65885,1,2,0:0:0:0:
196,99,65985,1,2,0:0:0:0:
196,100,66185,1,0,0:0:0:0:
196,100,66385,1,2,0:0:0:0:
196,99,66485,1,2,0:0:0:0:
196,99,66585,1,2,0:0:0:0:
236,52,66685,1,2,0:0:0:0:
197,98,66785,1,2,0:0:0:0:
196,99,66985,1,0,0:0:0:0:
196,100,67185,1,2,0:0:0:0:
196,100,67285,1,2,0:0:0:0:
192,57,67485,1,2,0:0:0:0:
244,127,67585,1,2,0:0:0:0:
192,57,67685,1,2,0:0:0:0:
244,127,67785,1,2,0:0:0:0:
246,132,67985,1,0,0:0:0:0:
250,127,68185,1,2,0:0:0:0:
165,102,68285,1,2,0:0:0:0:
243,67,68385,1,2,0:0:0:0:
180,66,68485,1,2,0:0:0:0:
255,132,68585,1,2,0:0:0:0:
255,132,68785,1,0,0:0:0:0:
201,112,68985,1,2,0:0:0:0:
201,112,69085,1,2,0:0:0:0:
201,112,69185,1,2,0:0:0:0:
201,112,69385,1,0,0:0:0:0:
201,112,69585,1,2,0:0:0:0:
201,112,69685,1,2,0:0:0:0:
201,112,69785,1,2,0:0:0:0:
194,109,69885,1,2,0:0:0:0:
201,112,69985,1,2,0:0:0:0:
201,112,70185,1,0,0:0:0:0:
201,112,70385,1,2,0:0:0:0:
201,112,70485,1,2,0:0:0:0:
172,66,70685,1,2,0:0:0:0:
203,116,70785,1,2,0:0:0:0:
172,66,70885,1,2,0:0:0:0:
205,117,70985,1,2,0:0:0:0:
205,117,71185,1,0,0:0:0:0:
213,254,71985,1,0,0:0:0:0:
213,254,72185,1,2,0:0:0:0:
213,254,72285,1,0,0:0:0:0:
211,238,72385,1,2,0:0:0:0:
201,126,72585,1,0,0:0:0:0:
212,127,72685,1,2,0:0:0:0:
206,48,72885,1,2,0:0:0:0:
211,127,72985,1,0,0:0:0:0:
212,52,73085,1,0,0:0:0:0:
211,127,73185,1,2,0:0:0:0:
191,67,73385,1,0,0:0:0:0:
191,67,73485,1,2,0:0:0:0:
191,67,73585,1,0,0:0:0:0:
191,67,73685,1,0,0:0:0:0:
191,67,73785,1,2,0:0:0:0:
232,76,73985,1,2,0:0:0:0:
232,76,74185,1,0,0:0:0:0:
228,82,74285,1,2,0:0:0:0:
228,82,74385,1,0,0:0:0:0:
181,46,74585,1,2,0:0:0:0:
181,46,74685,1,0,0:0:0:0:
181,52,74985,1,0,0:0:0:0:
181,55,75085,1,0,0:0:0:0:
181,58,75185,1,2,0:0:0:0:
214,70,75385,1,2,0:0:0:0:
211,72,75585,1,0,0:0:0:0:
211,73,75785,1,2,0:0:0:0:
211,73,75885,1,2,0:0:0:0:
211,73,75985,1,0,0:0:0:0:
219,65,76185,1,0,0:0:0:0:
218,67,76385,1,2,0:0:0:0:
182,82,76585,1,0,0:0:0:0:
183,102,76985,1,2,0:0:0:0:
183,102,77085,1,2,0:0:0:0:
183,107,77185,1,0,0:0:0:0:
183,110,77285,1,2,0:0:0:0:
172,59,77385,1,0,0:0:0:0:
172,59,77485,1,2,0:0:0:0:
183,110,77585,1,2,0:0:0:0:
215,122,78385,1,6,0:0:0:0:
210,236,81185,1,2,0:0:0:0:
208,239,81385,1,2,0:0:0:0:
211,156,81585,5,0,0:0:0:0:
147,105,81885,1,2,0:0:0:0:
160,107,81985,1,2,0:0:0:0:
208,197,82185,1,0,0:0:0:0:
208,197,82485,1,2,0:0:0:0:
208,197,82585,1,0,0:0:0:0:
212,47,82685,1,0,0:0:0:0:
182,87,82785,1,2,0:0:0:0:
182,87,82985,1,0,0:0:0:0:
178,121,83185,1,2,0:0:0:0:
178,121,83485,1,2,0:0:0:0:
178,121,83585,1,0,0:0:0:0:
178,121,83785,1,2,0:0:0:0:
178,121,83985,1,0,0:0:0:0:
221,112,84185,1,2,0:0:0:0:
203,76,84385,1,2,0:0:0:0:
234,76,84785,1,2,0:0:0:0:
198,143,84885,1,0,0:0:0:0:
188,117,84985,1,0,0:0:0:0:
186,127,85085,1,2,0:0:0:0:
186,127,85285,1,0,0:0:0:0:
186,130,85385,1,2,0:0:0:0:
231,30,85485,1,0,0:0:0:0:
183,131,85585,1,0,0:0:0:0:
236,48,85685,1,2,0:0:0:0:
236,48,85785,1,0,0:0:0:0:
224,96,85985,1,2,0:0:0:0:
236,48,86385,1,0,0:0:0:0:
218,55,87585,1,2,0:0:0:0:
216,60,87985,1,0,0:0:0:0:
216,60,88185,1,0,0:0:0:0:
216,60,88285,1,2,0:0:0:0:
216,60,88385,1,2,0:0:0:0:
226,75,88585,1,2,0:0:0:0:
205,76,88685,1,2,0:0:0:0:
226,75,88785,1,0,0:0:0:0:
205,76,88885,1,2,0:0:0:0:
226,75,88985,1,0,0:0:0:0:
226,75,89185,1,2,0:0:0:0:
181,57,89385,1,0,0:0:0:0:
176,47,89585,1,0,0:0:0:0:
176,48,89685,1,2,0:0:0:0:
176,48,89785,1,0,0:0:0:0:
180,47,89885,1,2,0:0:0:0:
176,48,89985,1,2,0:0:0:0:
176,48,90185,1,0,0:0:0:0:
176,48,90285,1,2,0:0:0:0:
231,32,90785,1,2,0:0:0:0:
365,246,91185,1,0,0:0:0:0:
178,120,91385,1,0,0:0:0:0:
185,122,91485,1,0,0:0:0:0:
186,124,91585,1,2,0:0:0:0:
194,77,91785,1,0,0:0:0:0:
170,23,91885,1,2,0:0:0:0:
194,77,92085,1,2,0:0:0:0:
174,51,92185,1,0,0:0:0:0:
174,51,92285,1,0,0:0:0:0:
174,51,92385,1,2,0:0:0:0:
202,67,92585,1,0,0:0:0:0:
205,69,92985,1,2,0:0:0:0:
130,173,93185,2,0,L|310:159,1,157.500006008148
205,69,93985,1,2,0:0:0:0:
217,247,94385,1,0,0:0:0:0:
217,247,94585,1,0,0:0:0:0:
217,247,94785,1,2,0:0:0:0:
217,247,94985,1,2,0:0:0:0:
193,52,95185,1,0,0:0:0:0:
187,63,95385,1,2,0:0:0:0:
186,68,95485,1,0,0:0:0:0:
186,64,95585,1,0,0:0:0:0:
178,67,95785,1,0,0:0:0:0:
201,172,95985,1,2,0:0:0:0:
201,172,96085,1,2,0:0:0:0:
201,172,96185,1,0,0:0:0:0:
201,172,96385,1,0,0:0:0:0:
201,172,96585,1,2,0:0:0:0:
161,91,96685,1,0,0:0:0:0:
201,172,96785,1,2,0:0:0:0:
182,84,96985,1,0,0:0:0:0:
182,84,97085,1,2,0:0:0:0:
182,84,97185,1,0,0:0:0:0:
181,88,97285,1,2,0:0:0:0:
182,87,97385,1,0,0:0:0:0:
189,85,97585,1,2,0:0:0:0:
189,85,97685,1,2,0:0:0:0:
189,85,97785,1,2,0:0:0:0:
189,85,97885,1,2,0:0:0:0:
189,85,97985,1,2,0:0:0:0:
191,86,98185,1,0,0:0:0:0:
212,125,98285,1,0,0:0:0:0:
212,125,98485,1,2,0:0:0:0:
212,125,98585,1,0,0:0:0:0:
212,125,98685,1,0,0:0:0:0:
212,125,98785,1,2,0:0:0:0:
195,92,98985,1,0,0:0:0:0:
195,92,99185,1,0,0:0:0:0:
195,92,99285,1,2,0:0:0:0:
195,92,99385,1,2,0:0:0:0:
210,66,99485,1,2,0:0:0:0:
210,66,99585,1,0,0:0:0:0:
198,75,99885,1,0,0:0:0:0:
195,77,99985,1,2,0:0:0:0:
199,26,100085,1,0,0:0:0:0:
206,45,100185,1,2,0:0:0:0:
231,50,100285,1,2,0:0:0:0:
206,45,100385,1,2,0:0:0:0:
222,60,100785,1,0,0:0:0:0:
217,77,100985,1,0,0:0:0:0:
217,77,101085,1,2,0:0:0:0:
217,77,101185,1,2,0:0:0:0:
225,122,101385,1,0,0:0:0:0:
225,122,101485,1,0,0:0:0:0:
225,122,101585,1,0,0:0:0:0:
222,124,101685,1,0,0:0:0:0:
225,122,101785,1,0,0:0:0:0:
225,122,101985,1,2,0:0:0:0:
235,131,102185,1,0,0:0:0:0:
235,131,102385,1,0,0:0:0:0:
235,131,102485,1,2,0:0:0:0:
235,131,102585,1,0,0:0:0:0:
235,131,102785,1,2,0:0:0:0:
235,131,102985,1,0,0:0:0:0:
204,36,103085,1,0,0:0:0:0:
204,36,103185,1,0,0:0:0:0:
261,102,103285,1,0,0:0:0:0:
204,36,103385,1,0,0:0:0:0:
204,36,103585,1,2,0:0:0:0:
288,79,103718,1,2,0:0:0:0:
288,79,103851,1,2,0:0:0:0:
288,79,103985,1,2,0:0:0:0:
220,39,104118,1,2,0:0:0:0:
214,42,104251,1,2,0:0:0:0:
222,103,104385,1,2,0:0:0:0:
222,103,104785,1,0,0:0:0:0:
208,138,106385,1,0,0:0:0:0:
167,188,107185,1,2,0:0:0:0:
160,199,107585,1,0,0:0:0:0:
158,197,107785,1,2,0:0:0:0:
196,52,107985,1,2,0:0:0:0:
158,198,108185,1,0,0:0:0:0:
197,87,108285,1,0,0:0:0:0:
160,199,108385,1,2,0:0:0:0:
160,199,108585,1,0,0:0:0:0:
197,87,108685,1,0,0:0:0:0:
197,87,108885,1,2,0:0:0:0:
158,198,108985,1,2,0:0:0:0:
159,194,109185,1,0,0:0:0:0:
229,152,109385,1,2,0:0:0:0:
189,50,109585,1,0,0:0:0:0:
177,97,109985,1,2,0:0:0:0:
177,97,110385,1,0,0:0:0:0:
180,88,110585,1,0,0:0:0:0:
181,88,110685,1,2,0:0:0:0:
181,88,110785,1,2,0:0:0:0:
181,88,110985,1,0,0:0:0:0:
180,89,111085,1,0,0:0:0:0:
180,88,111485,1,2,0:0:0:0:
180,88,111585,1,2,0:0:0:0:
193,99,111785,1,0,0:0:0:0:
193,99,111985,1,0,0:0:0:0:
193,99,112185,1,2,0:0:0:0:
196,101,112385,1,0,0:0:0:0:
232,88,113185,1,2,0:0:0:0:
200,114,113585,1,2,0:0:0:0:
200,114,113785,1,0,0:0:0:0:
198,117,113885,1,2,0:0:0:0:
200,114,113985,1,2,0:0:0:0:
183,77,114185,1,2,0:0:0:0:
194,61,114285,1,0,0:0:0:0:
183,77,114385,1,0,0:0:0:0:
183,77,114485,1,2,0:0:0:0:
183,77,114585,1,2,0:0:0:0:
194,61,114785,1,0,0:0:0:0:
194,61,114985,1,2,0:0:0:0:
187,64,115185,1,2,0:0:0:0:
187,64,115285,1,2,0:0:0:0:
187,64,115385,1,2,0:0:0:0:
187,67,115485,1,2,0:0:0:0:
186,69,115585,1,0,0:0:0:0:
182,60,115785,1,2,0:0:0:0:
182,60,115885,1,2,0:0:0:0:
174,27,116085,1,0,0:0:0:0:
174,27,116185,1,0,0:0:0:0:
206,177,116285,1,0,0:0:0:0:
174,27,116385,1,2,0:0:0:0:
229,61,116785,1,0,0:0:0:0:
208,83,116985,1,0,0:0:0:0:
208,83,117085,1,0,0:0:0:0:
208,83,117185,1,2,0:0:0:0:
192,45,117285,1,0,0:0:0:0:
192,45,117385,1,0,0:0:0:0:
191,50,117585,1,2,0:0:0:0:
191,51,117685,1,2,0:0:0:0:
191,50,117785,1,0,0:0:0:0:
190,59,117885,1,2,0:0:0:0:
190,59,117985,1,2,0:0:0:0:
167,83,118185,1,0,0:0:0:0:
209,111,118585,1,2,0:0:0:0:
256,192,118785,12,0,119185,0:0:0:0:
228,118,119585,5,2,0:0:0:0:
201,172,119985,1,0,0:0:0:0:
201,172,120185,1,0,0:0:0:0:
201,172,120285,1,2,0:0:0:0:
201,172,120385,1,2,0:0:0:0:
201,172,120585,1,0,0:0:0:0:
201,172,120785,1,0,0:0:0:0:
201,172,120885,1,2,0:0:0:0:
201,172,120985,1,0,0:0:0:0:
204,40,121085,1,0,0:0:0:0:
201,172,121185,1,2,0:0:0:0:
201,172,121385,1,0,0:0:0:0:
201,172,121585,1,2,0:0:0:0:
201,172,121685,1,2,0:0:0:0:
201,172,121785,1,0,0:0:0:0:
201,172,121985,1,0,0:0:0:0:
201,172,122185,1,2,0:0:0:0:
163,112,122285,1,0,0:0:0:0:
201,172,122385,1,2,0:0:0:0:
182,84,122585,1,0,0:0:0:0:
182,84,122685,1,2,0:0:0:0:
182,84,122785,1,0,0:0:0:0:
181,88,122885,1,2,0:0:0:0:
182,87,122985,1,0,0:0:0:0:
189,85,123185,1,2,0:0:0:0:
189,85,123285,1,2,0:0:0:0:
189,85,123385,1,2,0:0:0:0:
189,85,123485,1,2,0:0:0:0:
189,85,123585,1,2,0:0:0:0:
191,86,123785,1,0,0:0:0:0:
212,125,123885,1,0,0:0:0:0:
212,125,124085,1,2,0:0:0:0:
212,125,124185,1,0,0:0:0:0:
212,125,124285,1,0,0:0:0:0:
212,125,124385,1,2,0:0:0:0:
195,92,124585,1,0,0:0:0:0:
195,92,124785,1,0,0:0:0:0:
195,92,124885,1,2,0:0:0:0:
195,92,124985,1,2,0:0:0:0:
210,66,125085,1,2,0:0:0:0:
210,66,125185,1,0,0:0:0:0:
198,75,125485,1,0,0:0:0:0:
195,77,125585,1,2,0:0:0:0:
199,26,125685,1,0,0:0:0:0:
206,45,125785,1,2,0:0:0:0:
231,50,125885,1,2,0:0:0:0:
206,45,125985,1,2,0:0:0:0:
222,60,126385,1,0,0:0:0:0:
217,77,126585,1,0,0:0:0:0:
217,77,126685,1,2,0:0:0:0:
217,77,126785,1,2,0:0:0:0:
225,122,126985,1,0,0:0:0:0:
225,122,127085,1,0,0:0:0:0:
225,122,127185,1,0,0:0:0:0:
222,124,127285,1,0,0:0:0:0:
225,122,127385,1,0,0:0:0:0:
225,122,127585,1,2,0:0:0:0:
235,131,127785,1,0,0:0:0:0:
235,131,127985,1,0,0:0:0:0:
235,131,128085,1,2,0:0:0:0:
235,131,128185,1,0,0:0:0:0:
235,131,128385,1,2,0:0:0:0:
235,131,128585,1,0,0:0:0:0:
204,36,128685,1,0,0:0:0:0:
204,36,128785,1,0,0:0:0:0:
261,102,128885,1,0,0:0:0:0:
204,36,128985,1,0,0:0:0:0:
204,36,129185,1,2,0:0:0:0:
288,79,129318,1,2,0:0:0:0:
288,79,129451,1,2,0:0:0:0:
288,79,129585,1,2,0:0:0:0:
220,39,129718,1,2,0:0:0:0:
214,42,129851,1,2,0:0:0:0:
222,103,129985,1,2,0:0:0:0:
222,103,130385,1,0,0:0:0:0:
