osu file format v14

[General]
AudioFilename: audio.mp3
AudioLeadIn: 0
PreviewTime: 14385
Countdown: 0
SampleSet: Normal
StackLeniency: 0.7
Mode: 1
LetterboxInBreaks: 0
WidescreenStoryboard: 1

[Editor]
Bookmarks: 1585,27185,52785,81585,107185,132785
DistanceSpacing: 0.8
BeatDivisor: 4
GridSize: 32
TimelineZoom: 2.1

[Metadata]
Title:SPIRAL
TitleUnicode:SPIRAL
Artist:METAROOM
ArtistUnicode:METAROOM
Creator:Ulqui
Version:MUZUKASHII
Source:
Tags:electronic instrumental glitchcore woosungko TWC2022 GF HD2
BeatmapID:3661761
BeatmapSetID:1783072

[Difficulty]
HPDrainRate:5
CircleSize:7
OverallDifficulty:5
ApproachRate:10
SliderMultiplier:1.4
SliderTickRate:1

[Events]
//Background and Video events
0,0,"spiral.JPG",0,0
//Break Periods
2,52985,57135
//Storyboard Layer 0 (Background)
//Storyboard Layer 1 (Fail)
//Storyboard Layer 2 (Pass)
//Storyboard Layer 3 (Foreground)
//Storyboard Layer 4 (Overlay)
//Storyboard Sound Samples

[TimingPoints]
1585,400,4,1,0,100,1,0
1585,-100,4,1,0,100,0,0
4285,-111.111111111111,4,1,0,100,0,0
4685,-100,4,1,0,100,0,0
7485,-111.111111111111,4,1,0,100,0,0
7885,-100,4,1,0,100,0,0
10685,-111.111111111111,4,1,0,100,0,0
11085,-100,4,1,0,100,0,0
12685,-125,4,1,0,100,0,0
13085,-133.333333333333,4,1,0,100,0,0
13935,-111.111111111111,4,1,0,100,0,0
14385,-100,4,1,0,100,0,0
17034,-100,4,1,0,100,0,0
17134,-102.040816326531,4,1,0,100,0,0
17334,-106.382978723404,4,1,0,100,0,0
17435,-111.111111111111,4,1,0,100,0,0
17685,-100,4,1,0,100,0,0
20285,-111.111111111111,4,1,0,100,0,0
20784,-100,4,1,0,100,0,0
20984,-101.522842639594,4,1,0,100,0,0
21184,-102.040816326531,4,1,0,100,0,0
21984,-106.382978723404,4,1,0,100,0,0
22184,-107.52688172043,4,1,0,100,0,0
22384,-108.695652173913,4,1,0,100,0,0
22484,-109.289617486339,4,1,0,100,0,0
22584,-109.89010989011,4,1,0,100,0,0
22784,-111.111111111111,4,1,0,100,0,0
22984,-112.359550561798,4,1,0,100,0,0
23084,-112.994350282486,4,1,0,100,0,0
23184,-106.382978723404,4,1,0,100,0,0
23384,-106.951871657754,4,1,0,100,0,0
23584,-116.279069767442,4,1,0,100,0,0
23717,-117.185211226343,4,1,0,100,0,0
23850,-118.105586394236,4,1,0,100,0,0
23984,-119.047619047619,4,1,0,100,0,0
24384,-121.951219512195,4,1,0,100,0,0
24784,-125,4,1,0,100,0,0
25584,-125,4,1,0,100,0,0
26385,-105.263157894737,4,1,0,100,0,0
27185,-100,4,1,0,100,0,0
29885,-111.111111111111,4,1,0,100,0,0
30285,-100,4,1,0,100,0,0
33085,-111.111111111111,4,1,0,100,0,0
33485,-100,4,1,0,100,0,0
36285,-111.111111111111,4,1,0,100,0,0
36685,-100,4,1,0,100,0,0
38285,-125,4,1,0,100,0,0
38685,-133.333333333333,4,1,0,100,0,0
39535,-111.111111111111,4,1,0,100,0,0
39935,-100,4,1,0,100,0,0
42635,-100,4,1,0,100,0,0
42735,-102.040816326531,4,1,0,100,0,0
42935,-106.382978723404,4,1,0,100,0,0
43036,-111.111111111111,4,1,0,100,0,0
43535,-100,4,1,0,100,0,0
45885,-111.111111111111,4,1,0,100,0,0
46085,-100,4,1,0,100,0,0
46335,-100,4,1,0,100,0,0
46584,-101.522842639594,4,1,0,100,0,0
46784,-102.040816326531,4,1,0,100,0,0
47584,-106.382978723404,4,1,0,100,0,0
47735,-107.52688172043,4,1,0,100,0,0
47935,-108.695652173913,4,1,0,100,0,0
48084,-109.289617486339,4,1,0,100,0,0
48184,-109.89010989011,4,1,0,100,0,0
48335,-111.111111111111,4,1,0,100,0,0
48584,-112.359550561798,4,1,0,100,0,0
48684,-112.994350282486,4,1,0,100,0,0
48784,-106.382978723404,4,1,0,100,0,0
48984,-106.951871657754,4,1,0,100,0,0
49135,-116.279069767442,4,1,0,100,0,0
49317,-117.185211226343,4,1,0,100,0,0
49450,-118.105586394236,4,1,0,100,0,0
49535,-119.047619047619,4,1,0,100,0,0
49984,-121.951219512195,4,1,0,100,0,0
50335,-125,4,1,0,100,0,0
51135,-125,4,1,0,100,0,0
51936,-117.64705882353,4,1,0,100,0,0
52735,-125,4,1,0,100,0,0
57535,-121.951219512195,4,1,0,100,0,0
57935,-119.047619047619,4,1,0,100,0,0
58335,-116.279069767442,4,1,0,100,0,0
58735,-113.636363636364,4,1,0,100,0,0
59135,-111.111111111111,4,1,0,100,0,0
64735,-111.111111111111,4,1,0,100,0,0
65135,-105.263157894737,4,1,0,100,0,0
65584,-100,4,1,0,100,0,0
65735,-100,4,1,0,100,0,0
66184,-94.1176470588235,4,1,0,100,0,0
66385,-100,4,1,0,100,0,0
66984,-87.2727272727273,4,1,0,100,0,0
67135,-100,4,1,0,100,0,0
67984,-80,4,1,0,100,0,0
68185,-100,4,1,0,100,0,0
68784,-75,4,1,0,100,0,0
68885,-100,4,1,0,100,0,0
69384,-71.6417910447761,4,1,0,100,0,0
69485,-100,4,1,0,100,0,0
70184,-67.6056338028169,4,1,0,100,0,0
70335,-111.111111111111,4,1,0,100,0,0
70535,-111.111111111111,4,1,0,100,0,0
70784,-115.384615384615,4,1,0,100,0,0
70984,-120,4,1,0,100,0,0
71184,-125,4,1,0,100,0,0
71235,-111.111111111111,4,1,0,100,0,0
71985,-83.3333333333333,4,1,0,100,0,1
72184,-84.2105263157895,4,1,0,100,0,1
72284,-84.6560846560847,4,1,0,100,0,1
72384,-85.1063829787234,4,1,0,100,0,1
72584,-86.0215053763441,4,1,0,100,0,1
72784,-86.9565217391304,4,1,0,100,0,1
72984,-93.5672514619883,4,1,0,100,0,1
73184,-88.8888888888889,4,1,0,100,0,1
73384,-89.8876404494382,4,1,0,100,0,1
73584,-90.9090909090909,4,1,0,100,0,1
73684,-91.4285714285714,4,1,0,100,0,1
73784,-91.9540229885058,4,1,0,100,0,1
73984,-94.1176470588235,4,1,0,100,0,1
74284,-94.6745562130178,4,1,0,100,0,1
74384,-95.2380952380952,4,1,0,100,0,1
74984,-98.7654320987654,4,1,0,100,0,1
75084,-99.3788819875776,4,1,0,100,0,1
75184,-100,4,1,0,100,0,1
75384,-101.26582278481,4,1,0,100,0,1
75584,-102.564102564103,4,1,0,100,0,1
75784,-103.896103896104,4,1,0,100,0,1
75884,-104.575163398693,4,1,0,100,0,1
75984,-105.263157894737,4,1,0,100,0,1
76184,-106.666666666667,4,1,0,100,0,1
76384,-108.108108108108,4,1,0,100,0,1
76584,-109.58904109589,4,1,0,100,0,1
76784,-111.111111111111,4,1,0,100,0,1
76984,-112.676056338028,4,1,0,100,0,1
77084,-113.475177304965,4,1,0,100,0,1
77184,-114.285714285714,4,1,0,100,0,1
77384,-115.942028985507,4,1,0,100,0,1
77584,-117.647058823529,4,1,0,100,0,1
78385,-125,4,1,0,100,0,0
79885,-125,4,1,0,100,0,0
81085,-111.111111111111,4,1,0,100,0,0
81285,-105.263157894737,4,1,0,100,0,0
81535,-100,4,1,0,100,0,0
84285,-111.111111111111,4,1,0,100,0,0
84685,-66.6666666666667,4,1,0,100,0,0
85835,-111.111111111111,4,1,0,100,0,0
86085,-125,4,1,0,100,0,0
87485,-111.111111111111,4,1,0,100,0,0
87885,-100,4,1,0,100,0,0
90685,-111.111111111111,4,1,0,100,0,0
91085,-100,4,1,0,100,0,0
92685,-125,4,1,0,100,0,0
93085,-133.333333333333,4,1,0,100,0,0
93935,-111.111111111111,4,1,0,100,0,0
94335,-100,4,1,0,100,0,0
97035,-100,4,1,0,100,0,0
97135,-102.040816326531,4,1,0,100,0,0
97335,-106.382978723404,4,1,0,100,0,0
97436,-111.111111111111,4,1,0,100,0,0
97635,-100,4,1,0,100,0,0
100335,-111.111111111111,4,1,0,100,0,0
100735,-100,4,1,0,100,0,0
100984,-101.522842639594,4,1,0,100,0,0
101184,-102.040816326531,4,1,0,100,0,0
101984,-106.382978723404,4,1,0,100,0,0
102135,-107.52688172043,4,1,0,100,0,0
102335,-108.695652173913,4,1,0,100,0,0
102484,-109.289617486339,4,1,0,100,0,0
102584,-109.89010989011,4,1,0,100,0,0
102735,-111.111111111111,4,1,0,100,0,0
102984,-112.359550561798,4,1,0,100,0,0
103084,-112.994350282486,4,1,0,100,0,0
103184,-106.382978723404,4,1,0,100,0,0
103384,-106.951871657754,4,1,0,100,0,0
103535,-116.279069767442,4,1,0,100,0,0
103717,-117.185211226343,4,1,0,100,0,0
103850,-118.105586394236,4,1,0,100,0,0
103935,-119.047619047619,4,1,0,100,0,0
104384,-121.951219512195,4,1,0,100,0,0
104735,-125,4,1,0,100,0,0
105535,-125,4,1,0,100,0,0
106336,-105.263157894737,4,1,0,100,0,0
107135,-100,4,1,0,100,0,0
109885,-111.111111111111,4,1,0,100,0,0
110285,-100,4,1,0,100,0,0
113085,-111.111111111111,4,1,0,100,0,0
113485,-100,4,1,0,100,0,0
116285,-111.111111111111,4,1,0,100,0,0
116685,-100,4,1,0,100,0,0
118285,-125,4,1,0,100,0,0
118685,-133.333333333333,4,1,0,100,0,0
119535,-111.111111111111,4,1,0,100,0,0
119935,-100,4,1,0,100,0,0
122635,-100,4,1,0,100,0,0
122735,-102.040816326531,4,1,0,100,0,0
122935,-106.382978723404,4,1,0,100,0,0
123036,-111.111111111111,4,1,0,100,0,0
123285,-100,4,1,0,100,0,0
125885,-111.111111111111,4,1,0,100,0,0
126335,-100,4,1,0,100,0,0
126584,-101.522842639594,4,1,0,100,0,0
126784,-102.040816326531,4,1,0,100,0,0
127584,-106.382978723404,4,1,0,100,0,0
127735,-107.52688172043,4,1,0,100,0,0
127935,-108.695652173913,4,1,0,100,0,0
128084,-109.289617486339,4,1,0,100,0,0
128184,-109.89010989011,4,1,0,100,0,0
128335,-111.111111111111,4,1,0,100,0,0
128584,-112.359550561798,4,1,0,100,0,0
128684,-112.994350282486,4,1,0,100,0,0
128784,-106.382978723404,4,1,0,100,0,0
128984,-106.951871657754,4,1,0,100,0,0
129135,-116.279069767442,4,1,0,100,0,0
129317,-117.185211226343,4,1,0,100,0,0
129450,-118.105586394236,4,1,0,100,0,0
129535,-119.047619047619,4,1,0,100,0,0
129984,-121.951219512195,4,1,0,100,0,0
130335,-125,4,1,0,100,0,0
131135,-125,4,1,0,100,0,0
131936,-105.263157894737,4,1,0,100,0,0
132735,-125,4,1,0,100,0,0

[HitObjects]
169,187,1585,5,0,0:0:0:0:
169,187,1885,1,2,0:0:0:0:
169,187,1985,1,2,0:0:0:0:
169,187,2185,1,0,0:0:0:0:
236,191,2485,1,2,0:0:0:0:
217,189,2585,1,2,0:0:0:0:
173,209,2785,1,2,0:0:0:0:
226,195,2985,1,0,0:0:0:0:
161,189,3285,1,2,0:0:0:0:
180,193,3385,1,2,0:0:0:0:
180,193,3585,1,0,0:0:0:0:
201,210,3785,1,2,0:0:0:0:
201,210,3885,1,2,0:0:0:0:
448,64,4385,1,8,0:0:0:0:
196,85,4785,1,2,0:0:0:0:
179,78,5085,1,0,0:0:0:0:
179,78,5185,1,0,0:0:0:0:
179,78,5385,1,2,0:0:0:0:
157,72,5685,1,0,0:0:0:0:
157,72,5785,1,0,0:0:0:0:
155,76,5985,1,2,0:0:0:0:
151,78,6185,1,0,0:0:0:0:
175,75,6485,1,2,0:0:0:0:
175,75,6585,1,2,0:0:0:0:
174,75,6785,1,0,0:0:0:0:
176,82,7585,1,2,0:0:0:0:
183,91,7985,1,0,0:0:0:0:
190,92,8285,1,2,0:0:0:0:
190,92,8385,1,2,0:0:0:0:
190,92,8585,1,2,0:0:0:0:
214,72,8785,1,0,0:0:0:0:
214,72,8985,1,0,0:0:0:0:
190,92,9185,1,2,0:0:0:0:
172,54,9385,1,0,0:0:0:0:
194,87,9685,1,2,0:0:0:0:
189,86,9785,1,2,0:0:0:0:
189,88,9985,1,0,0:0:0:0:
191,90,10185,1,2,0:0:0:0:
189,90,10285,1,2,0:0:0:0:
216,71,10785,1,2,0:0:0:0:
208,87,11185,1,0,0:0:0:0:
145,131,11385,1,2,0:0:0:0:
145,131,11485,1,2,0:0:0:0:
145,131,11585,1,2,0:0:0:0:
145,131,11785,1,0,0:0:0:0:
307,165,11985,1,0,0:0:0:0:
174,66,12085,1,0,0:0:0:0:
165,87,12185,1,0,0:0:0:0:
169,86,12385,1,2,0:0:0:0:
175,53,12585,1,0,0:0:0:0:
175,53,13185,1,2,0:0:0:0:
178,76,13985,1,2,0:0:0:0:
178,76,14385,1,0,0:0:0:0:
199,121,14685,1,2,0:0:0:0:
199,121,14785,1,2,0:0:0:0:
199,121,14985,1,0,0:0:0:0:
199,121,15285,1,2,0:0:0:0:
199,121,15385,1,2,0:0:0:0:
179,99,15585,1,2,0:0:0:0:
179,99,15785,1,0,0:0:0:0:
179,99,16085,1,2,0:0:0:0:
179,99,16185,1,2,0:0:0:0:
184,109,16385,1,0,0:0:0:0:
171,115,16585,1,2,0:0:0:0:
170,114,16785,1,2,0:0:0:0:
171,112,17085,1,0,0:0:0:0:
181,86,17185,1,0,0:0:0:0:
171,112,17385,1,0,0:0:0:0:
181,86,17585,1,2,0:0:0:0:
181,86,18185,1,0,0:0:0:0:
181,86,18485,1,2,0:0:0:0:
181,86,18585,1,2,0:0:0:0:
181,86,18785,1,2,0:0:0:0:
187,88,18985,1,0,0:0:0:0:
186,75,19285,1,2,0:0:0:0:
186,74,19385,1,2,0:0:0:0:
195,65,19585,1,0,0:0:0:0:
193,67,20385,1,2,0:0:0:0:
193,66,20785,1,0,0:0:0:0:
170,86,21085,1,2,0:0:0:0:
170,86,21185,1,2,0:0:0:0:
170,86,21985,1,2,0:0:0:0:
170,86,22185,1,0,0:0:0:0:
172,89,22485,1,0,0:0:0:0:
172,89,22585,1,0,0:0:0:0:
170,86,22785,1,2,0:0:0:0:
193,51,22985,1,0,0:0:0:0:
193,51,23085,1,0,0:0:0:0:
211,108,23585,1,2,0:0:0:0:
211,108,23718,1,2,0:0:0:0:
211,108,23851,1,2,0:0:0:0:
201,56,23985,1,2,0:0:0:0:
199,125,24385,1,2,0:0:0:0:
197,117,24785,1,0,0:0:0:0:
263,264,26385,1,0,0:0:0:0:
263,264,27185,1,2,0:0:0:0:
199,132,27585,1,0,0:0:0:0:
199,132,27785,1,2,0:0:0:0:
199,132,28185,1,0,0:0:0:0:
199,132,28385,1,2,0:0:0:0:
199,132,28585,1,0,0:0:0:0:
175,156,28985,1,0,0:0:0:0:
175,156,29185,1,2,0:0:0:0:
181,108,29385,1,0,0:0:0:0:
181,108,29585,1,0,0:0:0:0:
182,108,29985,1,2,0:0:0:0:
182,108,30385,1,0,0:0:0:0:
190,141,30585,1,0,0:0:0:0:
199,105,30785,1,2,0:0:0:0:
199,105,30985,1,0,0:0:0:0:
199,105,31385,1,0,0:0:0:0:
199,105,31585,1,2,0:0:0:0:
199,105,31785,1,0,0:0:0:0:
199,105,32185,1,2,0:0:0:0:
199,105,32385,1,0,0:0:0:0:
221,82,33185,1,2,0:0:0:0:
221,82,33585,1,2,0:0:0:0:
202,93,33985,1,0,0:0:0:0:
202,93,34185,1,2,0:0:0:0:
188,164,34585,1,0,0:0:0:0:
188,164,34785,1,2,0:0:0:0:
188,164,34985,1,2,0:0:0:0:
188,164,35385,1,0,0:0:0:0:
188,164,35585,1,2,0:0:0:0:
172,112,35785,1,2,0:0:0:0:
210,52,35885,1,2,0:0:0:0:
203,43,36385,1,2,0:0:0:0:
194,79,36785,1,0,0:0:0:0:
171,107,36985,1,2,0:0:0:0:
171,107,37085,1,2,0:0:0:0:
171,107,37185,1,2,0:0:0:0:
174,108,37385,1,0,0:0:0:0:
174,112,37585,1,0,0:0:0:0:
180,103,37685,1,0,0:0:0:0:
180,103,37785,1,0,0:0:0:0:
180,103,37985,1,2,0:0:0:0:
179,104,38185,1,0,0:0:0:0:
192,79,38785,1,2,0:0:0:0:
217,204,39585,1,2,0:0:0:0:
178,76,39985,1,0,0:0:0:0:
199,121,40285,1,2,0:0:0:0:
199,121,40385,1,2,0:0:0:0:
199,121,40585,1,0,0:0:0:0:
199,121,40885,1,2,0:0:0:0:
199,121,40985,1,2,0:0:0:0:
179,99,41185,1,2,0:0:0:0:
179,99,41385,1,0,0:0:0:0:
179,99,41685,1,2,0:0:0:0:
179,99,41785,1,2,0:0:0:0:
184,109,41985,1,0,0:0:0:0:
171,115,42185,1,2,0:0:0:0:
170,114,42385,1,2,0:0:0:0:
189,92,42685,1,0,0:0:0:0:
181,86,42785,1,0,0:0:0:0:
181,86,42985,1,0,0:0:0:0:
181,86,43185,1,2,0:0:0:0:
181,86,43785,1,0,0:0:0:0:
181,86,44085,1,2,0:0:0:0:
181,86,44185,1,2,0:0:0:0:
181,86,44385,1,2,0:0:0:0:
187,88,44585,1,0,0:0:0:0:
186,75,44885,1,2,0:0:0:0:
186,74,44985,1,2,0:0:0:0:
195,65,45185,1,0,0:0:0:0:
193,67,45985,1,2,0:0:0:0:
193,66,46385,1,0,0:0:0:0:
170,86,46685,1,2,0:0:0:0:
170,86,46785,1,2,0:0:0:0:
170,86,47585,1,2,0:0:0:0:
170,86,47785,1,0,0:0:0:0:
172,89,48085,1,0,0:0:0:0:
172,89,48185,1,0,0:0:0:0:
170,86,48385,1,2,0:0:0:0:
193,51,48585,1,0,0:0:0:0:
193,51,48685,1,0,0:0:0:0:
211,108,49185,1,2,0:0:0:0:
211,108,49318,1,2,0:0:0:0:
211,108,49451,1,2,0:0:0:0:
201,56,49585,1,2,0:0:0:0:
199,125,49985,1,2,0:0:0:0:
197,117,50385,1,0,0:0:0:0:
164,224,52785,1,0,0:0:0:0:
204,188,57585,5,2,0:0:0:0:
204,188,57985,1,2,0:0:0:0:
204,188,58385,1,2,0:0:0:0:
204,188,58785,1,2,0:0:0:0:
204,188,59185,1,0,0:0:0:0:
179,146,59785,1,2,0:0:0:0:
179,146,60585,1,0,0:0:0:0:
157,148,61585,1,2,0:0:0:0:
167,140,62385,1,0,0:0:0:0:
167,140,62985,1,2,0:0:0:0:
167,140,63785,1,0,0:0:0:0:
167,140,64785,1,2,0:0:0:0:
211,134,65185,1,2,0:0:0:0:
220,107,65585,5,4,0:0:0:0:
202,131,65985,1,2,0:0:0:0:
189,132,66185,1,4,0:0:0:0:
202,131,66585,1,2,0:0:0:0:
202,131,66785,1,2,0:0:0:0:
193,132,66985,1,4,0:0:0:0:
202,131,67385,1,2,0:0:0:0:
202,131,67585,1,2,0:0:0:0:
202,131,67785,1,2,0:0:0:0:
193,132,67985,1,4,0:0:0:0:
210,127,68785,1,6,0:0:0:0:
225,127,69185,1,0,0:0:0:0:
210,127,69385,1,6,0:0:0:0:
225,127,69785,1,0,0:0:0:0:
225,127,69985,1,0,0:0:0:0:
210,127,70185,1,6,0:0:0:0:
225,127,70585,1,0,0:0:0:0:
225,127,70785,1,0,0:0:0:0:
225,127,70985,1,0,0:0:0:0:
210,127,71185,1,0,0:0:0:0:
229,109,71985,1,0,0:0:0:0:
210,127,72185,1,2,0:0:0:0:
206,126,72285,1,2,0:0:0:0:
204,127,72385,1,2,0:0:0:0:
205,126,72585,1,0,0:0:0:0:
206,119,72785,1,0,0:0:0:0:
199,73,73185,1,2,0:0:0:0:
210,112,73385,1,0,0:0:0:0:
210,112,73585,1,0,0:0:0:0:
204,83,73685,1,0,0:0:0:0:
204,83,73785,1,0,0:0:0:0:
197,109,74185,1,2,0:0:0:0:
196,110,74285,1,2,0:0:0:0:
197,109,74385,1,2,0:0:0:0:
211,57,74985,1,0,0:0:0:0:
211,57,75085,1,0,0:0:0:0:
196,119,75185,1,0,0:0:0:0:
167,76,75385,1,2,0:0:0:0:
167,76,75585,1,2,0:0:0:0:
182,89,75785,5,0,0:0:0:0:
185,48,75885,1,0,0:0:0:0:
182,89,75985,1,0,0:0:0:0:
207,107,76185,1,0,0:0:0:0:
206,98,76385,1,2,0:0:0:0:
206,98,76585,1,0,0:0:0:0:
182,89,76985,1,2,0:0:0:0:
182,89,77085,1,2,0:0:0:0:
182,89,77185,1,2,0:0:0:0:
182,89,77385,1,2,0:0:0:0:
182,89,77585,1,0,0:0:0:0:
236,154,78385,1,6,0:0:0:0:
226,298,81185,1,2,0:0:0:0:
188,227,81385,1,0,0:0:0:0:
169,187,81585,5,0,0:0:0:0:
169,187,81885,1,2,0:0:0:0:
169,187,81985,1,2,0:0:0:0:
169,187,82185,1,0,0:0:0:0:
236,191,82485,1,2,0:0:0:0:
217,189,82585,1,2,0:0:0:0:
173,209,82785,1,2,0:0:0:0:
226,195,82985,1,0,0:0:0:0:
180,193,83385,1,2,0:0:0:0:
180,193,83585,1,0,0:0:0:0:
179,83,84385,1,2,0:0:0:0:
196,85,84785,1,4,0:0:0:0:
166,54,85985,1,2,0:0:0:0:
175,75,86385,1,0,0:0:0:0:
176,82,87585,1,2,0:0:0:0:
183,91,87985,1,0,0:0:0:0:
190,92,88285,1,2,0:0:0:0:
190,92,88385,1,2,0:0:0:0:
190,92,88585,1,0,0:0:0:0:
214,72,88785,1,0,0:0:0:0:
185,51,88885,1,0,0:0:0:0:
214,72,88985,1,0,0:0:0:0:
190,92,89185,1,2,0:0:0:0:
172,54,89385,1,0,0:0:0:0:
194,87,89685,1,2,0:0:0:0:
189,86,89785,1,2,0:0:0:0:
189,88,89985,1,0,0:0:0:0:
191,90,90185,1,2,0:0:0:0:
189,90,90285,1,2,0:0:0:0:
216,71,90785,1,2,0:0:0:0:
208,87,91185,1,0,0:0:0:0:
145,131,91385,1,2,0:0:0:0:
145,131,91485,1,2,0:0:0:0:
145,131,91585,1,2,0:0:0:0:
145,131,91785,1,0,0:0:0:0:
307,165,91985,1,0,0:0:0:0:
174,66,92085,1,0,0:0:0:0:
165,87,92185,1,0,0:0:0:0:
169,86,92385,1,2,0:0:0:0:
175,53,92585,1,0,0:0:0:0:
175,53,93185,1,2,0:0:0:0:
178,76,93985,1,2,0:0:0:0:
221,91,94385,1,0,0:0:0:0:
214,96,94585,1,0,0:0:0:0:
217,110,94785,1,2,0:0:0:0:
217,110,94985,1,0,0:0:0:0:
217,110,95385,1,0,0:0:0:0:
217,110,95585,1,2,0:0:0:0:
217,110,95785,1,0,0:0:0:0:
201,76,96185,1,2,0:0:0:0:
201,76,96385,1,0,0:0:0:0:
186,78,96585,1,2,0:0:0:0:
191,75,96785,1,2,0:0:0:0:
171,112,97085,1,0,0:0:0:0:
181,86,97185,1,0,0:0:0:0:
171,112,97385,1,0,0:0:0:0:
181,86,97585,1,2,0:0:0:0:
181,86,98185,1,0,0:0:0:0:
181,86,98485,1,2,0:0:0:0:
181,86,98585,1,2,0:0:0:0:
181,86,98785,1,2,0:0:0:0:
187,88,98985,1,0,0:0:0:0:
186,75,99285,1,2,0:0:0:0:
186,74,99385,1,2,0:0:0:0:
195,65,99585,1,0,0:0:0:0:
193,67,100385,1,2,0:0:0:0:
193,66,100785,1,0,0:0:0:0:
170,86,101085,1,2,0:0:0:0:
170,86,101185,1,2,0:0:0:0:
170,86,101985,1,2,0:0:0:0:
170,86,102185,1,0,0:0:0:0:
172,89,102485,1,0,0:0:0:0:
172,89,102585,1,0,0:0:0:0:
170,86,102785,1,2,0:0:0:0:
193,51,102985,1,0,0:0:0:0:
193,51,103085,1,0,0:0:0:0:
211,108,103585,1,2,0:0:0:0:
211,108,103718,1,2,0:0:0:0:
211,108,103851,1,2,0:0:0:0:
201,56,103985,1,2,0:0:0:0:
199,125,104385,1,2,0:0:0:0:
197,117,104785,1,0,0:0:0:0:
263,264,106385,1,0,0:0:0:0:
263,264,107185,1,2,0:0:0:0:
199,132,107585,1,0,0:0:0:0:
199,132,107785,1,2,0:0:0:0:
199,132,108185,1,0,0:0:0:0:
199,132,108385,1,2,0:0:0:0:
199,132,108585,1,0,0:0:0:0:
175,156,108985,1,0,0:0:0:0:
175,156,109185,1,2,0:0:0:0:
181,108,109385,1,0,0:0:0:0:
181,108,109585,1,0,0:0:0:0:
182,108,109985,1,2,0:0:0:0:
182,108,110385,1,0,0:0:0:0:
259,249,110585,1,0,0:0:0:0:
199,105,110785,1,2,0:0:0:0:
199,105,110985,1,0,0:0:0:0:
199,105,111385,1,0,0:0:0:0:
199,105,111585,1,2,0:0:0:0:
199,105,111785,1,0,0:0:0:0:
199,105,112185,1,2,0:0:0:0:
199,105,112385,1,0,0:0:0:0:
221,82,113185,1,2,0:0:0:0:
221,82,113585,1,0,0:0:0:0:
202,93,113985,1,2,0:0:0:0:
202,93,114185,1,0,0:0:0:0:
230,38,114285,1,0,0:0:0:0:
186,105,114385,1,0,0:0:0:0:
188,164,114585,1,0,0:0:0:0:
188,164,114785,1,2,0:0:0:0:
197,62,115185,1,0,0:0:0:0:
212,56,115285,1,0,0:0:0:0:
188,164,115385,1,0,0:0:0:0:
188,164,115585,1,2,0:0:0:0:
172,112,115785,1,0,0:0:0:0:
210,52,115885,1,0,0:0:0:0:
203,43,116385,1,2,0:0:0:0:
194,79,116785,1,0,0:0:0:0:
171,107,116985,1,2,0:0:0:0:
171,107,117085,1,2,0:0:0:0:
171,107,117185,1,2,0:0:0:0:
174,108,117385,1,0,0:0:0:0:
174,112,117585,1,0,0:0:0:0:
180,103,117685,1,0,0:0:0:0:
180,103,117785,1,0,0:0:0:0:
180,103,117985,1,2,0:0:0:0:
179,104,118185,1,0,0:0:0:0:
192,79,118785,1,2,0:0:0:0:
217,204,119585,1,2,0:0:0:0:
178,76,119985,1,0,0:0:0:0:
199,121,120285,1,2,0:0:0:0:
199,121,120385,1,2,0:0:0:0:
199,121,120585,1,0,0:0:0:0:
199,121,120885,1,2,0:0:0:0:
199,121,120985,1,2,0:0:0:0:
179,99,121185,1,2,0:0:0:0:
179,99,121385,1,0,0:0:0:0:
179,99,121685,1,2,0:0:0:0:
179,99,121785,1,2,0:0:0:0:
184,109,121985,1,0,0:0:0:0:
171,115,122185,1,2,0:0:0:0:
170,114,122385,1,2,0:0:0:0:
189,92,122685,1,0,0:0:0:0:
181,86,122785,1,0,0:0:0:0:
181,86,122985,1,0,0:0:0:0:
181,86,123185,1,2,0:0:0:0:
181,86,123785,1,0,0:0:0:0:
181,86,124085,1,2,0:0:0:0:
181,86,124185,1,2,0:0:0:0:
181,86,124385,1,2,0:0:0:0:
187,88,124585,1,0,0:0:0:0:
186,75,124885,1,2,0:0:0:0:
186,74,124985,1,2,0:0:0:0:
195,65,125185,1,0,0:0:0:0:
193,67,125985,1,2,0:0:0:0:
193,66,126385,1,0,0:0:0:0:
170,86,126685,1,2,0:0:0:0:
170,86,126785,1,2,0:0:0:0:
170,86,127585,1,2,0:0:0:0:
170,86,127785,1,0,0:0:0:0:
172,89,128085,1,0,0:0:0:0:
172,89,128185,1,0,0:0:0:0:
170,86,128385,1,2,0:0:0:0:
193,51,128585,1,0,0:0:0:0:
193,51,128685,1,0,0:0:0:0:
211,108,129185,1,2,0:0:0:0:
211,108,129318,1,2,0:0:0:0:
211,108,129451,1,2,0:0:0:0:
201,56,129585,1,2,0:0:0:0:
199,125,129985,1,2,0:0:0:0:
197,117,130385,1,0,0:0:0:0:
