osu file format v14

[General]
AudioFilename: audio.mp3
AudioLeadIn: 0
PreviewTime: 14385
Countdown: 0
SampleSet: Normal
StackLeniency: 0.7
Mode: 1
LetterboxInBreaks: 0
WidescreenStoryboard: 1

[Editor]
Bookmarks: 1585,27185,52785,81585,107185,132785
DistanceSpacing: 0.8
BeatDivisor: 8
GridSize: 32
TimelineZoom: 1.5

[Metadata]
Title:SPIRAL
TitleUnicode:SPIRAL
Artist:METAROOM
ArtistUnicode:METAROOM
Creator:Ulqui
Version:KANTAN
Source:
Tags:electronic instrumental glitchcore woosungko TWC2022 GF HD2
BeatmapID:3651664
BeatmapSetID:1783072

[Difficulty]
HPDrainRate:7
CircleSize:7
OverallDifficulty:3
ApproachRate:10
SliderMultiplier:1.2
SliderTickRate:1

[Events]
//Background and Video events
0,0,"spiral.JPG",0,0
//Break Periods
2,52985,57135
//Storyboard Layer 0 (Background)
//Storyboard Layer 1 (Fail)
//Storyboard Layer 2 (Pass)
//Storyboard Layer 3 (Foreground)
//Storyboard Layer 4 (Overlay)
//Storyboard Sound Samples

[TimingPoints]
1585,400,4,1,0,100,1,0
1585,-100,4,1,0,100,0,0
13135,-99.9999999999999,4,1,0,100,0,0
13985,-99.9999999999999,4,1,0,100,0,0
14385,-100,4,1,0,100,0,0
20784,-100,4,1,0,100,0,0
22184,-103.004291845494,4,1,0,100,0,0
22384,-103.448275862069,4,1,0,100,0,0
22784,-104.347826086957,4,1,0,100,0,0
23584,-106.194690265487,4,1,0,100,0,0
23984,-107.142857142857,4,1,0,100,0,0
24784,-109.090909090909,4,1,0,100,0,0
25584,-125,4,1,0,100,0,0
26385,-105.263157894737,4,1,0,100,0,0
27185,-100,4,1,0,100,0,0
39535,-99.9999999999999,4,1,0,100,0,0
39935,-100,4,1,0,100,0,0
46335,-100,4,1,0,100,0,0
47735,-103.004291845494,4,1,0,100,0,0
47935,-103.448275862069,4,1,0,100,0,0
48335,-104.347826086957,4,1,0,100,0,0
49135,-106.194690265487,4,1,0,100,0,0
49535,-107.142857142857,4,1,0,100,0,0
50335,-109.090909090909,4,1,0,100,0,0
51135,-125,4,1,0,100,0,0
51936,-117.64705882353,4,1,0,100,0,0
52735,-125,4,1,0,100,0,0
57535,-121.951219512195,4,1,0,100,0,0
57935,-119.047619047619,4,1,0,100,0,0
58335,-116.279069767442,4,1,0,100,0,0
58735,-113.636363636364,4,1,0,100,0,0
59135,-111.111111111111,4,1,0,100,0,0
65584,-100,4,1,0,100,0,0
66184,-96.969696969697,4,1,0,100,0,0
66984,-93.2038834951456,4,1,0,100,0,0
67184,-92.3076923076923,4,1,0,100,0,0
67984,-88.8888888888889,4,1,0,100,0,0
68784,-85.7142857142857,4,1,0,100,0,0
69384,-83.4782608695652,4,1,0,100,0,0
70184,-80.672268907563,4,1,0,100,0,0
70384,-80,4,1,0,100,0,0
71135,-99.9999999999999,4,1,0,100,0,0
71985,-90.9090909090909,4,1,0,100,0,1
72584,-92.485549132948,4,1,0,100,0,1
73384,-94.6745562130177,4,1,0,100,0,1
73584,-95.2380952380952,4,1,0,100,0,1
73984,-96.3855421686747,4,1,0,100,0,1
74384,-97.5609756097561,4,1,0,100,0,1
75184,-100,4,1,0,100,0,1
75784,-101.910828025478,4,1,0,100,0,1
76584,-104.575163398693,4,1,0,100,0,1
76784,-105.263157894737,4,1,0,100,0,1
77184,-106.666666666667,4,1,0,100,0,1
77584,-108.108108108108,4,1,0,100,0,1
78385,-111.111111111111,4,1,0,100,0,0
81535,-100,4,1,0,100,0,0
93935,-99.9999999999999,4,1,0,100,0,0
94335,-100,4,1,0,100,0,0
100735,-100,4,1,0,100,0,0
102135,-103.004291845494,4,1,0,100,0,0
102335,-103.448275862069,4,1,0,100,0,0
102735,-104.347826086957,4,1,0,100,0,0
103535,-106.194690265487,4,1,0,100,0,0
103935,-107.142857142857,4,1,0,100,0,0
104735,-109.090909090909,4,1,0,100,0,0
105535,-125,4,1,0,100,0,0
106336,-105.263157894737,4,1,0,100,0,0
107135,-100,4,1,0,100,0,0
119535,-99.9999999999999,4,1,0,100,0,0
119935,-100,4,1,0,100,0,0
126335,-100,4,1,0,100,0,0
127735,-103.004291845494,4,1,0,100,0,0
127935,-103.448275862069,4,1,0,100,0,0
128335,-104.347826086957,4,1,0,100,0,0
129135,-106.194690265487,4,1,0,100,0,0
129535,-107.142857142857,4,1,0,100,0,0
130335,-109.090909090909,4,1,0,100,0,0
131135,-125,4,1,0,100,0,0
131936,-105.263157894737,4,1,0,100,0,0
132735,-125,4,1,0,100,0,0

[HitObjects]
171,142,1585,5,0,0:0:0:0:
150,144,2185,1,0,0:0:0:0:
150,144,2985,1,0,0:0:0:0:
136,155,3585,1,0,0:0:0:0:
139,152,4385,1,2,0:0:0:0:
139,152,4785,1,2,0:0:0:0:
160,143,5385,1,0,0:0:0:0:
146,155,6185,1,0,0:0:0:0:
148,133,6785,1,0,0:0:0:0:
175,193,7985,1,0,0:0:0:0:
152,183,8385,1,2,0:0:0:0:
181,87,9385,1,0,0:0:0:0:
131,258,9985,1,0,0:0:0:0:
188,145,10785,1,2,0:0:0:0:
188,145,11185,1,2,0:0:0:0:
188,145,11785,1,0,0:0:0:0:
192,128,12585,1,0,0:0:0:0:
192,96,13185,1,2,0:0:0:0:
182,125,13985,5,2,0:0:0:0:
185,108,14385,1,0,0:0:0:0:
174,163,14985,1,0,0:0:0:0:
163,167,15785,1,0,0:0:0:0:
163,167,16385,1,0,0:0:0:0:
192,96,17585,1,2,0:0:0:0:
167,125,18185,1,0,0:0:0:0:
162,132,18985,1,0,0:0:0:0:
163,129,19585,1,0,0:0:0:0:
181,74,20385,1,2,0:0:0:0:
161,135,20785,1,0,0:0:0:0:
179,217,22185,1,0,0:0:0:0:
210,97,22785,1,0,0:0:0:0:
179,89,23585,1,2,0:0:0:0:
185,117,23985,1,2,0:0:0:0:
155,163,24785,5,0,0:0:0:0:
152,232,26385,1,0,0:0:0:0:
154,186,27185,1,2,0:0:0:0:
142,191,27785,1,2,0:0:0:0:
142,191,28585,1,0,0:0:0:0:
156,142,29185,1,2,0:0:0:0:
149,130,29985,1,2,0:0:0:0:
149,130,30385,1,0,0:0:0:0:
197,209,30985,1,0,0:0:0:0:
201,199,31785,1,0,0:0:0:0:
201,199,32385,1,0,0:0:0:0:
206,112,33185,1,0,0:0:0:0:
181,139,33585,1,2,0:0:0:0:
128,205,34185,1,2,0:0:0:0:
180,158,34985,1,2,0:0:0:0:
161,92,35585,1,2,0:0:0:0:
191,107,36385,1,2,0:0:0:0:
191,107,36785,1,0,0:0:0:0:
166,107,37385,1,0,0:0:0:0:
192,64,38185,1,0,0:0:0:0:
64,64,38785,1,2,0:0:0:0:
187,117,39585,1,2,0:0:0:0:
187,117,39985,1,0,0:0:0:0:
187,143,40585,1,0,0:0:0:0:
222,153,41385,1,0,0:0:0:0:
205,147,41985,1,0,0:0:0:0:
192,96,43185,1,2,0:0:0:0:
169,124,43785,1,0,0:0:0:0:
224,130,44585,1,0,0:0:0:0:
228,128,45185,1,0,0:0:0:0:
228,128,45985,1,2,0:0:0:0:
228,128,46385,1,0,0:0:0:0:
168,143,47785,1,0,0:0:0:0:
168,143,48385,1,0,0:0:0:0:
186,154,49185,1,2,0:0:0:0:
186,154,49585,1,2,0:0:0:0:
184,157,50385,1,0,0:0:0:0:
228,117,52785,1,0,0:0:0:0:
180,201,57585,5,8,0:0:0:0:
180,201,57985,1,8,0:0:0:0:
180,201,58385,1,8,0:0:0:0:
180,201,58785,1,8,0:0:0:0:
180,201,59185,1,0,0:0:0:0:
185,168,59785,1,2,0:0:0:0:
185,168,60585,1,0,0:0:0:0:
191,145,61585,1,2,0:0:0:0:
191,145,62385,1,0,0:0:0:0:
191,145,62985,1,2,0:0:0:0:
166,165,63785,1,0,0:0:0:0:
166,165,64785,1,2,0:0:0:0:
180,177,65585,1,4,0:0:0:0:
180,177,66185,1,4,0:0:0:0:
177,172,66985,1,4,0:0:0:0:
189,162,67985,1,12,0:0:0:0:
218,193,68785,1,12,0:0:0:0:
220,183,69385,1,12,0:0:0:0:
220,183,70185,1,12,0:0:0:0:
142,122,71185,1,0,0:0:0:0:
195,161,71985,1,0,0:0:0:0:
187,141,72585,1,2,0:0:0:0:
201,171,73385,1,0,0:0:0:0:
217,153,73985,1,2,0:0:0:0:
217,153,74385,1,0,0:0:0:0:
182,141,75185,1,2,0:0:0:0:
188,141,75785,1,0,0:0:0:0:
204,91,76585,1,2,0:0:0:0:
203,105,77185,1,0,0:0:0:0:
204,107,77585,1,2,0:0:0:0:
174,174,78385,1,4,0:0:0:0:
179,188,81585,1,0,0:0:0:0:
224,192,82185,1,0,0:0:0:0:
224,160,82985,1,0,0:0:0:0:
224,160,83585,1,0,0:0:0:0:
224,96,84385,1,2,0:0:0:0:
224,96,84785,1,4,0:0:0:0:
224,160,86385,1,0,0:0:0:0:
192,160,87985,1,0,0:0:0:0:
192,64,88385,1,2,0:0:0:0:
192,64,89385,1,0,0:0:0:0:
192,160,89985,1,0,0:0:0:0:
192,96,90785,1,2,0:0:0:0:
192,96,91185,1,2,0:0:0:0:
192,96,91785,1,0,0:0:0:0:
192,96,92585,1,0,0:0:0:0:
192,224,93185,1,2,0:0:0:0:
224,96,93985,1,2,0:0:0:0:
192,96,94385,1,0,0:0:0:0:
224,96,94985,1,0,0:0:0:0:
224,96,95785,1,0,0:0:0:0:
224,96,96385,1,0,0:0:0:0:
224,96,97585,1,8,0:0:0:0:
192,128,98185,1,0,0:0:0:0:
192,128,98985,1,0,0:0:0:0:
192,128,99585,1,0,0:0:0:0:
192,128,100385,1,2,0:0:0:0:
192,128,100785,1,0,0:0:0:0:
192,128,102185,1,0,0:0:0:0:
192,160,102785,1,0,0:0:0:0:
192,128,103585,1,2,0:0:0:0:
192,128,103985,1,2,0:0:0:0:
192,128,104785,1,0,0:0:0:0:
192,128,106385,1,0,0:0:0:0:
288,288,107185,1,2,0:0:0:0:
224,160,107785,1,2,0:0:0:0:
224,160,108585,1,0,0:0:0:0:
192,128,109185,1,2,0:0:0:0:
224,192,109985,1,2,0:0:0:0:
224,192,110385,1,0,0:0:0:0:
224,192,110985,1,0,0:0:0:0:
224,192,111785,1,0,0:0:0:0:
224,192,112385,1,0,0:0:0:0:
224,160,113185,1,0,0:0:0:0:
192,128,113585,1,2,0:0:0:0:
192,128,114185,1,2,0:0:0:0:
192,128,114985,1,2,0:0:0:0:
192,128,115585,1,2,0:0:0:0:
192,128,116385,1,2,0:0:0:0:
192,128,116785,1,0,0:0:0:0:
192,288,117385,1,0,0:0:0:0:
256,320,118185,1,0,0:0:0:0:
261,227,118785,1,2,0:0:0:0:
192,128,119585,1,2,0:0:0:0:
187,117,119985,1,0,0:0:0:0:
187,143,120585,1,0,0:0:0:0:
222,153,121385,1,0,0:0:0:0:
205,147,121985,1,0,0:0:0:0:
192,96,123185,1,2,0:0:0:0:
169,124,123785,1,0,0:0:0:0:
224,130,124585,1,0,0:0:0:0:
228,128,125185,1,0,0:0:0:0:
228,128,125985,1,2,0:0:0:0:
228,128,126385,1,0,0:0:0:0:
168,143,127785,1,0,0:0:0:0:
168,143,128385,1,0,0:0:0:0:
186,154,129185,1,2,0:0:0:0:
186,154,129585,1,2,0:0:0:0:
184,157,130385,1,0,0:0:0:0:
