osu file format v14

[General]
AudioFilename: audio.mp3
AudioLeadIn: 0
PreviewTime: 14385
Countdown: 0
SampleSet: Normal
StackLeniency: 0.7
Mode: 1
LetterboxInBreaks: 0
WidescreenStoryboard: 1

[Editor]
Bookmarks: 1585,27185,52785,81585,107185,132785
DistanceSpacing: 0.8
BeatDivisor: 4
GridSize: 32
TimelineZoom: 1.5

[Metadata]
Title:SPIRAL
TitleUnicode:SPIRAL
Artist:METAROOM
ArtistUnicode:METAROOM
Creator:Ulqui
Version:FUTSUU
Source:
Tags:electronic instrumental glitchcore woosungko TWC2022 GF HD2
BeatmapID:3656811
BeatmapSetID:1783072

[Difficulty]
HPDrainRate:6
CircleSize:7
OverallDifficulty:4
ApproachRate:10
SliderMultiplier:1.2
SliderTickRate:1

[Events]
//Background and Video events
0,0,"spiral.JPG",0,0
//Break Periods
2,52985,57135
//Storyboard Layer 0 (Background)
//Storyboard Layer 1 (Fail)
//Storyboard Layer 2 (Pass)
//Storyboard Layer 3 (Foreground)
//Storyboard Layer 4 (Overlay)
//Storyboard Sound Samples

[TimingPoints]
1585,400,4,1,0,100,1,0
1585,-100,4,1,0,100,0,0
4285,-100,4,1,0,100,0,0
4685,-100,4,1,0,100,0,0
7485,-99.9999999999999,4,1,0,100,0,0
7885,-100,4,1,0,100,0,0
10685,-99.9999999999999,4,1,0,100,0,0
11085,-100,4,1,0,100,0,0
12685,-99.9999999999999,4,1,0,100,0,0
13085,-125,4,1,0,100,0,0
13985,-111.111111111111,4,1,0,100,0,0
14385,-100,4,1,0,100,0,0
17485,-111.111111111111,4,1,0,100,0,0
17685,-100,4,1,0,100,0,0
20285,-100,4,1,0,100,0,0
20784,-100,4,1,0,100,0,0
20984,-100.502512562814,4,1,0,100,0,0
21184,-101.010101010101,4,1,0,100,0,0
21984,-103.092783505155,4,1,0,100,0,0
22184,-103.626943005181,4,1,0,100,0,0
22384,-104.166666666667,4,1,0,100,0,0
22584,-104.712041884817,4,1,0,100,0,0
22784,-105.263157894737,4,1,0,100,0,0
23184,-106.382978723404,4,1,0,100,0,0
23384,-106.951871657754,4,1,0,100,0,0
23584,-107.52688172043,4,1,0,100,0,0
23984,-108.695652173913,4,1,0,100,0,0
24784,-111.111111111111,4,1,0,100,0,0
25584,-125,4,1,0,100,0,0
26385,-105.263157894737,4,1,0,100,0,0
27185,-100,4,1,0,100,0,0
29885,-99.9999999999999,4,1,0,100,0,0
30285,-100,4,1,0,100,0,0
33085,-99.9999999999999,4,1,0,100,0,0
33485,-90.9090909090909,4,1,0,100,0,0
36285,-90.9090909090909,4,1,0,100,0,0
36685,-100,4,1,0,100,0,0
38285,-99.9999999999999,4,1,0,100,0,0
38685,-125,4,1,0,100,0,0
39535,-111.111111111111,4,1,0,100,0,0
39935,-100,4,1,0,100,0,0
43085,-111.111111111111,4,1,0,100,0,0
43585,-100,4,1,0,100,0,0
45885,-99.9999999999999,4,1,0,100,0,0
46085,-100,4,1,0,100,0,0
46335,-100,4,1,0,100,0,0
46584,-100.502512562814,4,1,0,100,0,0
46784,-101.010101010101,4,1,0,100,0,0
47584,-103.092783505155,4,1,0,100,0,0
47735,-103.626943005181,4,1,0,100,0,0
47935,-104.166666666667,4,1,0,100,0,0
48184,-104.712041884817,4,1,0,100,0,0
48335,-105.263157894737,4,1,0,100,0,0
48784,-106.382978723404,4,1,0,100,0,0
48984,-106.951871657754,4,1,0,100,0,0
49135,-107.52688172043,4,1,0,100,0,0
49535,-108.695652173913,4,1,0,100,0,0
50335,-111.111111111111,4,1,0,100,0,0
51135,-125,4,1,0,100,0,0
51936,-117.64705882353,4,1,0,100,0,0
52735,-125,4,1,0,100,0,0
57535,-121.951219512195,4,1,0,100,0,0
57935,-119.047619047619,4,1,0,100,0,0
58335,-116.279069767442,4,1,0,100,0,0
58735,-113.636363636364,4,1,0,100,0,0
59135,-111.111111111111,4,1,0,100,0,0
65584,-100,4,1,0,100,0,0
66184,-94.1176470588235,4,1,0,100,0,0
66984,-87.2727272727273,4,1,0,100,0,0
67184,-85.7142857142857,4,1,0,100,0,0
67984,-80,4,1,0,100,0,0
68784,-75,4,1,0,100,0,0
69384,-71.6417910447761,4,1,0,100,0,0
70184,-67.6056338028169,4,1,0,100,0,0
70384,-100,4,1,0,100,0,0
71135,-111.111111111111,4,1,0,100,0,0
71985,-90.9090909090909,4,1,0,100,0,1
72384,-91.9540229885057,4,1,0,100,0,1
72584,-92.485549132948,4,1,0,100,0,1
72984,-93.5672514619883,4,1,0,100,0,1
73184,-94.1176470588235,4,1,0,100,0,1
73384,-94.6745562130177,4,1,0,100,0,1
73584,-95.2380952380952,4,1,0,100,0,1
73784,-95.8083832335329,4,1,0,100,0,1
73984,-96.3855421686747,4,1,0,100,0,1
74384,-97.5609756097561,4,1,0,100,0,1
75184,-100,4,1,0,100,0,1
75584,-101.26582278481,4,1,0,100,0,1
75784,-101.910828025478,4,1,0,100,0,1
76184,-103.225806451613,4,1,0,100,0,1
76384,-103.896103896104,4,1,0,100,0,1
76584,-104.575163398693,4,1,0,100,0,1
76784,-105.263157894737,4,1,0,100,0,1
76984,-105.960264900662,4,1,0,100,0,1
77184,-106.666666666667,4,1,0,100,0,1
77584,-108.108108108108,4,1,0,100,0,1
78385,-111.111111111111,4,1,0,100,0,0
79885,-125,4,1,0,100,0,0
81085,-111.111111111111,4,1,0,100,0,0
81285,-105.263157894737,4,1,0,100,0,0
81535,-100,4,1,0,100,0,0
84285,-99.9999999999999,4,1,0,100,0,0
84685,-90.9090909090909,4,1,0,100,0,0
85985,-100,4,1,0,100,0,0
86085,-111.111111111111,4,1,0,100,0,0
87485,-99.9999999999999,4,1,0,100,0,0
87885,-100,4,1,0,100,0,0
90685,-99.9999999999999,4,1,0,100,0,0
91085,-100,4,1,0,100,0,0
92685,-99.9999999999999,4,1,0,100,0,0
93085,-125,4,1,0,100,0,0
93935,-111.111111111111,4,1,0,100,0,0
94335,-100,4,1,0,100,0,0
97485,-111.111111111111,4,1,0,100,0,0
97685,-100,4,1,0,100,0,0
100285,-99.9999999999999,4,1,0,100,0,0
100735,-100,4,1,0,100,0,0
100984,-100.502512562814,4,1,0,100,0,0
101184,-101.010101010101,4,1,0,100,0,0
101984,-103.092783505155,4,1,0,100,0,0
102135,-103.626943005181,4,1,0,100,0,0
102335,-104.166666666667,4,1,0,100,0,0
102584,-104.712041884817,4,1,0,100,0,0
102735,-105.263157894737,4,1,0,100,0,0
103184,-106.382978723404,4,1,0,100,0,0
103384,-106.951871657754,4,1,0,100,0,0
103535,-107.52688172043,4,1,0,100,0,0
103935,-108.695652173913,4,1,0,100,0,0
104735,-111.111111111111,4,1,0,100,0,0
105535,-125,4,1,0,100,0,0
106336,-105.263157894737,4,1,0,100,0,0
107135,-100,4,1,0,100,0,0
109885,-99.9999999999999,4,1,0,100,0,0
110285,-100,4,1,0,100,0,0
113085,-99.9999999999999,4,1,0,100,0,0
113485,-90.9090909090909,4,1,0,100,0,0
116285,-90.9090909090909,4,1,0,100,0,0
116685,-100,4,1,0,100,0,0
118285,-100,4,1,0,100,0,0
118685,-125,4,1,0,100,0,0
119535,-111.111111111111,4,1,0,100,0,0
119935,-100,4,1,0,100,0,0
123085,-111.111111111111,4,1,0,100,0,0
123285,-100,4,1,0,100,0,0
125885,-99.9999999999999,4,1,0,100,0,0
126335,-100,4,1,0,100,0,0
126584,-100.502512562814,4,1,0,100,0,0
126784,-101.010101010101,4,1,0,100,0,0
127584,-103.092783505155,4,1,0,100,0,0
127735,-103.626943005181,4,1,0,100,0,0
127935,-104.166666666667,4,1,0,100,0,0
128184,-104.712041884817,4,1,0,100,0,0
128335,-105.263157894737,4,1,0,100,0,0
128784,-106.382978723404,4,1,0,100,0,0
128984,-106.951871657754,4,1,0,100,0,0
129135,-107.52688172043,4,1,0,100,0,0
129535,-108.695652173913,4,1,0,100,0,0
130335,-111.111111111111,4,1,0,100,0,0
131135,-125,4,1,0,100,0,0
131936,-105.263157894737,4,1,0,100,0,0
132735,-125,4,1,0,100,0,0

[HitObjects]
187,217,1585,5,0,0:0:0:0:
182,48,1985,1,2,0:0:0:0:
187,217,2185,1,0,0:0:0:0:
171,57,2585,1,2,0:0:0:0:
171,57,2785,1,2,0:0:0:0:
187,217,2985,1,0,0:0:0:0:
151,69,3385,1,2,0:0:0:0:
175,194,3585,1,0,0:0:0:0:
175,194,4385,1,2,0:0:0:0:
175,194,4785,1,2,0:0:0:0:
201,208,5185,1,2,0:0:0:0:
201,208,5385,1,0,0:0:0:0:
154,82,5785,1,0,0:0:0:0:
154,82,5985,1,2,0:0:0:0:
154,82,6185,1,0,0:0:0:0:
154,82,6585,1,2,0:0:0:0:
154,82,6785,1,0,0:0:0:0:
188,90,7585,1,2,0:0:0:0:
188,90,7985,1,0,0:0:0:0:
225,38,8185,1,0,0:0:0:0:
188,90,8385,1,2,0:0:0:0:
197,46,8985,1,2,0:0:0:0:
188,90,9185,1,2,0:0:0:0:
188,90,9385,1,0,0:0:0:0:
188,90,9785,1,0,0:0:0:0:
188,90,9985,1,2,0:0:0:0:
170,45,10785,1,2,0:0:0:0:
196,94,11185,5,0,0:0:0:0:
191,123,11585,1,2,0:0:0:0:
191,123,11785,1,0,0:0:0:0:
191,123,12185,1,0,0:0:0:0:
191,123,12385,1,2,0:0:0:0:
191,123,12585,1,0,0:0:0:0:
191,123,13185,1,2,0:0:0:0:
217,92,13985,1,2,0:0:0:0:
217,92,14385,1,0,0:0:0:0:
199,135,14785,1,2,0:0:0:0:
199,135,14985,1,0,0:0:0:0:
199,135,15385,1,2,0:0:0:0:
199,135,15585,1,2,0:0:0:0:
169,99,15785,1,0,0:0:0:0:
144,81,16185,1,2,0:0:0:0:
144,81,16385,1,0,0:0:0:0:
166,90,16785,1,2,0:0:0:0:
174,76,17585,1,2,0:0:0:0:
174,76,18185,1,0,0:0:0:0:
176,107,18585,1,2,0:0:0:0:
176,107,18785,1,2,0:0:0:0:
176,107,18985,1,0,0:0:0:0:
176,107,19385,1,2,0:0:0:0:
176,107,19585,1,0,0:0:0:0:
178,52,20385,1,2,0:0:0:0:
178,52,20785,1,0,0:0:0:0:
178,52,20985,1,0,0:0:0:0:
178,52,21185,1,2,0:0:0:0:
142,208,21985,1,2,0:0:0:0:
175,106,22185,1,0,0:0:0:0:
212,69,22585,1,2,0:0:0:0:
160,124,22785,1,2,0:0:0:0:
286,49,23185,1,0,0:0:0:0:
186,72,23385,1,2,0:0:0:0:
187,96,23585,1,2,0:0:0:0:
187,96,23985,1,2,0:0:0:0:
187,96,24785,1,0,0:0:0:0:
192,162,26385,1,0,0:0:0:0:
151,232,27185,1,2,0:0:0:0:
154,187,27585,1,0,0:0:0:0:
154,187,27785,1,2,0:0:0:0:
156,189,28185,1,0,0:0:0:0:
156,189,28385,1,2,0:0:0:0:
154,187,28585,1,2,0:0:0:0:
156,189,28985,1,2,0:0:0:0:
154,187,29185,1,0,0:0:0:0:
179,204,29985,1,2,0:0:0:0:
179,204,30385,1,0,0:0:0:0:
174,203,30785,1,2,0:0:0:0:
175,204,30985,1,0,0:0:0:0:
174,203,31385,1,2,0:0:0:0:
174,203,31585,1,2,0:0:0:0:
174,203,31785,1,0,0:0:0:0:
174,203,32185,1,2,0:0:0:0:
174,203,32385,1,0,0:0:0:0:
174,203,33185,1,2,0:0:0:0:
174,86,33585,1,2,0:0:0:0:
174,86,33985,1,0,0:0:0:0:
174,86,34185,1,2,0:0:0:0:
174,86,34585,1,0,0:0:0:0:
174,86,34785,1,2,0:0:0:0:
174,86,34985,1,2,0:0:0:0:
206,84,35385,1,0,0:0:0:0:
206,84,35585,1,2,0:0:0:0:
189,116,36385,1,2,0:0:0:0:
189,116,36785,1,0,0:0:0:0:
186,118,37185,1,2,0:0:0:0:
186,117,37385,1,0,0:0:0:0:
186,117,37785,1,0,0:0:0:0:
186,118,37985,1,2,0:0:0:0:
186,118,38185,1,0,0:0:0:0:
186,117,38785,1,2,0:0:0:0:
171,82,39585,1,2,0:0:0:0:
217,92,39985,1,0,0:0:0:0:
199,135,40385,1,2,0:0:0:0:
199,135,40585,1,0,0:0:0:0:
199,135,40985,1,2,0:0:0:0:
199,135,41185,1,2,0:0:0:0:
169,99,41385,1,0,0:0:0:0:
144,81,41785,1,2,0:0:0:0:
144,81,41985,1,0,0:0:0:0:
166,90,42385,1,2,0:0:0:0:
174,76,43185,1,2,0:0:0:0:
174,76,43785,1,0,0:0:0:0:
176,107,44185,1,0,0:0:0:0:
176,107,44385,1,2,0:0:0:0:
176,107,44585,1,0,0:0:0:0:
176,107,44985,1,2,0:0:0:0:
176,107,45185,1,0,0:0:0:0:
178,52,45985,1,2,0:0:0:0:
178,52,46385,1,0,0:0:0:0:
178,52,46585,1,0,0:0:0:0:
178,52,46785,1,2,0:0:0:0:
142,208,47585,1,2,0:0:0:0:
175,106,47785,1,0,0:0:0:0:
212,69,48185,1,2,0:0:0:0:
160,124,48385,1,2,0:0:0:0:
286,49,48785,1,0,0:0:0:0:
186,72,48985,1,2,0:0:0:0:
187,96,49185,1,2,0:0:0:0:
187,96,49585,1,2,0:0:0:0:
187,96,50385,1,0,0:0:0:0:
206,117,52785,1,0,0:0:0:0:
131,205,57585,5,2,0:0:0:0:
131,205,57985,1,2,0:0:0:0:
131,205,58385,1,2,0:0:0:0:
131,205,58785,1,2,0:0:0:0:
131,205,59185,1,0,0:0:0:0:
169,286,59785,1,2,0:0:0:0:
175,63,60585,1,0,0:0:0:0:
189,139,61585,1,2,0:0:0:0:
173,133,62385,1,0,0:0:0:0:
173,133,62985,1,2,0:0:0:0:
173,133,63785,1,0,0:0:0:0:
181,77,64785,1,2,0:0:0:0:
181,77,65585,1,4,0:0:0:0:
181,77,66185,1,4,0:0:0:0:
181,77,66985,1,4,0:0:0:0:
181,77,67985,1,6,0:0:0:0:
181,77,68785,1,6,0:0:0:0:
181,77,69385,1,6,0:0:0:0:
181,77,70185,1,6,0:0:0:0:
181,77,71185,1,0,0:0:0:0:
176,103,71985,1,0,0:0:0:0:
157,159,72385,1,2,0:0:0:0:
157,159,72585,1,0,0:0:0:0:
157,159,72985,1,0,0:0:0:0:
157,159,73185,1,2,0:0:0:0:
157,159,73385,1,0,0:0:0:0:
157,159,73785,1,0,0:0:0:0:
157,159,73985,1,2,0:0:0:0:
175,135,74385,1,0,0:0:0:0:
175,135,75185,1,2,0:0:0:0:
175,135,75585,1,0,0:0:0:0:
175,135,75785,1,2,0:0:0:0:
175,135,76185,1,2,0:0:0:0:
175,135,76385,1,0,0:0:0:0:
213,103,76585,1,2,0:0:0:0:
213,103,76985,1,2,0:0:0:0:
213,103,77185,1,0,0:0:0:0:
213,103,77585,1,2,0:0:0:0:
185,112,78385,1,4,0:0:0:0:
200,176,81185,1,2,0:0:0:0:
200,176,81385,1,0,0:0:0:0:
187,217,81585,5,0,0:0:0:0:
182,48,81985,1,2,0:0:0:0:
187,217,82185,1,0,0:0:0:0:
171,57,82585,1,2,0:0:0:0:
171,57,82785,1,2,0:0:0:0:
187,217,82985,1,0,0:0:0:0:
151,69,83385,1,2,0:0:0:0:
175,194,83585,1,0,0:0:0:0:
175,194,84385,1,2,0:0:0:0:
175,194,84785,1,4,0:0:0:0:
191,78,85985,1,2,0:0:0:0:
171,32,86385,1,0,0:0:0:0:
188,90,87585,1,2,0:0:0:0:
188,90,87985,1,0,0:0:0:0:
225,38,88185,1,0,0:0:0:0:
188,90,88385,1,2,0:0:0:0:
197,46,88985,1,2,0:0:0:0:
188,90,89185,1,2,0:0:0:0:
188,90,89385,1,0,0:0:0:0:
188,90,89785,1,0,0:0:0:0:
188,90,89985,1,2,0:0:0:0:
170,45,90785,1,2,0:0:0:0:
196,94,91185,5,0,0:0:0:0:
191,123,91585,1,2,0:0:0:0:
191,123,91785,1,0,0:0:0:0:
191,123,92185,1,0,0:0:0:0:
191,123,92385,1,2,0:0:0:0:
191,123,92585,1,0,0:0:0:0:
191,123,93185,1,2,0:0:0:0:
217,92,93985,1,2,0:0:0:0:
217,92,94385,1,0,0:0:0:0:
186,42,94585,1,2,0:0:0:0:
199,135,94985,1,0,0:0:0:0:
199,135,95385,1,0,0:0:0:0:
199,135,95585,1,2,0:0:0:0:
169,99,95785,1,0,0:0:0:0:
144,81,96185,1,2,0:0:0:0:
144,81,96385,1,0,0:0:0:0:
188,64,96785,1,2,0:0:0:0:
174,76,97585,1,2,0:0:0:0:
174,76,98185,1,0,0:0:0:0:
176,107,98585,1,2,0:0:0:0:
176,107,98785,1,2,0:0:0:0:
176,107,98985,1,0,0:0:0:0:
176,107,99385,1,2,0:0:0:0:
176,107,99585,1,0,0:0:0:0:
178,52,100385,1,2,0:0:0:0:
178,52,100785,1,0,0:0:0:0:
178,52,100985,1,0,0:0:0:0:
178,52,101185,1,2,0:0:0:0:
142,208,101985,1,2,0:0:0:0:
175,106,102185,1,0,0:0:0:0:
212,69,102585,1,2,0:0:0:0:
160,124,102785,1,2,0:0:0:0:
286,49,103185,1,0,0:0:0:0:
186,72,103385,1,2,0:0:0:0:
187,96,103585,1,2,0:0:0:0:
187,96,103985,1,2,0:0:0:0:
187,96,104785,1,0,0:0:0:0:
192,162,106385,1,0,0:0:0:0:
151,232,107185,1,2,0:0:0:0:
154,187,107585,1,0,0:0:0:0:
154,187,107785,1,2,0:0:0:0:
156,189,108185,1,0,0:0:0:0:
156,189,108385,1,2,0:0:0:0:
154,187,108585,1,2,0:0:0:0:
156,189,108985,1,2,0:0:0:0:
154,187,109185,1,0,0:0:0:0:
179,204,109985,1,2,0:0:0:0:
179,204,110385,1,0,0:0:0:0:
174,203,110785,1,2,0:0:0:0:
175,204,110985,1,0,0:0:0:0:
174,203,111385,1,2,0:0:0:0:
174,203,111585,1,2,0:0:0:0:
174,203,111785,1,0,0:0:0:0:
174,203,112185,1,2,0:0:0:0:
174,203,112385,1,0,0:0:0:0:
174,203,113185,1,2,0:0:0:0:
174,86,113585,1,0,0:0:0:0:
174,86,113985,1,2,0:0:0:0:
182,47,114185,1,2,0:0:0:0:
168,31,114385,1,0,0:0:0:0:
186,72,114785,1,2,0:0:0:0:
194,43,114985,1,2,0:0:0:0:
194,43,115185,1,0,0:0:0:0:
206,84,115585,1,2,0:0:0:0:
189,116,116385,1,2,0:0:0:0:
189,116,116785,1,0,0:0:0:0:
186,118,117185,1,2,0:0:0:0:
186,117,117385,1,0,0:0:0:0:
186,117,117785,1,0,0:0:0:0:
186,118,117985,1,2,0:0:0:0:
186,118,118185,1,0,0:0:0:0:
186,117,118785,1,2,0:0:0:0:
171,82,119585,1,2,0:0:0:0:
217,92,119985,1,0,0:0:0:0:
199,135,120385,1,2,0:0:0:0:
199,135,120585,1,0,0:0:0:0:
199,135,120985,1,2,0:0:0:0:
199,135,121185,1,2,0:0:0:0:
169,99,121385,1,0,0:0:0:0:
144,81,121785,1,2,0:0:0:0:
144,81,121985,1,0,0:0:0:0:
166,90,122385,1,2,0:0:0:0:
174,76,123185,1,2,0:0:0:0:
174,76,123785,1,0,0:0:0:0:
176,107,124185,1,0,0:0:0:0:
176,107,124385,1,2,0:0:0:0:
176,107,124585,1,0,0:0:0:0:
176,107,124985,1,2,0:0:0:0:
176,107,125185,1,0,0:0:0:0:
178,52,125985,1,2,0:0:0:0:
178,52,126385,1,0,0:0:0:0:
178,52,126585,1,0,0:0:0:0:
178,52,126785,1,2,0:0:0:0:
142,208,127585,1,2,0:0:0:0:
175,106,127785,1,0,0:0:0:0:
212,69,128185,1,2,0:0:0:0:
160,124,128385,1,2,0:0:0:0:
286,49,128785,1,0,0:0:0:0:
186,72,128985,1,2,0:0:0:0:
187,96,129185,1,2,0:0:0:0:
187,96,129585,1,2,0:0:0:0:
187,96,130385,1,0,0:0:0:0:
