osu file format v14

[General]
AudioFilename: audio.mp3
AudioLeadIn: 0
PreviewTime: 85616
Countdown: 0
SampleSet: Normal
StackLeniency: 0.7
Mode: 1
LetterboxInBreaks: 0
WidescreenStoryboard: 0

[Editor]
DistanceSpacing: 1
BeatDivisor: 8
GridSize: 32
TimelineZoom: 2.599999

[Metadata]
Title:SPIKEY BOI
TitleUnicode:SPIKEY BOI
Artist:METAROOM
ArtistUnicode:METAROOM
Creator:Nifty
Version:WATCH OUT
Source:
Tags:sweet genesis nothing world mafti electronic instrumental breakcore glitchcore
BeatmapID:2934173
BeatmapSetID:1424830

[Difficulty]
HPDrainRate:5
CircleSize:2
OverallDifficulty:6.5
ApproachRate:10
SliderMultiplier:1.4
SliderTickRate:1

[Events]
//Background and Video events
0,0,"shred.jpg",0,-80
//Break Periods
//Storyboard Layer 0 (Background)
//Storyboard Layer 1 (Fail)
//Storyboard Layer 2 (Pass)
//Storyboard Layer 3 (Foreground)
//Storyboard Layer 4 (Overlay)
//Storyboard Sound Samples

[TimingPoints]
-15,329.67032967033,3,1,0,80,1,0
15,-125,3,1,0,80,0,0
3941,-111.111111111111,3,1,0,80,0,0
7897,-83.3333333333333,3,1,0,80,0,1
11358,-83.3333333333333,3,1,0,80,0,0
11853,-83.3333333333333,3,1,0,80,0,1
15314,-83.3333333333333,3,1,0,80,0,0
15809,-83.3333333333333,3,1,0,80,0,1
19270,-83.3333333333333,3,1,0,80,0,0
19765,-83.3333333333333,3,1,0,80,0,1
21743,-83.3333333333333,3,1,0,80,0,0
22732,-111.111111111111,3,1,0,80,0,0
23061,-125,3,1,0,70,0,0
23144,-123.0964670083,3,1,0,70,0,0
23226,-121.250039406263,3,1,0,70,0,0
23309,-119.458185454055,3,1,0,70,0,0
23391,-117.71838231399,3,1,0,70,0,0
23474,-116.028663721086,3,1,0,70,0,0
23556,-114.38676682372,3,1,0,70,0,0
23638,-112.790689805301,3,1,0,70,0,0
23721,329.67032967033,4,1,0,60,1,0
23721,-111.238541039791,3,1,0,60,0,0
34352,-125.161301627472,3,1,0,50,0,0
39545,-111.238541039791,3,1,0,60,0,0
44819,-90.9943774574168,3,1,0,80,0,0
52731,-90.9090909090909,3,1,0,80,0,0
52814,-91.6885267395835,3,1,0,80,0,0
52979,-93.2881072589342,3,1,0,80,0,0
53061,-94.1090554556431,3,1,0,80,0,0
53144,-94.9444907035102,3,1,0,80,0,0
53226,-95.7949834083089,3,1,0,80,0,0
53391,-97.542418759358,3,1,0,80,0,0
53556,-99.3547899937804,3,1,0,80,0,0
53638,-100.286518583593,3,1,0,80,0,0
53721,-101.235887717252,3,1,0,80,0,0
53803,-102.203298713669,3,1,0,80,0,0
53885,-103.189483753332,3,1,0,80,0,0
54050,-105.219962331253,3,1,0,80,0,0
54215,-107.332068246022,3,1,0,80,0,0
54297,-108.420123642309,3,1,0,80,0,0
54380,-109.530584772839,3,1,0,80,0,0
54545,-111.821050536406,3,1,0,80,0,0
54627,-113.00264991214,3,1,0,80,0,0
54710,-114.209487610555,3,1,0,80,0,0
54792,-115.44224770674,3,1,0,80,0,0
54874,-116.702046837199,3,1,0,80,0,0
55039,-119.305830953182,3,1,0,80,0,0
55122,-120.651857857633,3,1,0,80,0,0
55204,-122.028454595042,3,1,0,80,0,0
55369,-124.878399658333,3,1,0,80,0,0
55699,-76.8770098533265,3,1,0,80,0,0
56028,-83.2792712064418,3,1,0,80,0,0
66004,-124.878399658333,3,1,0,70,0,0
71193,-125,3,1,0,80,0,0
71523,-121.216969890917,3,1,0,80,0,0
71688,-119.409971449076,3,1,0,80,0,0
71770,-118.526525643806,3,1,0,80,0,0
71935,-116.798278860563,3,1,0,80,0,0
72017,-115.952918476982,3,1,0,80,0,0
72182,-114.298515719475,3,1,0,80,0,0
72512,-111.127162812406,3,1,0,80,0,0
72594,-110.361632999011,3,1,0,80,0,0
72677,-109.606578148394,3,1,0,80,0,0
72841,-108.127161867443,3,1,0,80,0,0
73006,-106.687036778222,3,1,0,80,0,0
73171,-105.284768978896,3,1,0,80,0,0
73336,-103.918885075066,3,1,0,80,0,0
73418,-103.249147420165,3,1,0,80,0,0
73501,-102.58809239494,3,1,0,80,0,0
73583,-101.935344449722,3,1,0,80,0,0
73666,-101.290850600047,3,1,0,80,0,0
73748,-100.654455268154,3,1,0,80,0,0
73830,-100.026006761758,3,1,0,80,0,0
73995,-98.7923621648963,3,1,0,80,0,0
74078,-98.1868810544485,3,1,0,80,0,0
74160,-97.5888717457771,3,1,0,80,0,0
74242,-96.9980086308828,3,1,0,80,0,0
74325,-96.4142573547206,3,1,0,80,0,0
74407,-95.8374902844744,3,1,0,80,0,0
74490,-95.2675828232548,3,1,0,80,0,0
74572,-94.7044133203651,3,1,0,80,0,0
74655,-94.147862984732,3,1,0,80,0,0
74737,-93.5978158013705,3,1,0,80,0,0
74819,-93.0542450416045,3,1,0,80,0,0
74902,-92.5168658246398,3,1,0,80,0,0
74984,-91.9856575962676,3,1,0,80,0,0
75067,-91.4605146666081,3,1,0,80,0,0
75149,-90.9413337456007,3,1,0,80,0,0
75314,-89.9204563643002,3,1,0,80,0,0
75479,-88.9223236825935,3,1,0,80,0,0
75644,-87.946029280751,3,1,0,80,0,0
75808,-86.9909398936101,3,1,0,80,0,0
75891,-86.5211323539718,3,1,0,80,0,0
75973,-86.0563720870994,3,1,0,80,0,0
76056,-85.5966514589949,3,1,0,80,0,0
76138,-85.1417439753702,3,1,0,80,0,0
76221,-84.6916461854036,3,1,0,80,0,0
76303,-84.246282211566,3,1,0,70,0,0
76468,-83.3694600993764,3,1,0,60,0,0
76633,-84.6395329252015,3,1,0,60,0,0
76715,-85.3080730441845,3,1,0,60,0,0
76797,-85.9872584080491,3,1,0,60,0,0
76962,-87.3786747101649,3,1,0,60,0,0
77045,-88.0913683672705,3,1,0,60,0,0
77127,-88.8157836305406,3,1,0,60,0,0
77210,-89.5522120739665,3,1,0,60,0,0
77292,-90.3010365655987,3,1,0,60,0,0
77457,-91.8367253227831,3,1,0,60,0,0
77539,-92.6243250002316,3,1,0,60,0,0
77622,-93.4256378635425,3,1,0,60,0,0
77786,-95.0704091450128,3,1,0,60,0,0
77951,-96.774224765879,3,1,0,60,0,0
78116,-98.5401280036263,3,1,0,60,0,0
78281,-100.371777062239,3,1,0,60,0,0
78363,-101.313324627142,3,1,0,60,0,0
78446,-102.272704028931,3,1,0,60,0,0
78611,-104.247132422005,3,1,0,60,0,0
78693,-105.263157894737,3,1,0,60,0,0
78775,-106.299183303375,3,1,0,60,0,0
78858,-107.355920303259,3,1,0,60,0,0
78940,-108.433761068376,3,1,0,60,0,0
79105,-110.65570142436,3,1,0,60,0,0
79270,-112.970734931116,3,1,0,60,0,0
79352,-114.164895208043,3,1,0,60,0,0
79435,-115.384571005934,3,1,0,60,0,0
79600,-117.903950725581,3,1,0,60,0,0
79682,-119.205282224466,3,1,0,60,0,0
79764,-120.535660475152,3,1,0,60,0,0
79847,-121.896217560369,3,1,0,60,0,0
79929,-123.287688121601,3,1,0,60,0,0
80094,-126.168159446273,3,1,0,60,0,0
80177,-127.659628791331,3,1,0,60,0,0
80259,-129.186615233169,3,1,0,60,0,0
80424,-132.352863321845,3,1,0,60,0,0
80589,-135.678398777809,3,1,0,60,0,0
80753,-139.175164470251,3,1,0,60,0,0
80795,-140.381219238965,3,1,0,60,0,0
80836,-141.608359424674,3,1,0,60,0,0
80918,-142.857142857143,3,1,0,60,0,0
81742,-200,3,1,0,70,0,0
84339,-222.222222222222,3,1,0,50,0,0
85699,-250,3,1,0,50,0,0
87017,329.67032967033,3,1,0,80,1,1
87017,-83.3333333333333,3,1,0,80,0,1
98390,-83.3333333333333,3,1,0,80,0,0
98885,-83.3333333333333,3,1,0,80,0,1
100863,-83.3333333333333,3,1,0,80,0,0
101852,-111.111111111111,3,1,0,80,0,0
102841,329.67032967033,3,1,0,60,1,8
103170,-100,3,1,0,60,0,8
103253,-105.150259721142,3,1,0,60,0,8
103335,-110.859705933544,3,1,0,60,0,8
103417,-117.224911231436,3,1,0,60,0,8
103500,329.67032967033,4,1,0,60,1,0
103500,-124.365425416811,3,1,0,60,0,8
114049,-142.028911405206,3,1,0,50,0,8
119241,-124.365425416811,3,1,0,60,0,8
124598,-71.2209115991801,3,1,0,80,0,9
145697,-71.2209115991801,3,1,0,80,0,8
145984,-100,3,1,0,80,0,8

[HitObjects]
304,144,7897,5,0,0:0:0:0:
339,95,7979,1,0,0:0:0:0:
339,95,8061,1,8,0:0:0:0:
339,95,8144,1,0,0:0:0:0:
339,95,8226,1,8,0:0:0:0:
387,106,8309,1,8,0:0:0:0:
387,106,8391,1,0,0:0:0:0:
382,97,8474,1,8,0:0:0:0:
380,96,8556,1,0,0:0:0:0:
382,96,8638,1,0,0:0:0:0:
379,97,8721,1,8,0:0:0:0:
379,97,8803,1,8,0:0:0:0:
379,97,8886,1,0,0:0:0:0:
366,91,8968,1,8,0:0:0:0:
360,96,9050,1,0,0:0:0:0:
360,96,9133,1,0,0:0:0:0:
366,91,9215,1,8,0:0:0:0:
366,91,9298,1,8,0:0:0:0:
368,92,9380,1,0,0:0:0:0:
368,93,9463,1,8,0:0:0:0:
369,93,9545,1,0,0:0:0:0:
383,88,9627,1,0,0:0:0:0:
376,86,9710,1,8,0:0:0:0:
376,86,9792,1,8,0:0:0:0:
375,86,9875,1,0,0:0:0:0:
375,81,9957,1,0,0:0:0:0:
375,81,10039,1,8,0:0:0:0:
375,81,10122,1,0,0:0:0:0:
374,80,10204,1,8,0:0:0:0:
374,80,10259,1,8,0:0:0:0:
376,80,10314,1,0,0:0:0:0:
376,79,10369,1,0,0:0:0:0:
368,93,10452,1,8,0:0:0:0:
377,77,10534,1,0,0:0:0:0:
377,77,10616,1,0,0:0:0:0:
377,77,10699,1,8,0:0:0:0:
377,77,10781,1,8,0:0:0:0:
375,86,10864,1,0,0:0:0:0:
381,84,10946,1,8,0:0:0:0:
381,84,11028,1,8,0:0:0:0:
375,81,11111,1,0,0:0:0:0:
380,84,11193,1,8,0:0:0:0:
380,84,11276,1,8,0:0:0:0:
376,79,11358,1,0,0:0:0:0:
375,86,11523,1,0,0:0:0:0:
382,75,11688,1,8,0:0:0:0:
378,75,11770,1,8,0:0:0:0:
378,74,11853,1,0,0:0:0:0:
397,78,11935,1,0,0:0:0:0:
389,78,12017,1,8,0:0:0:0:
389,78,12100,1,0,0:0:0:0:
389,78,12182,1,8,0:0:0:0:
389,78,12265,1,8,0:0:0:0:
389,78,12347,1,0,0:0:0:0:
389,78,12430,1,8,0:0:0:0:
389,78,12512,1,0,0:0:0:0:
382,66,12594,1,0,0:0:0:0:
382,75,12677,1,8,0:0:0:0:
385,69,12759,1,8,0:0:0:0:
385,69,12842,1,0,0:0:0:0:
385,69,12924,1,8,0:0:0:0:
385,69,13006,1,0,0:0:0:0:
385,69,13089,1,0,0:0:0:0:
385,69,13171,1,8,0:0:0:0:
385,69,13254,1,8,0:0:0:0:
385,69,13336,1,0,0:0:0:0:
392,66,13419,1,8,0:0:0:0:
394,65,13501,1,0,0:0:0:0:
394,65,13583,1,0,0:0:0:0:
394,64,13666,1,8,0:0:0:0:
394,64,13748,1,8,0:0:0:0:
397,62,13831,1,0,0:0:0:0:
399,65,13913,1,0,0:0:0:0:
403,64,13995,1,8,0:0:0:0:
403,61,14078,1,0,0:0:0:0:
403,61,14160,1,8,0:0:0:0:
391,84,14202,1,8,0:0:0:0:
403,61,14243,1,8,0:0:0:0:
403,61,14325,1,0,0:0:0:0:
403,61,14408,1,8,0:0:0:0:
403,61,14490,1,0,0:0:0:0:
402,62,14572,1,0,0:0:0:0:
402,62,14655,1,8,0:0:0:0:
402,62,14737,1,8,0:0:0:0:
397,62,14820,1,0,0:0:0:0:
399,65,14902,1,8,0:0:0:0:
403,64,14985,1,0,0:0:0:0:
403,61,15067,1,0,0:0:0:0:
403,61,15149,1,8,0:0:0:0:
409,67,15232,1,8,0:0:0:0:
408,67,15314,1,0,0:0:0:0:
408,67,15479,1,0,0:0:0:0:
408,67,15561,1,8,0:0:0:0:
408,67,15644,1,8,0:0:0:0:
408,67,15726,1,0,0:0:0:0:
407,57,15809,1,8,0:0:0:0:
415,63,15891,1,0,0:0:0:0:
413,63,15974,1,0,0:0:0:0:
413,63,16056,1,0,0:0:0:0:
413,63,16138,1,8,0:0:0:0:
415,62,16221,1,8,0:0:0:0:
415,62,16303,1,0,0:0:0:0:
415,62,16386,1,8,0:0:0:0:
415,62,16468,1,0,0:0:0:0:
415,62,16550,1,0,0:0:0:0:
415,62,16633,1,8,0:0:0:0:
415,62,16715,1,8,0:0:0:0:
415,62,16798,1,0,0:0:0:0:
415,63,16880,1,8,0:0:0:0:
413,63,16963,1,8,0:0:0:0:
413,63,17045,1,0,0:0:0:0:
413,63,17127,1,0,0:0:0:0:
415,62,17210,1,8,0:0:0:0:
415,62,17292,1,0,0:0:0:0:
415,62,17375,1,8,0:0:0:0:
415,62,17457,1,0,0:0:0:0:
415,62,17539,1,0,0:0:0:0:
415,62,17622,1,8,0:0:0:0:
415,62,17704,1,8,0:0:0:0:
415,62,17787,1,0,0:0:0:0:
415,63,17869,1,0,0:0:0:0:
413,63,17952,1,8,0:0:0:0:
413,63,18034,1,0,0:0:0:0:
413,63,18116,1,8,0:0:0:0:
415,62,18199,1,8,0:0:0:0:
415,62,18281,1,0,0:0:0:0:
415,62,18364,1,8,0:0:0:0:
415,62,18446,1,0,0:0:0:0:
415,62,18528,1,0,0:0:0:0:
415,62,18611,1,8,0:0:0:0:
415,62,18693,1,8,0:0:0:0:
415,62,18776,1,0,0:0:0:0:
415,63,18858,1,8,0:0:0:0:
413,63,18941,1,0,0:0:0:0:
413,63,19023,1,0,0:0:0:0:
413,63,19105,1,8,0:0:0:0:
415,62,19188,1,8,0:0:0:0:
417,68,19353,1,8,0:0:0:0:
415,62,19517,1,0,0:0:0:0:
415,62,19600,1,0,0:0:0:0:
415,62,19682,1,0,0:0:0:0:
418,79,19765,1,8,0:0:0:0:
423,64,19847,1,0,0:0:0:0:
423,64,19930,1,0,0:0:0:0:
423,64,20012,1,8,0:0:0:0:
423,64,20094,1,8,0:0:0:0:
423,64,20177,1,0,0:0:0:0:
423,64,20259,1,8,0:0:0:0:
433,59,20342,1,0,0:0:0:0:
433,59,20424,1,8,0:0:0:0:
439,61,20506,1,8,0:0:0:0:
440,60,20589,1,0,0:0:0:0:
440,60,20671,1,0,0:0:0:0:
441,59,20754,1,8,0:0:0:0:
441,59,20836,1,0,0:0:0:0:
436,61,20919,1,8,0:0:0:0:
436,61,21001,1,8,0:0:0:0:
436,61,21083,1,0,0:0:0:0:
436,61,21166,1,8,0:0:0:0:
436,61,21248,1,0,0:0:0:0:
433,59,21331,1,0,0:0:0:0:
433,59,21413,1,8,0:0:0:0:
434,52,21495,1,8,0:0:0:0:
434,52,21578,1,0,0:0:0:0:
443,52,21660,1,0,0:0:0:0:
441,59,21743,1,8,0:0:0:0:
434,69,21784,1,8,0:0:0:0:
385,60,21825,1,8,0:0:0:0:
385,60,21908,1,0,0:0:0:0:
385,60,21990,1,0,0:0:0:0:
406,60,22072,1,8,0:0:0:0:
413,71,22155,1,8,0:0:0:0:
414,71,22237,1,0,0:0:0:0:
422,63,22732,1,8,0:0:0:0:
424,63,23061,1,0,0:0:0:0:
426,61,23144,1,0,0:0:0:0:
425,61,23226,1,8,0:0:0:0:
422,63,23309,1,0,0:0:0:0:
422,63,23391,1,0,0:0:0:0:
422,63,23474,1,8,0:0:0:0:
422,63,23556,1,0,0:0:0:0:
424,83,23638,1,8,0:0:0:0:
424,83,23721,1,0,0:0:0:0:
437,77,23885,1,0,0:0:0:0:
436,76,23968,1,0,0:0:0:0:
434,73,24050,1,8,0:0:0:0:
429,66,24215,1,8,0:0:0:0:
418,89,24297,1,8,0:0:0:0:
429,65,24380,1,0,0:0:0:0:
465,70,24462,1,8,0:0:0:0:
464,67,24545,1,0,0:0:0:0:
464,67,24710,1,8,0:0:0:0:
464,67,24792,1,0,0:0:0:0:
464,67,24874,1,0,0:0:0:0:
464,67,24957,1,8,0:0:0:0:
429,66,25039,1,0,0:0:0:0:
429,66,25204,1,8,0:0:0:0:
471,69,25369,1,8,0:0:0:0:
429,64,25534,1,0,0:0:0:0:
464,67,25616,1,0,0:0:0:0:
464,67,25699,1,8,0:0:0:0:
464,67,25863,1,0,0:0:0:0:
434,60,25946,1,0,0:0:0:0:
434,60,26028,1,8,0:0:0:0:
434,60,26111,1,0,0:0:0:0:
434,60,26193,1,0,0:0:0:0:
429,64,26275,1,8,0:0:0:0:
429,64,26358,1,0,0:0:0:0:
429,64,26523,1,0,0:0:0:0:
428,68,26605,1,0,0:0:0:0:
428,68,26688,1,8,0:0:0:0:
429,64,26852,1,8,0:0:0:0:
445,60,26935,1,8,0:0:0:0:
429,64,27017,1,0,0:0:0:0:
445,60,27100,1,8,0:0:0:0:
445,60,27182,1,0,0:0:0:0:
445,60,27347,1,8,0:0:0:0:
445,60,27429,1,8,0:0:0:0:
445,60,27512,1,0,0:0:0:0:
443,60,27677,1,8,0:0:0:0:
443,60,27841,1,0,0:0:0:0:
445,60,28006,1,8,0:0:0:0:
445,60,28171,1,8,0:0:0:0:
429,64,28336,1,0,0:0:0:0:
443,60,28666,1,8,0:0:0:0:
443,60,28748,1,0,0:0:0:0:
443,60,28830,1,8,0:0:0:0:
445,60,28913,1,8,0:0:0:0:
429,64,28995,1,0,0:0:0:0:
433,60,29160,1,0,0:0:0:0:
429,64,29242,1,0,0:0:0:0:
429,64,29325,1,8,0:0:0:0:
429,64,29490,1,8,0:0:0:0:
423,56,29572,1,8,0:0:0:0:
429,64,29655,1,0,0:0:0:0:
423,56,29737,1,8,0:0:0:0:
423,56,29819,1,0,0:0:0:0:
417,62,29984,1,8,0:0:0:0:
417,62,30067,1,0,0:0:0:0:
417,62,30149,1,0,0:0:0:0:
414,62,30314,1,8,0:0:0:0:
429,64,30479,1,8,0:0:0:0:
414,62,30644,1,0,0:0:0:0:
412,64,30808,1,8,0:0:0:0:
417,62,30891,1,0,0:0:0:0:
417,62,30973,1,8,0:0:0:0:
417,62,31138,1,0,0:0:0:0:
420,61,31221,1,0,0:0:0:0:
420,61,31303,1,8,0:0:0:0:
420,61,31385,1,8,0:0:0:0:
420,61,31468,1,0,0:0:0:0:
414,62,31550,1,8,0:0:0:0:
429,64,31633,1,0,0:0:0:0:
412,64,31797,1,0,0:0:0:0:
414,69,31880,1,0,0:0:0:0:
414,69,31962,1,8,0:0:0:0:
429,64,32127,1,8,0:0:0:0:
412,74,32210,1,8,0:0:0:0:
429,64,32292,1,0,0:0:0:0:
428,73,32374,1,8,0:0:0:0:
428,73,32457,1,0,0:0:0:0:
422,81,32622,1,8,0:0:0:0:
422,81,32704,1,0,0:0:0:0:
422,81,32786,1,0,0:0:0:0:
429,64,32951,1,8,0:0:0:0:
424,80,33116,1,0,0:0:0:0:
424,80,33281,1,8,0:0:0:0:
424,80,33446,1,0,0:0:0:0:
422,81,33528,1,8,0:0:0:0:
429,64,33611,1,0,0:0:0:0:
422,81,33775,1,8,0:0:0:0:
421,83,33858,1,8,0:0:0:0:
421,83,33940,1,0,0:0:0:0:
424,80,34023,1,0,0:0:0:0:
424,80,34105,1,8,0:0:0:0:
400,61,34270,1,0,0:0:0:0:
418,62,34764,1,8,0:0:0:0:
418,62,34929,1,0,0:0:0:0:
418,61,35259,1,0,0:0:0:0:
418,62,35589,1,0,0:0:0:0:
418,62,35753,1,8,0:0:0:0:
418,61,36083,1,0,0:0:0:0:
418,61,36907,1,0,0:0:0:0:
418,61,37402,1,8,0:0:0:0:
418,61,37567,1,0,0:0:0:0:
418,61,37896,1,0,0:0:0:0:
418,61,38226,1,0,0:0:0:0:
422,66,38885,1,0,0:0:0:0:
408,73,39545,1,0,0:0:0:0:
408,71,39874,1,8,0:0:0:0:
408,73,40039,1,8,0:0:0:0:
408,73,40204,1,0,0:0:0:0:
412,79,40534,1,0,0:0:0:0:
412,79,40863,1,0,0:0:0:0:
412,79,41028,1,8,0:0:0:0:
408,73,41193,1,8,0:0:0:0:
412,79,41358,1,0,0:0:0:0:
408,67,41523,1,8,0:0:0:0:
408,67,41852,1,8,0:0:0:0:
412,79,42182,1,0,0:0:0:0:
384,74,42512,1,8,0:0:0:0:
380,85,42567,1,0,0:0:0:0:
403,78,42622,1,0,0:0:0:0:
412,79,42677,1,8,0:0:0:0:
412,79,42841,1,0,0:0:0:0:
412,79,43171,1,0,0:0:0:0:
398,74,43501,1,8,0:0:0:0:
388,75,43830,1,8,0:0:0:0:
402,72,44160,1,0,0:0:0:0:
410,69,44325,1,8,0:0:0:0:
408,69,44407,1,8,0:0:0:0:
408,69,44490,1,0,0:0:0:0:
402,72,44572,1,8,0:0:0:0:
408,69,44655,1,8,0:0:0:0:
398,77,44819,1,0,0:0:0:0:
408,66,44902,1,0,0:0:0:0:
408,66,44984,1,8,0:0:0:0:
407,67,45067,1,0,0:0:0:0:
407,67,45149,1,8,0:0:0:0:
410,69,45231,1,8,0:0:0:0:
410,69,45314,1,0,0:0:0:0:
408,69,45396,1,8,0:0:0:0:
408,69,45479,1,0,0:0:0:0:
407,67,45561,1,0,0:0:0:0:
408,69,45644,1,8,0:0:0:0:
403,69,45726,1,8,0:0:0:0:
403,69,45808,1,0,0:0:0:0:
408,66,45891,1,0,0:0:0:0:
408,66,45973,1,8,0:0:0:0:
407,67,46056,1,8,0:0:0:0:
407,67,46138,1,0,0:0:0:0:
404,76,46221,1,8,0:0:0:0:
404,76,46303,1,0,0:0:0:0:
404,76,46385,1,0,0:0:0:0:
404,76,46468,1,8,0:0:0:0:
404,76,46550,1,8,0:0:0:0:
404,76,46633,1,0,0:0:0:0:
404,76,46715,1,0,0:0:0:0:
404,76,46797,1,8,0:0:0:0:
404,76,46880,1,8,0:0:0:0:
404,76,46962,1,0,0:0:0:0:
402,77,47045,1,8,0:0:0:0:
402,77,47127,1,0,0:0:0:0:
404,76,47210,1,8,0:0:0:0:
382,64,47292,1,8,0:0:0:0:
382,64,47374,1,0,0:0:0:0:
386,59,47457,1,8,0:0:0:0:
386,59,47512,1,8,0:0:0:0:
386,58,47567,1,8,0:0:0:0:
386,58,47622,1,0,0:0:0:0:
411,72,47704,1,0,0:0:0:0:
404,76,47786,1,8,0:0:0:0:
404,76,47869,1,0,0:0:0:0:
404,76,47951,1,0,0:0:0:0:
408,69,48034,1,8,0:0:0:0:
408,68,48116,1,0,0:0:0:0:
436,52,48171,1,0,0:0:0:0:
407,69,48226,1,0,0:0:0:0:
412,82,48281,1,8,0:0:0:0:
436,57,48363,1,8,0:0:0:0:
437,56,48446,1,0,0:0:0:0:
411,61,48528,1,8,0:0:0:0:
416,54,48611,1,8,0:0:0:0:
416,54,48693,1,0,0:0:0:0:
416,54,48775,1,8,0:0:0:0:
447,88,48940,1,0,0:0:0:0:
446,87,48981,1,0,0:0:0:0:
446,88,49023,1,0,0:0:0:0:
445,88,49105,1,8,0:0:0:0:
436,52,49188,1,8,0:0:0:0:
432,54,49270,1,8,0:0:0:0:
432,50,49352,1,0,0:0:0:0:
437,56,49435,1,8,0:0:0:0:
444,55,49517,1,8,0:0:0:0:
434,57,49600,1,0,0:0:0:0:
435,57,49682,1,8,0:0:0:0:
443,54,49764,1,0,0:0:0:0:
443,56,49847,1,0,0:0:0:0:
443,57,49929,1,8,0:0:0:0:
443,57,50012,1,8,0:0:0:0:
456,58,50094,1,0,0:0:0:0:
459,55,50177,1,8,0:0:0:0:
459,56,50259,1,8,0:0:0:0:
459,56,50341,1,8,0:0:0:0:
457,52,50424,1,0,0:0:0:0:
454,57,50506,1,0,0:0:0:0:
457,52,50589,1,8,0:0:0:0:
454,57,50671,1,8,0:0:0:0:
457,53,50753,1,0,0:0:0:0:
455,54,50836,1,8,0:0:0:0:
444,64,50918,1,0,0:0:0:0:
444,64,51001,1,0,0:0:0:0:
449,64,51083,1,8,0:0:0:0:
459,55,51166,1,8,0:0:0:0:
459,56,51248,1,0,0:0:0:0:
459,56,51330,1,0,0:0:0:0:
457,52,51413,1,8,0:0:0:0:
454,57,51495,1,0,0:0:0:0:
457,52,51578,1,8,0:0:0:0:
454,57,51660,1,0,0:0:0:0:
457,53,51742,1,8,0:0:0:0:
455,54,51825,1,0,0:0:0:0:
454,58,51907,1,0,0:0:0:0:
454,59,51990,1,8,0:0:0:0:
454,59,52072,1,0,0:0:0:0:
459,55,52155,1,8,0:0:0:0:
459,56,52237,1,0,0:0:0:0:
459,56,52319,1,0,0:0:0:0:
452,59,52402,1,8,0:0:0:0:
454,57,52484,1,8,0:0:0:0:
459,58,52567,1,0,0:0:0:0:
454,57,52649,1,8,0:0:0:0:
457,53,52731,1,8,0:0:0:0:
465,52,52814,1,0,0:0:0:0:
463,51,52979,1,0,0:0:0:0:
460,58,53061,1,8,0:0:0:0:
451,59,53144,1,0,0:0:0:0:
451,58,53226,1,0,0:0:0:0:
452,59,53391,1,8,0:0:0:0:
459,58,53556,1,0,0:0:0:0:
454,57,53638,1,0,0:0:0:0:
457,53,53721,1,8,0:0:0:0:
457,59,53803,1,0,0:0:0:0:
457,59,53885,1,0,0:0:0:0:
460,58,54050,1,8,0:0:0:0:
458,60,54215,1,0,0:0:0:0:
452,59,54297,1,0,0:0:0:0:
412,46,54380,1,8,0:0:0:0:
459,58,54545,1,0,0:0:0:0:
454,57,54627,1,8,0:0:0:0:
457,53,54710,1,0,0:0:0:0:
457,59,54792,1,0,0:0:0:0:
457,59,54874,1,8,0:0:0:0:
466,61,55039,1,0,0:0:0:0:
466,61,55122,1,8,0:0:0:0:
466,61,55204,1,0,0:0:0:0:
466,61,55369,1,0,0:0:0:0:
462,63,55699,1,8,0:0:0:0:
457,53,55740,1,8,0:0:0:0:
457,59,55781,1,8,0:0:0:0:
457,59,55822,1,8,0:0:0:0:
457,59,55863,1,0,0:0:0:0:
463,53,56028,1,0,0:0:0:0:
466,61,56111,1,0,0:0:0:0:
466,61,56193,1,8,0:0:0:0:
466,61,56275,1,8,0:0:0:0:
466,61,56358,1,0,0:0:0:0:
468,54,56440,1,0,0:0:0:0:
468,54,56523,1,8,0:0:0:0:
468,54,56605,1,8,0:0:0:0:
465,56,56688,1,0,0:0:0:0:
463,57,56770,1,8,0:0:0:0:
457,59,56852,1,0,0:0:0:0:
463,53,56935,1,8,0:0:0:0:
463,53,57017,1,8,0:0:0:0:
466,61,57100,1,8,0:0:0:0:
466,61,57182,1,0,0:0:0:0:
466,61,57264,1,0,0:0:0:0:
466,61,57347,1,8,0:0:0:0:
468,54,57429,1,8,0:0:0:0:
468,54,57512,1,0,0:0:0:0:
468,54,57594,1,0,0:0:0:0:
465,56,57677,1,8,0:0:0:0:
463,57,57759,1,8,0:0:0:0:
451,62,57841,1,0,0:0:0:0:
451,62,57924,1,8,0:0:0:0:
451,62,58006,1,0,0:0:0:0:
472,55,58171,1,0,0:0:0:0:
476,53,58253,1,0,0:0:0:0:
476,53,58336,1,8,0:0:0:0:
477,52,58418,1,0,0:0:0:0:
477,52,58501,1,8,0:0:0:0:
477,52,58666,1,0,0:0:0:0:
455,47,58748,1,8,0:0:0:0:
455,47,58830,1,8,0:0:0:0:
455,47,58995,1,0,0:0:0:0:
455,47,59078,1,8,0:0:0:0:
455,47,59160,1,0,0:0:0:0:
455,47,59242,1,0,0:0:0:0:
455,47,59325,1,8,0:0:0:0:
484,58,59490,1,0,0:0:0:0:
479,60,59655,1,8,0:0:0:0:
477,60,59737,1,0,0:0:0:0:
479,60,59819,1,0,0:0:0:0:
493,56,59984,1,0,0:0:0:0:
496,55,60067,1,8,0:0:0:0:
496,55,60149,1,8,0:0:0:0:
496,55,60231,1,0,0:0:0:0:
496,56,60314,1,8,0:0:0:0:
497,56,60396,1,0,0:0:0:0:
497,56,60479,1,8,0:0:0:0:
497,56,60561,1,8,0:0:0:0:
497,56,60644,1,0,0:0:0:0:
497,56,60726,1,8,0:0:0:0:
497,56,60808,1,8,0:0:0:0:
493,56,60891,1,8,0:0:0:0:
458,71,60973,1,0,0:0:0:0:
477,70,61056,1,0,0:0:0:0:
485,50,61138,1,8,0:0:0:0:
485,50,61221,1,8,0:0:0:0:
485,50,61303,1,0,0:0:0:0:
458,71,61385,1,0,0:0:0:0:
458,71,61468,1,0,0:0:0:0:
463,72,61550,1,8,0:0:0:0:
458,71,61633,1,0,0:0:0:0:
463,89,61797,1,8,0:0:0:0:
461,90,61880,1,0,0:0:0:0:
459,107,62045,1,8,0:0:0:0:
459,107,62127,1,0,0:0:0:0:
472,53,62210,1,0,0:0:0:0:
468,61,62251,1,0,0:0:0:0:
465,80,62292,1,8,0:0:0:0:
451,73,62457,1,0,0:0:0:0:
470,80,62539,1,8,0:0:0:0:
468,80,62622,1,0,0:0:0:0:
463,89,62786,1,8,0:0:0:0:
461,81,62869,1,0,0:0:0:0:
459,87,62951,1,8,0:0:0:0:
459,87,63034,1,8,0:0:0:0:
459,87,63116,1,0,0:0:0:0:
471,88,63281,1,0,0:0:0:0:
472,88,63446,1,8,0:0:0:0:
475,88,63528,1,8,0:0:0:0:
475,88,63611,1,0,0:0:0:0:
475,88,63775,1,8,0:0:0:0:
477,88,63940,1,0,0:0:0:0:
477,88,64023,1,8,0:0:0:0:
478,89,64105,1,8,0:0:0:0:
477,89,64188,1,0,0:0:0:0:
478,89,64270,1,8,0:0:0:0:
472,88,64435,1,0,0:0:0:0:
475,88,64517,1,8,0:0:0:0:
475,88,64600,1,0,0:0:0:0:
475,88,64764,1,8,0:0:0:0:
477,88,64847,1,8,0:0:0:0:
477,88,64929,1,0,0:0:0:0:
478,89,65094,1,8,0:0:0:0:
477,89,65177,1,0,0:0:0:0:
477,89,65259,1,8,0:0:0:0:
469,96,65424,1,0,0:0:0:0:
408,80,65506,1,0,0:0:0:0:
475,88,65589,1,8,0:0:0:0:
475,88,65753,1,0,0:0:0:0:
477,88,65836,1,8,0:0:0:0:
477,88,65918,1,0,0:0:0:0:
446,83,66907,1,0,0:0:0:0:
446,83,67237,1,0,0:0:0:0:
446,83,67731,1,0,0:0:0:0:
446,83,68226,1,0,0:0:0:0:
446,83,68391,1,0,0:0:0:0:
446,83,68556,1,8,0:0:0:0:
446,83,68803,1,8,0:0:0:0:
446,83,69050,1,0,0:0:0:0:
438,83,69545,1,0,0:0:0:0:
438,83,69874,1,0,0:0:0:0:
446,77,70369,1,8,0:0:0:0:
438,83,70699,1,0,0:0:0:0:
438,83,70863,1,8,0:0:0:0:
430,80,71028,1,8,0:0:0:0:
431,80,71111,1,8,0:0:0:0:
437,75,71193,1,0,0:0:0:0:
414,111,71523,1,8,0:0:0:0:
430,83,71688,1,0,0:0:0:0:
425,84,71770,1,0,0:0:0:0:
440,91,71935,1,8,0:0:0:0:
439,90,72017,1,0,0:0:0:0:
435,86,72182,1,8,0:0:0:0:
430,90,72512,1,8,0:0:0:0:
430,90,72594,1,8,0:0:0:0:
427,91,72677,1,0,0:0:0:0:
430,88,72841,1,8,0:0:0:0:
439,90,73006,1,0,0:0:0:0:
442,86,73171,1,0,0:0:0:0:
437,85,73336,1,8,0:0:0:0:
430,90,73418,1,0,0:0:0:0:
430,90,73501,1,8,0:0:0:0:
430,90,73583,1,0,0:0:0:0:
427,91,73666,1,8,0:0:0:0:
430,88,73748,1,0,0:0:0:0:
430,88,73830,1,8,0:0:0:0:
429,83,73995,5,0,0:0:0:0:
432,82,74078,1,0,0:0:0:0:
432,82,74160,1,8,0:0:0:0:
437,85,74242,1,8,0:0:0:0:
428,86,74325,1,0,0:0:0:0:
430,90,74407,5,0,0:0:0:0:
430,90,74490,1,8,0:0:0:0:
430,90,74572,1,0,0:0:0:0:
427,91,74655,1,8,0:0:0:0:
430,88,74737,1,8,0:0:0:0:
430,88,74819,1,0,0:0:0:0:
429,83,74902,1,8,0:0:0:0:
429,83,74984,1,8,0:0:0:0:
426,87,75067,1,8,0:0:0:0:
426,87,75149,1,0,0:0:0:0:
437,79,75314,1,8,0:0:0:0:
437,79,75479,1,8,0:0:0:0:
437,79,75644,1,0,0:0:0:0:
441,83,75808,1,8,0:0:0:0:
441,82,75891,1,0,0:0:0:0:
441,82,75973,1,8,0:0:0:0:
441,82,76056,1,0,0:0:0:0:
441,82,76138,1,8,0:0:0:0:
437,79,76221,1,8,0:0:0:0:
432,72,76303,5,8,0:0:0:0:
439,68,76468,1,0,0:0:0:0:
437,79,76633,1,0,0:0:0:0:
435,79,76715,1,0,0:0:0:0:
441,83,76797,1,8,0:0:0:0:
441,82,76962,1,0,0:0:0:0:
428,78,77045,1,0,0:0:0:0:
428,78,77127,1,8,0:0:0:0:
428,78,77210,1,0,0:0:0:0:
428,78,77292,1,8,0:0:0:0:
426,78,77457,1,0,0:0:0:0:
426,78,77539,1,0,0:0:0:0:
426,78,77622,1,8,0:0:0:0:
423,78,77786,1,0,0:0:0:0:
424,80,77951,5,0,0:0:0:0:
428,78,78116,1,8,0:0:0:0:
421,73,78281,1,0,0:0:0:0:
426,78,78363,1,0,0:0:0:0:
426,78,78446,1,8,0:0:0:0:
418,79,78611,1,0,0:0:0:0:
423,78,78693,1,0,0:0:0:0:
423,78,78775,1,8,0:0:0:0:
424,80,78858,1,8,0:0:0:0:
424,80,78940,1,0,0:0:0:0:
428,78,79105,1,0,0:0:0:0:
427,78,79270,1,0,0:0:0:0:
426,78,79352,1,0,0:0:0:0:
426,78,79435,1,8,0:0:0:0:
427,79,79600,1,0,0:0:0:0:
423,78,79682,1,0,0:0:0:0:
423,78,79764,1,0,0:0:0:0:
424,80,79847,1,0,0:0:0:0:
424,80,79929,1,8,0:0:0:0:
428,78,80094,1,0,0:0:0:0:
427,78,80177,1,0,0:0:0:0:
427,78,80259,1,8,0:0:0:0:
422,83,80424,1,0,0:0:0:0:
427,79,80589,1,0,0:0:0:0:
423,78,80753,1,8,0:0:0:0:
424,80,80795,5,0,0:0:0:0:
424,80,80836,1,0,0:0:0:0:
424,80,80918,1,8,0:0:0:0:
403,91,81742,1,0,0:0:0:0:
412,88,82731,1,0,0:0:0:0:
412,88,83721,1,8,0:0:0:0:
411,79,85699,1,0,0:0:0:0:
404,83,85863,1,8,0:0:0:0:
403,84,86028,1,0,0:0:0:0:
403,84,86111,1,8,0:0:0:0:
403,84,86193,1,0,0:0:0:0:
402,91,86275,1,0,0:0:0:0:
402,91,86358,1,8,0:0:0:0:
402,91,86440,1,0,0:0:0:0:
402,91,86523,5,0,0:0:0:0:
403,90,86605,1,8,0:0:0:0:
403,90,86770,1,0,0:0:0:0:
403,90,86852,1,8,0:0:0:0:
304,144,87017,5,0,0:0:0:0:
371,76,87058,1,0,0:0:0:0:
339,95,87099,1,0,0:0:0:0:
339,95,87181,1,8,0:0:0:0:
339,95,87264,1,0,0:0:0:0:
339,95,87346,1,8,0:0:0:0:
387,106,87429,1,8,0:0:0:0:
387,106,87511,1,0,0:0:0:0:
382,97,87594,1,8,0:0:0:0:
380,96,87676,1,0,0:0:0:0:
382,96,87758,1,0,0:0:0:0:
379,97,87841,1,8,0:0:0:0:
379,97,87923,1,8,0:0:0:0:
379,97,88006,1,0,0:0:0:0:
366,91,88088,1,8,0:0:0:0:
360,96,88170,1,0,0:0:0:0:
360,96,88253,1,0,0:0:0:0:
366,91,88335,1,8,0:0:0:0:
366,91,88418,1,8,0:0:0:0:
368,92,88500,1,0,0:0:0:0:
378,78,88541,1,0,0:0:0:0:
368,93,88583,1,8,0:0:0:0:
369,93,88665,1,0,0:0:0:0:
383,88,88747,1,0,0:0:0:0:
376,86,88830,1,8,0:0:0:0:
376,86,88912,1,8,0:0:0:0:
375,86,88995,1,0,0:0:0:0:
375,81,89077,1,0,0:0:0:0:
375,81,89159,1,8,0:0:0:0:
375,81,89242,1,0,0:0:0:0:
374,80,89324,1,8,0:0:0:0:
374,80,89365,1,8,0:0:0:0:
376,80,89407,1,8,0:0:0:0:
376,79,89489,1,0,0:0:0:0:
390,97,89571,1,8,0:0:0:0:
377,77,89654,1,0,0:0:0:0:
377,77,89736,1,0,0:0:0:0:
377,77,89819,5,8,0:0:0:0:
377,77,89901,1,8,0:0:0:0:
375,86,89984,1,0,0:0:0:0:
381,84,90066,1,8,0:0:0:0:
381,84,90148,1,8,0:0:0:0:
375,81,90231,1,0,0:0:0:0:
380,84,90313,1,8,0:0:0:0:
380,84,90396,1,8,0:0:0:0:
376,79,90478,1,0,0:0:0:0:
390,97,90560,1,8,0:0:0:0:
375,86,90643,1,0,0:0:0:0:
389,81,90725,1,0,0:0:0:0:
382,75,90808,1,8,0:0:0:0:
391,81,90890,1,8,0:0:0:0:
378,74,90973,1,0,0:0:0:0:
396,86,91014,1,0,0:0:0:0:
397,78,91055,1,0,0:0:0:0:
389,78,91137,1,8,0:0:0:0:
389,78,91220,1,0,0:0:0:0:
389,78,91302,1,8,0:0:0:0:
389,78,91385,1,8,0:0:0:0:
389,78,91467,1,0,0:0:0:0:
389,78,91550,1,8,0:0:0:0:
389,78,91632,1,0,0:0:0:0:
382,66,91714,1,0,0:0:0:0:
382,75,91797,1,8,0:0:0:0:
385,69,91879,1,8,0:0:0:0:
385,69,91962,1,0,0:0:0:0:
385,69,92044,1,8,0:0:0:0:
385,69,92126,1,0,0:0:0:0:
385,69,92209,1,0,0:0:0:0:
385,69,92291,1,8,0:0:0:0:
385,69,92374,1,8,0:0:0:0:
385,69,92456,1,0,0:0:0:0:
404,71,92497,1,0,0:0:0:0:
392,66,92539,1,8,0:0:0:0:
394,65,92621,1,0,0:0:0:0:
394,65,92703,1,0,0:0:0:0:
394,64,92786,1,8,0:0:0:0:
394,64,92868,1,8,0:0:0:0:
397,62,92951,1,0,0:0:0:0:
399,65,93033,1,0,0:0:0:0:
403,64,93115,1,8,0:0:0:0:
403,61,93198,1,0,0:0:0:0:
403,61,93280,1,8,0:0:0:0:
417,71,93321,1,8,0:0:0:0:
403,61,93363,1,8,0:0:0:0:
403,61,93445,1,0,0:0:0:0:
403,61,93528,1,8,0:0:0:0:
403,61,93610,1,0,0:0:0:0:
402,62,93692,1,0,0:0:0:0:
402,62,93775,1,8,0:0:0:0:
402,62,93857,1,8,0:0:0:0:
397,62,93940,1,0,0:0:0:0:
399,65,94022,1,8,0:0:0:0:
403,64,94105,1,0,0:0:0:0:
403,61,94187,1,0,0:0:0:0:
403,61,94269,1,8,0:0:0:0:
409,67,94352,1,8,0:0:0:0:
408,67,94434,1,0,0:0:0:0:
418,64,94517,1,8,0:0:0:0:
408,67,94599,1,0,0:0:0:0:
408,67,94681,1,8,0:0:0:0:
408,67,94764,1,8,0:0:0:0:
408,67,94846,1,0,0:0:0:0:
418,67,94887,1,0,0:0:0:0:
407,57,94929,1,8,0:0:0:0:
415,63,95011,1,0,0:0:0:0:
413,63,95094,1,0,0:0:0:0:
413,63,95176,1,0,0:0:0:0:
413,63,95258,1,8,0:0:0:0:
415,62,95341,1,8,0:0:0:0:
415,62,95423,1,0,0:0:0:0:
415,62,95506,1,8,0:0:0:0:
415,62,95588,1,0,0:0:0:0:
415,62,95670,1,0,0:0:0:0:
415,62,95753,1,8,0:0:0:0:
415,62,95835,1,8,0:0:0:0:
415,62,95918,1,0,0:0:0:0:
415,63,96000,1,8,0:0:0:0:
413,63,96083,1,8,0:0:0:0:
413,63,96165,1,0,0:0:0:0:
413,63,96247,1,0,0:0:0:0:
415,62,96330,1,8,0:0:0:0:
415,62,96412,1,0,0:0:0:0:
414,54,96453,1,0,0:0:0:0:
415,62,96495,1,8,0:0:0:0:
415,62,96577,1,0,0:0:0:0:
415,62,96659,1,0,0:0:0:0:
415,62,96742,1,8,0:0:0:0:
415,62,96824,1,8,0:0:0:0:
415,62,96907,1,0,0:0:0:0:
415,63,96989,1,0,0:0:0:0:
413,63,97072,1,8,0:0:0:0:
413,63,97154,1,0,0:0:0:0:
413,63,97236,1,8,0:0:0:0:
422,62,97277,1,8,0:0:0:0:
415,62,97319,1,8,0:0:0:0:
415,62,97401,1,0,0:0:0:0:
415,62,97484,1,8,0:0:0:0:
415,62,97566,1,0,0:0:0:0:
415,62,97648,1,0,0:0:0:0:
415,62,97731,1,8,0:0:0:0:
415,62,97813,1,8,0:0:0:0:
415,62,97896,1,0,0:0:0:0:
415,63,97978,1,8,0:0:0:0:
413,63,98061,1,0,0:0:0:0:
413,63,98143,1,0,0:0:0:0:
413,63,98225,1,8,0:0:0:0:
415,62,98308,1,8,0:0:0:0:
411,68,98390,1,0,0:0:0:0:
415,62,98637,1,0,0:0:0:0:
415,62,98720,1,0,0:0:0:0:
415,62,98802,1,0,0:0:0:0:
418,79,98885,1,8,0:0:0:0:
412,78,98926,1,8,0:0:0:0:
423,64,98967,1,0,0:0:0:0:
423,64,99050,1,0,0:0:0:0:
423,64,99132,1,8,0:0:0:0:
423,64,99214,1,8,0:0:0:0:
423,64,99297,1,0,0:0:0:0:
423,64,99379,1,8,0:0:0:0:
433,59,99462,1,0,0:0:0:0:
433,59,99544,1,8,0:0:0:0:
439,61,99626,1,8,0:0:0:0:
440,60,99709,1,0,0:0:0:0:
440,60,99791,1,0,0:0:0:0:
441,59,99874,1,8,0:0:0:0:
441,59,99956,1,0,0:0:0:0:
436,61,100039,1,8,0:0:0:0:
436,61,100121,1,8,0:0:0:0:
436,61,100203,1,0,0:0:0:0:
436,61,100286,1,0,0:0:0:0:
436,61,100368,1,8,0:0:0:0:
447,63,100409,1,8,0:0:0:0:
433,59,100451,1,8,0:0:0:0:
433,59,100533,1,0,0:0:0:0:
434,52,100615,1,8,0:0:0:0:
434,52,100698,1,0,0:0:0:0:
443,52,100780,1,0,0:0:0:0:
441,59,100863,1,8,0:0:0:0:
434,69,100904,1,8,0:0:0:0:
385,60,100945,1,8,0:0:0:0:
385,60,101028,1,0,0:0:0:0:
385,60,101110,1,0,0:0:0:0:
406,60,101192,1,8,0:0:0:0:
413,71,101275,1,8,0:0:0:0:
414,71,101357,1,0,0:0:0:0:
422,63,101852,1,8,0:0:0:0:
384,73,103170,1,8,0:0:0:0:
378,80,103253,1,8,0:0:0:0:
377,79,103335,1,8,0:0:0:0:
378,80,103417,1,8,0:0:0:0:
382,80,103500,1,0,0:0:0:0:
390,79,103829,1,8,0:0:0:0:
396,75,103994,1,8,0:0:0:0:
396,75,104159,1,0,0:0:0:0:
398,75,104489,1,0,0:0:0:0:
396,75,104818,1,0,0:0:0:0:
396,75,104983,1,8,0:0:0:0:
398,75,105313,1,0,0:0:0:0:
389,78,105478,1,8,0:0:0:0:
396,75,105807,1,8,0:0:0:0:
398,75,106137,1,0,0:0:0:0:
394,54,106467,1,8,0:0:0:0:
398,75,106631,1,8,0:0:0:0:
398,75,106796,1,0,0:0:0:0:
398,75,107126,1,0,0:0:0:0:
403,68,107456,1,0,0:0:0:0:
398,75,107785,1,8,0:0:0:0:
403,68,108115,1,0,0:0:0:0:
399,75,108445,1,8,0:0:0:0:
417,73,108609,1,8,0:0:0:0:
403,68,108774,1,0,0:0:0:0:
417,73,109104,1,8,0:0:0:0:
403,68,109269,1,8,0:0:0:0:
403,68,109434,1,0,0:0:0:0:
403,68,109763,1,0,0:0:0:0:
403,68,110093,1,0,0:0:0:0:
403,68,110258,1,8,0:0:0:0:
403,68,110587,1,0,0:0:0:0:
419,75,110752,1,8,0:0:0:0:
419,75,111082,1,8,0:0:0:0:
403,68,111412,1,0,0:0:0:0:
419,75,111741,1,8,0:0:0:0:
403,68,111906,1,8,0:0:0:0:
403,68,112071,1,0,0:0:0:0:
403,68,112401,1,0,0:0:0:0:
403,68,112730,1,8,0:0:0:0:
419,75,113060,1,8,0:0:0:0:
403,68,113390,1,0,0:0:0:0:
412,73,113719,1,8,0:0:0:0:
417,66,113802,1,8,0:0:0:0:
416,64,113884,1,8,0:0:0:0:
403,68,114049,1,0,0:0:0:0:
417,74,114379,1,8,0:0:0:0:
417,74,115038,1,8,0:0:0:0:
417,74,115697,1,8,0:0:0:0:
417,74,116357,1,8,0:0:0:0:
417,74,117016,1,8,0:0:0:0:
417,74,117675,1,8,0:0:0:0:
417,74,118335,1,8,0:0:0:0:
417,74,118994,1,8,0:0:0:0:
417,74,119076,1,8,0:0:0:0:
417,74,119159,1,0,0:0:0:0:
418,80,119324,1,0,0:0:0:0:
417,74,119653,1,8,0:0:0:0:
400,78,119818,1,8,0:0:0:0:
401,75,119983,1,0,0:0:0:0:
417,74,120313,1,8,0:0:0:0:
417,74,120642,1,0,0:0:0:0:
413,80,120807,1,8,0:0:0:0:
412,80,120972,1,8,0:0:0:0:
412,80,121137,1,0,0:0:0:0:
417,74,121302,1,8,0:0:0:0:
417,74,121631,1,8,0:0:0:0:
413,71,121961,1,0,0:0:0:0:
417,74,122291,1,8,0:0:0:0:
408,67,122346,1,0,0:0:0:0:
380,78,122401,1,0,0:0:0:0:
417,74,122456,1,8,0:0:0:0:
417,74,122620,1,0,0:0:0:0:
414,63,122950,1,8,0:0:0:0:
414,63,123280,1,0,0:0:0:0:
413,65,123609,1,8,0:0:0:0:
408,69,123939,1,0,0:0:0:0:
413,70,124104,1,8,0:0:0:0:
413,71,124186,1,8,0:0:0:0:
414,71,124269,1,0,0:0:0:0:
413,72,124351,1,8,0:0:0:0:
413,72,124434,1,8,0:0:0:0:
413,72,124598,1,0,0:0:0:0:
428,72,124681,1,8,0:0:0:0:
427,72,124763,1,0,0:0:0:0:
427,72,124804,1,0,0:0:0:0:
427,72,124846,1,8,0:0:0:0:
437,72,125010,1,0,0:0:0:0:
437,72,125093,1,8,0:0:0:0:
428,65,125134,1,8,0:0:0:0:
429,65,125175,1,8,0:0:0:0:
424,57,125258,1,0,0:0:0:0:
432,66,125423,1,8,0:0:0:0:
432,70,125505,1,0,0:0:0:0:
437,69,125587,1,8,0:0:0:0:
418,64,125629,1,8,0:0:0:0:
437,69,125670,1,0,0:0:0:0:
439,69,125752,1,8,0:0:0:0:
427,72,125835,1,8,0:0:0:0:
424,68,125917,1,0,0:0:0:0:
426,69,126000,1,0,0:0:0:0:
428,60,126082,1,8,0:0:0:0:
444,55,126123,1,8,0:0:0:0:
428,65,126164,1,0,0:0:0:0:
424,57,126247,1,8,0:0:0:0:
443,56,126329,1,8,0:0:0:0:
444,55,126412,1,0,0:0:0:0:
444,55,126453,1,0,0:0:0:0:
444,55,126494,1,0,0:0:0:0:
444,55,126576,1,8,0:0:0:0:
443,50,126659,1,0,0:0:0:0:
442,51,126741,1,8,0:0:0:0:
414,64,126782,1,8,0:0:0:0:
442,51,126824,1,8,0:0:0:0:
442,51,126906,1,0,0:0:0:0:
426,58,126989,1,0,0:0:0:0:
417,61,127071,1,8,0:0:0:0:
438,63,127236,1,8,0:0:0:0:
430,73,127277,1,8,0:0:0:0:
435,69,127318,1,0,0:0:0:0:
435,69,127401,1,8,0:0:0:0:
435,69,127483,1,0,0:0:0:0:
440,63,127565,1,8,0:0:0:0:
436,66,127648,1,0,0:0:0:0:
436,66,127730,1,8,0:0:0:0:
436,66,127771,1,8,0:0:0:0:
436,66,127813,1,8,0:0:0:0:
436,66,127895,1,0,0:0:0:0:
436,66,127978,1,0,0:0:0:0:
435,66,128060,1,8,0:0:0:0:
438,63,128225,1,0,0:0:0:0:
436,58,128307,1,0,0:0:0:0:
436,58,128390,1,8,0:0:0:0:
436,58,128431,1,8,0:0:0:0:
436,58,128472,1,8,0:0:0:0:
440,63,128554,1,0,0:0:0:0:
440,63,128637,1,8,0:0:0:0:
436,66,128719,1,0,0:0:0:0:
429,63,128760,1,0,0:0:0:0:
429,63,128802,1,8,0:0:0:0:
428,61,128884,1,0,0:0:0:0:
429,61,128967,1,8,0:0:0:0:
427,62,129049,1,8,0:0:0:0:
438,63,129214,1,8,0:0:0:0:
431,70,129296,1,0,0:0:0:0:
431,70,129337,1,0,0:0:0:0:
431,70,129379,1,8,0:0:0:0:
431,70,129461,1,0,0:0:0:0:
431,70,129543,1,8,0:0:0:0:
406,79,129585,1,8,0:0:0:0:
404,74,129626,1,0,0:0:0:0:
403,71,129708,1,8,0:0:0:0:
403,71,129873,1,8,0:0:0:0:
415,74,129914,1,8,0:0:0:0:
434,66,129956,1,8,0:0:0:0:
415,74,130038,1,0,0:0:0:0:
415,74,130120,1,8,0:0:0:0:
415,74,130203,1,0,0:0:0:0:
415,74,130285,1,0,0:0:0:0:
415,74,130368,1,8,0:0:0:0:
415,79,130532,1,8,0:0:0:0:
432,73,130574,1,8,0:0:0:0:
415,79,130615,1,0,0:0:0:0:
415,79,130697,1,8,0:0:0:0:
422,69,130780,1,0,0:0:0:0:
413,65,130945,1,0,0:0:0:0:
415,74,131027,1,0,0:0:0:0:
415,74,131109,1,0,0:0:0:0:
415,74,131192,1,8,0:0:0:0:
424,76,131274,1,0,0:0:0:0:
424,76,131357,1,8,0:0:0:0:
428,86,131439,1,8,0:0:0:0:
426,76,131521,1,0,0:0:0:0:
423,80,131604,1,8,0:0:0:0:
422,79,131645,1,8,0:0:0:0:
422,79,131686,1,0,0:0:0:0:
422,69,131769,1,8,0:0:0:0:
421,77,131851,1,0,0:0:0:0:
421,77,131934,1,8,0:0:0:0:
421,77,131975,1,8,0:0:0:0:
430,83,132016,1,0,0:0:0:0:
431,83,132098,1,8,0:0:0:0:
431,83,132181,1,0,0:0:0:0:
439,76,132263,1,0,0:0:0:0:
441,75,132346,1,8,0:0:0:0:
439,76,132510,1,0,0:0:0:0:
411,89,132552,1,0,0:0:0:0:
407,90,132593,1,0,0:0:0:0:
413,89,132675,1,8,0:0:0:0:
413,89,132758,1,8,0:0:0:0:
411,90,132840,1,0,0:0:0:0:
421,77,132923,1,8,0:0:0:0:
421,77,133005,1,8,0:0:0:0:
426,74,133087,1,0,0:0:0:0:
425,67,133170,1,8,0:0:0:0:
425,67,133211,1,8,0:0:0:0:
425,67,133252,1,8,0:0:0:0:
423,68,133335,1,0,0:0:0:0:
417,78,133417,1,0,0:0:0:0:
417,78,133500,1,8,0:0:0:0:
418,79,133582,1,0,0:0:0:0:
418,79,133664,1,8,0:0:0:0:
418,79,133747,1,8,0:0:0:0:
418,77,133829,1,0,0:0:0:0:
418,77,133870,1,0,0:0:0:0:
421,77,133912,1,8,0:0:0:0:
421,77,133994,1,0,0:0:0:0:
411,73,134076,1,0,0:0:0:0:
412,73,134159,1,8,0:0:0:0:
412,72,134200,1,8,0:0:0:0:
412,73,134241,1,8,0:0:0:0:
412,72,134324,1,0,0:0:0:0:
412,72,134406,1,0,0:0:0:0:
412,72,134489,1,8,0:0:0:0:
431,67,134530,1,8,0:0:0:0:
432,67,134571,1,0,0:0:0:0:
430,67,134653,1,8,0:0:0:0:
430,67,134736,1,8,0:0:0:0:
430,67,134818,1,0,0:0:0:0:
430,67,134859,1,0,0:0:0:0:
430,67,134901,1,0,0:0:0:0:
425,64,134983,1,8,0:0:0:0:
425,64,135065,1,8,0:0:0:0:
413,72,135148,1,0,0:0:0:0:
428,72,135231,1,8,0:0:0:0:
427,72,135313,1,0,0:0:0:0:
427,72,135354,1,0,0:0:0:0:
427,72,135396,1,8,0:0:0:0:
437,72,135560,1,0,0:0:0:0:
437,72,135643,1,8,0:0:0:0:
428,65,135684,1,8,0:0:0:0:
429,65,135725,1,8,0:0:0:0:
424,57,135808,1,0,0:0:0:0:
432,66,135973,1,8,0:0:0:0:
432,70,136055,1,0,0:0:0:0:
437,69,136137,1,8,0:0:0:0:
418,64,136179,1,8,0:0:0:0:
437,69,136220,1,0,0:0:0:0:
439,69,136302,1,8,0:0:0:0:
427,72,136385,1,8,0:0:0:0:
424,68,136467,1,0,0:0:0:0:
426,69,136550,1,8,0:0:0:0:
428,60,136632,1,0,0:0:0:0:
444,55,136673,1,0,0:0:0:0:
428,65,136714,1,0,0:0:0:0:
424,57,136797,1,8,0:0:0:0:
443,56,136879,1,8,0:0:0:0:
444,55,136962,1,0,0:0:0:0:
444,55,137003,1,0,0:0:0:0:
444,55,137044,1,0,0:0:0:0:
444,55,137126,1,8,0:0:0:0:
443,50,137209,1,0,0:0:0:0:
442,51,137291,1,8,0:0:0:0:
414,64,137332,1,8,0:0:0:0:
442,51,137374,1,8,0:0:0:0:
442,51,137456,1,0,0:0:0:0:
426,58,137539,1,0,0:0:0:0:
417,61,137621,1,8,0:0:0:0:
438,63,137786,1,8,0:0:0:0:
430,73,137827,1,8,0:0:0:0:
435,69,137868,1,0,0:0:0:0:
435,69,137951,1,8,0:0:0:0:
435,69,138033,1,0,0:0:0:0:
440,63,138115,1,8,0:0:0:0:
436,66,138198,1,0,0:0:0:0:
436,66,138280,1,8,0:0:0:0:
436,66,138321,1,8,0:0:0:0:
436,66,138363,1,8,0:0:0:0:
436,66,138445,1,0,0:0:0:0:
436,66,138528,1,0,0:0:0:0:
435,66,138610,1,8,0:0:0:0:
438,63,138775,1,0,0:0:0:0:
436,58,138857,1,0,0:0:0:0:
436,58,138940,1,8,0:0:0:0:
436,58,138981,1,8,0:0:0:0:
436,58,139022,1,8,0:0:0:0:
440,63,139104,1,0,0:0:0:0:
440,63,139187,1,8,0:0:0:0:
436,66,139269,1,0,0:0:0:0:
429,63,139310,1,0,0:0:0:0:
429,63,139352,1,8,0:0:0:0:
428,61,139434,1,0,0:0:0:0:
429,61,139517,1,8,0:0:0:0:
427,62,139599,1,8,0:0:0:0:
438,63,139764,1,8,0:0:0:0:
431,70,139846,1,0,0:0:0:0:
431,70,139887,1,0,0:0:0:0:
431,70,139929,1,8,0:0:0:0:
431,70,140011,1,0,0:0:0:0:
431,70,140093,1,8,0:0:0:0:
406,79,140135,1,8,0:0:0:0:
404,74,140176,1,0,0:0:0:0:
403,71,140258,1,8,0:0:0:0:
403,71,140423,1,8,0:0:0:0:
415,74,140464,1,8,0:0:0:0:
434,66,140506,1,8,0:0:0:0:
415,74,140588,1,0,0:0:0:0:
415,74,140670,1,8,0:0:0:0:
415,74,140835,1,0,0:0:0:0:
415,74,140918,1,8,0:0:0:0:
415,79,141000,1,0,0:0:0:0:
415,79,141082,1,8,0:0:0:0:
432,73,141124,1,8,0:0:0:0:
415,79,141165,1,0,0:0:0:0:
415,79,141247,1,8,0:0:0:0:
422,69,141330,1,0,0:0:0:0:
413,65,141495,1,0,0:0:0:0:
415,74,141577,1,0,0:0:0:0:
415,74,141659,1,0,0:0:0:0:
415,74,141742,1,8,0:0:0:0:
424,76,141824,1,0,0:0:0:0:
424,76,141907,1,8,0:0:0:0:
428,86,141989,1,8,0:0:0:0:
426,76,142071,1,0,0:0:0:0:
423,80,142154,1,8,0:0:0:0:
422,79,142195,1,8,0:0:0:0:
422,79,142236,1,0,0:0:0:0:
422,69,142319,1,8,0:0:0:0:
421,77,142401,1,0,0:0:0:0:
421,77,142484,1,8,0:0:0:0:
421,77,142525,1,8,0:0:0:0:
430,83,142566,1,0,0:0:0:0:
431,83,142648,1,8,0:0:0:0:
431,83,142731,1,0,0:0:0:0:
439,76,142813,1,0,0:0:0:0:
441,75,142896,1,8,0:0:0:0:
439,76,143060,1,0,0:0:0:0:
411,89,143102,1,0,0:0:0:0:
407,90,143143,1,0,0:0:0:0:
413,89,143225,1,8,0:0:0:0:
413,89,143308,1,8,0:0:0:0:
411,90,143390,1,0,0:0:0:0:
421,77,143473,1,8,0:0:0:0:
421,77,143555,1,8,0:0:0:0:
426,74,143637,1,0,0:0:0:0:
425,67,143720,1,8,0:0:0:0:
425,67,143761,1,8,0:0:0:0:
425,67,143802,1,8,0:0:0:0:
423,68,143885,1,0,0:0:0:0:
417,78,143967,1,0,0:0:0:0:
417,78,144050,1,8,0:0:0:0:
418,79,144132,1,0,0:0:0:0:
418,79,144214,1,8,0:0:0:0:
418,79,144297,1,8,0:0:0:0:
418,77,144379,1,0,0:0:0:0:
418,77,144420,1,0,0:0:0:0:
421,77,144462,1,8,0:0:0:0:
421,77,144544,1,0,0:0:0:0:
411,73,144626,1,0,0:0:0:0:
412,73,144709,1,8,0:0:0:0:
412,72,144750,1,8,0:0:0:0:
412,73,144791,1,8,0:0:0:0:
412,72,144874,1,0,0:0:0:0:
412,72,144956,1,0,0:0:0:0:
412,72,145039,1,8,0:0:0:0:
431,67,145080,1,8,0:0:0:0:
432,67,145121,1,0,0:0:0:0:
430,67,145203,1,8,0:0:0:0:
430,67,145286,1,8,0:0:0:0:
430,67,145368,1,0,0:0:0:0:
430,67,145409,1,0,0:0:0:0:
430,67,145451,1,0,0:0:0:0:
425,64,145533,1,8,0:0:0:0:
425,64,145615,1,8,0:0:0:0:
425,63,145698,1,0,0:0:0:0:
