osu file format v14

[General]
AudioFilename: audio.mp3
AudioLeadIn: 0
PreviewTime: 85616
Countdown: 0
SampleSet: Normal
StackLeniency: 0.7
Mode: 1
LetterboxInBreaks: 0
WidescreenStoryboard: 0

[Editor]
DistanceSpacing: 1
BeatDivisor: 4
GridSize: 32
TimelineZoom: 1.899999

[Metadata]
Title:SPIKEY BOI
TitleUnicode:SPIKEY BOI
Artist:METAROOM
ArtistUnicode:METAROOM
Creator:Nifty
Version:Muzukashii
Source:
Tags:sweet genesis nothing world mafti electronic instrumental breakcore glitchcore
BeatmapID:2978111
BeatmapSetID:1424830

[Difficulty]
HPDrainRate:5.5
CircleSize:2
OverallDifficulty:4.5
ApproachRate:10
SliderMultiplier:1.4
SliderTickRate:1

[Events]
//Background and Video events
0,0,"shred.jpg",0,-80
//Break Periods
//Storyboard Layer 0 (Background)
//Storyboard Layer 1 (Fail)
//Storyboard Layer 2 (Pass)
//Storyboard Layer 3 (Foreground)
//Storyboard Layer 4 (Overlay)
//Storyboard Sound Samples

[TimingPoints]
-15,329.67032967033,3,1,0,80,1,0
15,-125,3,1,0,80,0,0
3941,-111.111111111111,3,1,0,80,0,0
7897,-90.9090909090909,3,1,0,80,0,1
11358,-90.9090909090909,3,1,0,80,0,0
11853,-90.9090909090909,3,1,0,80,0,1
15314,-90.9090909090909,3,1,0,80,0,0
15809,-90.9090909090909,3,1,0,80,0,1
19270,-90.9090909090909,3,1,0,80,0,0
19765,-90.9090909090909,3,1,0,80,0,1
21743,-90.9090909090909,3,1,0,80,0,0
22732,-90.9090909090908,3,1,0,80,0,0
23721,329.67032967033,4,1,0,60,1,0
23721,-111.238541039791,3,1,0,60,0,0
34352,-125.161301627472,3,1,0,50,0,0
39545,-111.238541039791,3,1,0,60,0,0
44819,-100.103206405804,3,1,0,80,0,0
55699,-90.9090909090909,3,1,0,80,0,0
66004,-111.015021442552,3,1,0,70,0,0
71193,-111.111111111111,3,1,0,80,0,0
76468,-111.175345755325,3,1,0,60,0,0
81742,-125,3,1,0,70,0,0
85534,-125,3,1,0,50,0,0
87017,329.67032967033,3,1,0,80,1,1
87017,-90.9090909090909,3,1,0,80,0,1
98390,-90.9090909090909,3,1,0,80,0,0
98885,-90.9090909090909,3,1,0,80,0,1
100863,-90.9090909090909,3,1,0,80,0,0
101852,-90.9090909090908,3,1,0,80,0,0
102841,329.67032967033,3,1,0,60,1,8
103500,329.67032967033,4,1,0,60,1,0
103500,-110.609435869755,3,1,0,60,0,8
114049,-124.365425416811,3,1,0,50,0,8
119241,-110.609435869755,3,1,0,60,0,8
124598,-90.5729828038135,3,1,0,80,0,9
145697,-90.5729828038135,3,1,0,80,0,8
145984,-100,3,1,0,80,0,8

[HitObjects]
308,160,7897,5,0,0:0:0:0:
359,146,8144,1,0,0:0:0:0:
359,146,8391,1,8,0:0:0:0:
350,140,8556,1,0,0:0:0:0:
372,136,8721,1,8,0:0:0:0:
371,130,8886,1,0,0:0:0:0:
369,127,9133,1,0,0:0:0:0:
371,127,9380,1,8,0:0:0:0:
380,128,9463,1,8,0:0:0:0:
365,125,9545,1,8,0:0:0:0:
365,125,9710,1,0,0:0:0:0:
364,120,9875,1,0,0:0:0:0:
390,117,10122,1,0,0:0:0:0:
372,120,10287,1,8,0:0:0:0:
380,107,10369,1,8,0:0:0:0:
384,123,10534,1,0,0:0:0:0:
384,123,10699,1,0,0:0:0:0:
383,99,10864,1,8,0:0:0:0:
395,108,11111,1,0,0:0:0:0:
406,109,11358,1,0,0:0:0:0:
396,117,11853,1,0,0:0:0:0:
403,109,12100,1,0,0:0:0:0:
406,109,12347,1,8,0:0:0:0:
403,102,12512,1,0,0:0:0:0:
403,102,12677,1,8,0:0:0:0:
405,111,12842,1,0,0:0:0:0:
377,146,13089,1,0,0:0:0:0:
400,104,13336,1,8,0:0:0:0:
403,102,13419,1,8,0:0:0:0:
403,102,13501,1,8,0:0:0:0:
403,102,13666,1,8,0:0:0:0:
405,111,13831,1,0,0:0:0:0:
390,111,14078,1,0,0:0:0:0:
392,105,14243,1,8,0:0:0:0:
396,113,14325,1,8,0:0:0:0:
407,84,14490,1,8,0:0:0:0:
403,102,14655,1,0,0:0:0:0:
408,100,14820,1,0,0:0:0:0:
418,87,15067,1,0,0:0:0:0:
403,104,15314,1,0,0:0:0:0:
413,90,15809,1,8,0:0:0:0:
384,150,16056,1,0,0:0:0:0:
403,104,16303,1,8,0:0:0:0:
403,104,16468,1,0,0:0:0:0:
416,107,16633,1,0,0:0:0:0:
416,100,16798,1,8,0:0:0:0:
411,103,17045,1,0,0:0:0:0:
410,102,17292,1,8,0:0:0:0:
409,100,17375,1,8,0:0:0:0:
410,102,17457,1,8,0:0:0:0:
409,100,17622,1,0,0:0:0:0:
407,102,17787,1,8,0:0:0:0:
420,107,18034,1,0,0:0:0:0:
419,101,18199,1,8,0:0:0:0:
410,102,18281,1,8,0:0:0:0:
414,92,18446,1,8,0:0:0:0:
409,100,18611,1,0,0:0:0:0:
407,102,18776,1,8,0:0:0:0:
419,101,19023,1,8,0:0:0:0:
410,102,19270,1,0,0:0:0:0:
424,104,19765,1,8,0:0:0:0:
424,104,20012,1,0,0:0:0:0:
422,105,20259,1,8,0:0:0:0:
424,104,20424,1,0,0:0:0:0:
424,104,20589,1,0,0:0:0:0:
424,104,20754,1,8,0:0:0:0:
424,104,21001,1,0,0:0:0:0:
422,105,21248,1,8,0:0:0:0:
424,104,21331,1,8,0:0:0:0:
424,104,21413,1,8,0:0:0:0:
424,104,21578,1,8,0:0:0:0:
424,104,21743,1,0,0:0:0:0:
442,92,21990,1,8,0:0:0:0:
424,104,22072,1,8,0:0:0:0:
437,110,22237,1,0,0:0:0:0:
438,109,22732,1,8,0:0:0:0:
438,109,23721,1,0,0:0:0:0:
427,103,24050,1,8,0:0:0:0:
435,100,24215,1,8,0:0:0:0:
441,98,24380,1,0,0:0:0:0:
452,106,24545,1,8,0:0:0:0:
441,98,24710,1,0,0:0:0:0:
435,100,25039,1,0,0:0:0:0:
435,100,25204,1,8,0:0:0:0:
441,109,25369,1,0,0:0:0:0:
441,98,25534,1,0,0:0:0:0:
430,107,25699,1,8,0:0:0:0:
456,100,25863,1,0,0:0:0:0:
433,114,26028,1,8,0:0:0:0:
441,98,26358,1,0,0:0:0:0:
470,123,26688,1,8,0:0:0:0:
441,98,26852,1,8,0:0:0:0:
449,103,27017,1,0,0:0:0:0:
469,104,27182,1,8,0:0:0:0:
452,103,27347,1,0,0:0:0:0:
452,103,27677,1,0,0:0:0:0:
460,108,27841,1,0,0:0:0:0:
449,103,28006,1,8,0:0:0:0:
461,104,28171,1,8,0:0:0:0:
452,103,28336,1,0,0:0:0:0:
457,90,28830,1,8,0:0:0:0:
420,102,28995,1,0,0:0:0:0:
446,94,29325,1,8,0:0:0:0:
435,103,29490,1,8,0:0:0:0:
436,97,29655,1,0,0:0:0:0:
457,90,29819,1,8,0:0:0:0:
436,98,29984,1,0,0:0:0:0:
435,103,30314,1,0,0:0:0:0:
435,103,30479,1,8,0:0:0:0:
445,101,30644,1,0,0:0:0:0:
443,104,30808,1,0,0:0:0:0:
436,98,30973,1,8,0:0:0:0:
440,89,31138,1,0,0:0:0:0:
435,103,31303,1,8,0:0:0:0:
443,104,31633,1,0,0:0:0:0:
439,103,31962,1,8,0:0:0:0:
443,104,32127,1,8,0:0:0:0:
443,104,32292,1,0,0:0:0:0:
434,87,32457,1,8,0:0:0:0:
443,104,32622,1,0,0:0:0:0:
443,104,32951,1,8,0:0:0:0:
440,94,33116,1,0,0:0:0:0:
443,104,33281,1,8,0:0:0:0:
443,95,33446,1,8,0:0:0:0:
440,120,33611,1,0,0:0:0:0:
454,104,33775,1,0,0:0:0:0:
436,97,33940,1,8,0:0:0:0:
439,97,34023,1,8,0:0:0:0:
431,109,34105,1,8,0:0:0:0:
440,103,34270,1,0,0:0:0:0:
444,106,34764,1,8,0:0:0:0:
444,106,34929,1,0,0:0:0:0:
440,103,35259,1,0,0:0:0:0:
444,106,35589,1,0,0:0:0:0:
444,106,35753,1,8,0:0:0:0:
440,103,36083,1,0,0:0:0:0:
440,103,36907,1,0,0:0:0:0:
440,103,37402,1,8,0:0:0:0:
440,103,37567,1,0,0:0:0:0:
437,110,37896,1,0,0:0:0:0:
438,111,38226,1,0,0:0:0:0:
441,119,38885,1,0,0:0:0:0:
408,127,39545,5,8,0:0:0:0:
408,127,39874,1,8,0:0:0:0:
408,127,40204,1,8,0:0:0:0:
408,127,40534,1,8,0:0:0:0:
408,127,40863,1,8,0:0:0:0:
408,127,41193,1,8,0:0:0:0:
408,127,41523,1,8,0:0:0:0:
408,127,41852,1,8,0:0:0:0:
408,127,42182,1,8,0:0:0:0:
408,127,42512,1,8,0:0:0:0:
408,127,42594,1,8,0:0:0:0:
408,127,42677,1,8,0:0:0:0:
408,127,42841,1,8,0:0:0:0:
408,127,43171,1,8,0:0:0:0:
414,125,43501,1,0,0:0:0:0:
414,125,43830,1,8,0:0:0:0:
414,125,44160,1,0,0:0:0:0:
428,123,44819,1,0,0:0:0:0:
414,125,45067,1,8,0:0:0:0:
426,122,45149,1,8,0:0:0:0:
428,123,45314,1,0,0:0:0:0:
428,123,45479,1,8,0:0:0:0:
428,123,45644,1,0,0:0:0:0:
426,115,45726,1,0,0:0:0:0:
426,115,45808,1,0,0:0:0:0:
426,114,45973,1,8,0:0:0:0:
426,114,46138,1,0,0:0:0:0:
428,123,46468,1,8,0:0:0:0:
439,115,46633,1,0,0:0:0:0:
439,115,46797,1,8,0:0:0:0:
443,113,46962,1,0,0:0:0:0:
429,122,47127,1,8,0:0:0:0:
428,123,47210,1,8,0:0:0:0:
428,123,47292,1,8,0:0:0:0:
426,111,47457,1,0,0:0:0:0:
429,112,47786,1,8,0:0:0:0:
452,121,47951,1,0,0:0:0:0:
450,118,48116,1,8,0:0:0:0:
449,118,48281,1,0,0:0:0:0:
435,110,48611,1,8,0:0:0:0:
436,114,48775,1,8,0:0:0:0:
432,119,48940,1,0,0:0:0:0:
435,112,49105,1,8,0:0:0:0:
434,113,49188,1,8,0:0:0:0:
435,112,49270,1,8,0:0:0:0:
435,110,49435,1,0,0:0:0:0:
436,114,49600,1,0,0:0:0:0:
445,113,49764,1,8,0:0:0:0:
436,114,50589,1,0,0:0:0:0:
445,113,50753,1,0,0:0:0:0:
436,114,51001,1,8,0:0:0:0:
457,117,51083,1,8,0:0:0:0:
436,114,51248,1,0,0:0:0:0:
464,119,51413,1,8,0:0:0:0:
449,122,51578,1,0,0:0:0:0:
445,113,51742,1,8,0:0:0:0:
457,123,51907,1,0,0:0:0:0:
455,115,51990,1,0,0:0:0:0:
457,119,52155,1,8,0:0:0:0:
457,119,52237,1,8,0:0:0:0:
469,114,52402,1,0,0:0:0:0:
466,117,52567,1,0,0:0:0:0:
466,117,52731,1,8,0:0:0:0:
453,107,52979,1,0,0:0:0:0:
455,104,53061,1,0,0:0:0:0:
453,111,53226,1,0,0:0:0:0:
472,127,53391,1,8,0:0:0:0:
471,125,53556,1,0,0:0:0:0:
469,128,53721,1,8,0:0:0:0:
469,128,53803,1,8,0:0:0:0:
462,126,53885,1,8,0:0:0:0:
468,120,54050,1,0,0:0:0:0:
468,120,54215,1,8,0:0:0:0:
468,119,54380,1,8,0:0:0:0:
471,125,54545,1,0,0:0:0:0:
476,125,54710,1,8,0:0:0:0:
469,128,54792,1,8,0:0:0:0:
474,127,54874,1,8,0:0:0:0:
468,120,55039,1,8,0:0:0:0:
475,132,55204,1,0,0:0:0:0:
470,127,55369,1,0,0:0:0:0:
291,180,56028,1,0,0:0:0:0:
416,142,56193,1,8,0:0:0:0:
447,146,56358,1,0,0:0:0:0:
431,138,56523,1,8,0:0:0:0:
454,127,56688,1,0,0:0:0:0:
454,127,56852,1,8,0:0:0:0:
432,136,57017,1,8,0:0:0:0:
451,136,57182,1,0,0:0:0:0:
435,137,57347,1,8,0:0:0:0:
473,132,57512,1,0,0:0:0:0:
466,138,57677,1,8,0:0:0:0:
442,147,57759,1,8,0:0:0:0:
462,130,57841,1,8,0:0:0:0:
494,147,58006,1,0,0:0:0:0:
477,137,58253,1,8,0:0:0:0:
479,137,58336,1,8,0:0:0:0:
473,132,58501,1,0,0:0:0:0:
477,135,58666,1,8,0:0:0:0:
477,135,58830,1,0,0:0:0:0:
477,137,58995,1,8,0:0:0:0:
477,137,59078,1,8,0:0:0:0:
477,137,59160,1,8,0:0:0:0:
474,123,59325,1,0,0:0:0:0:
477,135,59655,1,0,0:0:0:0:
472,125,59737,1,0,0:0:0:0:
470,110,59819,1,0,0:0:0:0:
468,110,59984,1,8,0:0:0:0:
482,118,60149,1,0,0:0:0:0:
488,129,60314,1,8,0:0:0:0:
483,124,60396,1,8,0:0:0:0:
481,122,60561,1,0,0:0:0:0:
481,120,60644,1,0,0:0:0:0:
470,134,61138,1,0,0:0:0:0:
470,134,61303,1,8,0:0:0:0:
480,142,61385,1,8,0:0:0:0:
477,138,61468,1,8,0:0:0:0:
466,121,61633,1,0,0:0:0:0:
477,131,61880,1,0,0:0:0:0:
470,134,62127,1,8,0:0:0:0:
470,134,62292,1,0,0:0:0:0:
470,143,62457,1,0,0:0:0:0:
470,141,62622,1,8,0:0:0:0:
485,147,62786,1,0,0:0:0:0:
483,147,62951,1,8,0:0:0:0:
489,140,63281,1,0,0:0:0:0:
470,143,63446,1,0,0:0:0:0:
463,141,63611,1,8,0:0:0:0:
459,141,63775,1,8,0:0:0:0:
463,141,63940,1,0,0:0:0:0:
489,140,64188,1,8,0:0:0:0:
489,140,64270,1,8,0:0:0:0:
470,143,64435,1,0,0:0:0:0:
473,140,64600,1,8,0:0:0:0:
459,141,64764,1,0,0:0:0:0:
463,141,64929,1,8,0:0:0:0:
472,144,65094,1,0,0:0:0:0:
469,145,65177,1,0,0:0:0:0:
473,144,65259,1,0,0:0:0:0:
463,142,65424,1,0,0:0:0:0:
463,142,65589,1,8,0:0:0:0:
459,141,65753,1,8,0:0:0:0:
463,141,65918,1,0,0:0:0:0:
470,146,66907,1,0,0:0:0:0:
470,146,67237,1,0,0:0:0:0:
470,146,67731,1,0,0:0:0:0:
463,145,68226,1,0,0:0:0:0:
462,148,68391,1,0,0:0:0:0:
462,148,68556,1,8,0:0:0:0:
462,148,68803,1,8,0:0:0:0:
463,145,69050,1,0,0:0:0:0:
469,143,69545,1,0,0:0:0:0:
468,143,69874,1,0,0:0:0:0:
469,143,70369,1,8,0:0:0:0:
466,157,70699,1,0,0:0:0:0:
466,156,70863,1,8,0:0:0:0:
461,148,71028,1,0,0:0:0:0:
453,148,71111,1,0,0:0:0:0:
460,148,71193,1,0,0:0:0:0:
467,169,71523,1,8,0:0:0:0:
460,165,71688,1,0,0:0:0:0:
475,166,72017,1,0,0:0:0:0:
470,162,72182,1,8,0:0:0:0:
467,169,72512,1,8,0:0:0:0:
469,160,72677,1,0,0:0:0:0:
475,166,72841,1,8,0:0:0:0:
475,166,73006,1,0,0:0:0:0:
470,162,73171,1,0,0:0:0:0:
467,169,73501,1,8,0:0:0:0:
468,167,73666,1,8,0:0:0:0:
465,165,73830,1,0,0:0:0:0:
460,166,74160,1,8,0:0:0:0:
455,166,74325,1,0,0:0:0:0:
459,170,74655,1,8,0:0:0:0:
462,172,74819,1,0,0:0:0:0:
453,174,75149,1,0,0:0:0:0:
452,172,75644,1,0,0:0:0:0:
462,172,75808,1,8,0:0:0:0:
463,166,75973,1,8,0:0:0:0:
463,166,76138,1,0,0:0:0:0:
463,166,76221,1,0,0:0:0:0:
463,166,76303,1,0,0:0:0:0:
463,166,76468,1,8,0:0:0:0:
467,160,76962,1,8,0:0:0:0:
456,163,77457,1,0,0:0:0:0:
467,160,77786,1,8,0:0:0:0:
467,160,78281,1,8,0:0:0:0:
467,160,79105,1,8,0:0:0:0:
467,160,79600,1,8,0:0:0:0:
450,147,79929,1,8,0:0:0:0:
467,160,80424,1,8,0:0:0:0:
457,148,80753,1,0,0:0:0:0:
458,148,80836,1,0,0:0:0:0:
460,148,80918,1,0,0:0:0:0:
454,139,81742,1,0,0:0:0:0:
454,139,82731,1,0,0:0:0:0:
454,139,83721,1,8,0:0:0:0:
470,134,85699,1,0,0:0:0:0:
470,134,85863,1,8,0:0:0:0:
470,134,86028,1,0,0:0:0:0:
470,134,86111,1,0,0:0:0:0:
470,134,86193,1,0,0:0:0:0:
476,140,86358,1,8,0:0:0:0:
470,134,86523,1,0,0:0:0:0:
470,134,86605,1,0,0:0:0:0:
470,134,87017,1,0,0:0:0:0:
471,143,87181,1,8,0:0:0:0:
476,140,87264,1,8,0:0:0:0:
476,140,87346,1,8,0:0:0:0:
469,142,87511,1,0,0:0:0:0:
475,139,87676,1,0,0:0:0:0:
458,145,87841,1,8,0:0:0:0:
458,144,88006,1,0,0:0:0:0:
471,143,88170,1,8,0:0:0:0:
467,140,88253,1,8,0:0:0:0:
465,134,88335,1,8,0:0:0:0:
465,134,88500,1,0,0:0:0:0:
465,134,88665,1,8,0:0:0:0:
470,152,88995,1,8,0:0:0:0:
471,143,89159,1,0,0:0:0:0:
467,140,89242,1,0,0:0:0:0:
471,144,89324,1,0,0:0:0:0:
465,134,89489,1,8,0:0:0:0:
465,134,89654,1,0,0:0:0:0:
458,136,89819,1,8,0:0:0:0:
460,141,89984,1,0,0:0:0:0:
460,139,90148,1,8,0:0:0:0:
452,139,90231,1,8,0:0:0:0:
452,139,90313,1,8,0:0:0:0:
454,136,90478,1,0,0:0:0:0:
454,136,90643,1,8,0:0:0:0:
460,141,90973,1,0,0:0:0:0:
453,134,91137,1,8,0:0:0:0:
454,149,91220,1,8,0:0:0:0:
452,139,91302,1,8,0:0:0:0:
454,136,91467,1,0,0:0:0:0:
454,136,91632,1,0,0:0:0:0:
457,160,91797,1,8,0:0:0:0:
456,158,91962,1,0,0:0:0:0:
460,139,92126,1,8,0:0:0:0:
461,138,92209,1,8,0:0:0:0:
461,137,92291,1,8,0:0:0:0:
462,143,92456,1,0,0:0:0:0:
462,143,92621,1,8,0:0:0:0:
459,140,92951,1,8,0:0:0:0:
460,139,93115,1,0,0:0:0:0:
461,138,93198,1,0,0:0:0:0:
450,136,93280,1,0,0:0:0:0:
458,136,93445,1,8,0:0:0:0:
458,136,93610,1,0,0:0:0:0:
459,140,93775,1,0,0:0:0:0:
457,131,93940,1,8,0:0:0:0:
460,139,94104,1,0,0:0:0:0:
469,135,94187,1,0,0:0:0:0:
470,135,94269,1,0,0:0:0:0:
469,135,94434,1,8,0:0:0:0:
462,139,94929,5,0,0:0:0:0:
460,139,95093,1,8,0:0:0:0:
469,135,95176,1,8,0:0:0:0:
469,135,95341,1,0,0:0:0:0:
469,135,95423,1,0,0:0:0:0:
462,139,95588,1,8,0:0:0:0:
464,132,95753,1,0,0:0:0:0:
479,129,95918,1,8,0:0:0:0:
477,129,96082,1,0,0:0:0:0:
469,135,96165,1,0,0:0:0:0:
469,135,96247,1,0,0:0:0:0:
469,135,96412,1,8,0:0:0:0:
471,137,96577,1,8,0:0:0:0:
452,127,96907,1,0,0:0:0:0:
456,126,97071,1,8,0:0:0:0:
451,133,97154,1,8,0:0:0:0:
471,143,97236,1,8,0:0:0:0:
454,133,97401,1,0,0:0:0:0:
455,137,97566,1,8,0:0:0:0:
466,135,97731,1,0,0:0:0:0:
460,136,97896,1,8,0:0:0:0:
452,136,98060,1,0,0:0:0:0:
451,133,98143,1,0,0:0:0:0:
452,136,98225,1,0,0:0:0:0:
454,133,98390,1,8,0:0:0:0:
471,140,98885,1,8,0:0:0:0:
479,140,99049,1,0,0:0:0:0:
479,140,99132,1,0,0:0:0:0:
471,138,99297,1,8,0:0:0:0:
471,138,99379,1,8,0:0:0:0:
471,140,99544,1,0,0:0:0:0:
471,140,99709,1,8,0:0:0:0:
471,140,99874,1,0,0:0:0:0:
466,129,100038,1,0,0:0:0:0:
466,129,100121,1,0,0:0:0:0:
462,129,100203,1,0,0:0:0:0:
471,138,100368,1,8,0:0:0:0:
471,140,100533,1,8,0:0:0:0:
471,128,100863,1,8,0:0:0:0:
466,129,101027,1,0,0:0:0:0:
474,129,101192,1,8,0:0:0:0:
453,123,101275,1,8,0:0:0:0:
486,142,101357,1,0,0:0:0:0:
487,130,101852,1,8,0:0:0:0:
481,132,103500,1,0,0:0:0:0:
481,132,103994,1,8,0:0:0:0:
481,132,104159,1,0,0:0:0:0:
481,132,104489,1,0,0:0:0:0:
481,132,104818,1,0,0:0:0:0:
481,132,104983,1,8,0:0:0:0:
481,132,105313,1,0,0:0:0:0:
481,132,106137,1,0,0:0:0:0:
481,132,106631,1,8,0:0:0:0:
481,132,106796,1,0,0:0:0:0:
481,132,107126,1,0,0:0:0:0:
481,132,107456,1,0,0:0:0:0:
481,132,108115,1,0,0:0:0:0:
475,127,108774,1,0,0:0:0:0:
475,127,109269,1,8,0:0:0:0:
475,127,109434,1,0,0:0:0:0:
475,127,109763,1,0,0:0:0:0:
475,127,110093,1,0,0:0:0:0:
466,126,110258,1,8,0:0:0:0:
466,126,110587,1,0,0:0:0:0:
466,126,111412,1,0,0:0:0:0:
466,126,111906,1,8,0:0:0:0:
466,126,112071,1,0,0:0:0:0:
466,126,112401,1,0,0:0:0:0:
466,126,112730,1,8,0:0:0:0:
466,126,113390,1,0,0:0:0:0:
466,126,114049,1,0,0:0:0:0:
472,123,114379,1,8,0:0:0:0:
466,126,115038,1,8,0:0:0:0:
466,126,115697,1,8,0:0:0:0:
466,126,116357,1,8,0:0:0:0:
466,126,117016,1,8,0:0:0:0:
466,126,117675,1,8,0:0:0:0:
466,126,118335,1,8,0:0:0:0:
466,126,118994,1,8,0:0:0:0:
466,126,119324,1,0,0:0:0:0:
466,126,119653,1,8,0:0:0:0:
466,126,119818,1,8,0:0:0:0:
466,126,119983,1,0,0:0:0:0:
466,126,120313,1,8,0:0:0:0:
466,126,120642,1,0,0:0:0:0:
466,126,120807,1,8,0:0:0:0:
454,133,120972,1,8,0:0:0:0:
454,133,121137,1,0,0:0:0:0:
466,126,121302,1,8,0:0:0:0:
466,126,121631,1,8,0:0:0:0:
450,126,121961,1,0,0:0:0:0:
450,126,122291,1,8,0:0:0:0:
450,121,122373,1,8,0:0:0:0:
450,126,122456,1,8,0:0:0:0:
450,126,122620,1,0,0:0:0:0:
463,123,122950,1,0,0:0:0:0:
457,120,123280,1,8,0:0:0:0:
465,116,123939,1,0,0:0:0:0:
458,108,124104,1,8,0:0:0:0:
457,109,124186,1,8,0:0:0:0:
454,109,124269,1,8,0:0:0:0:
480,120,124598,1,0,0:0:0:0:
465,116,124763,1,8,0:0:0:0:
457,109,124846,1,8,0:0:0:0:
469,113,125093,1,8,0:0:0:0:
474,117,125258,1,0,0:0:0:0:
467,113,125423,1,8,0:0:0:0:
466,112,125505,1,8,0:0:0:0:
466,112,125587,1,8,0:0:0:0:
453,109,125752,1,0,0:0:0:0:
457,109,125917,1,8,0:0:0:0:
453,108,126082,1,0,0:0:0:0:
453,108,126412,1,0,0:0:0:0:
456,104,126576,1,8,0:0:0:0:
453,109,126741,1,0,0:0:0:0:
457,109,126824,1,0,0:0:0:0:
457,109,126906,1,0,0:0:0:0:
464,103,127236,1,8,0:0:0:0:
445,111,127401,1,8,0:0:0:0:
446,111,127565,1,0,0:0:0:0:
443,102,127730,1,8,0:0:0:0:
447,101,127895,1,0,0:0:0:0:
447,101,127978,1,0,0:0:0:0:
447,101,128060,1,0,0:0:0:0:
447,101,128225,1,8,0:0:0:0:
447,101,128390,1,8,0:0:0:0:
447,101,128554,1,0,0:0:0:0:
457,103,128802,1,8,0:0:0:0:
459,100,128884,1,8,0:0:0:0:
455,103,129049,1,8,0:0:0:0:
455,103,129214,1,0,0:0:0:0:
457,103,129708,1,8,0:0:0:0:
459,100,129873,1,8,0:0:0:0:
455,103,130120,1,0,0:0:0:0:
440,94,130203,1,0,0:0:0:0:
451,94,130368,1,0,0:0:0:0:
451,94,130532,1,8,0:0:0:0:
451,94,130780,1,8,0:0:0:0:
451,94,130862,1,8,0:0:0:0:
451,94,131027,1,0,0:0:0:0:
451,94,131192,1,8,0:0:0:0:
454,109,131357,1,8,0:0:0:0:
454,109,131521,1,0,0:0:0:0:
457,100,131686,1,8,0:0:0:0:
451,94,131851,1,0,0:0:0:0:
457,97,132016,1,8,0:0:0:0:
457,97,132098,1,8,0:0:0:0:
451,94,132181,1,8,0:0:0:0:
454,109,132346,1,8,0:0:0:0:
462,94,132510,1,0,0:0:0:0:
461,94,132758,1,8,0:0:0:0:
460,93,132840,1,8,0:0:0:0:
451,94,133005,1,8,0:0:0:0:
460,92,133170,1,0,0:0:0:0:
449,87,133335,1,8,0:0:0:0:
446,89,133417,1,8,0:0:0:0:
456,86,133500,1,8,0:0:0:0:
451,89,133664,1,0,0:0:0:0:
451,89,133829,1,8,0:0:0:0:
454,86,134159,1,0,0:0:0:0:
449,87,134324,1,0,0:0:0:0:
456,86,134489,1,8,0:0:0:0:
451,89,134653,1,0,0:0:0:0:
451,89,134736,1,0,0:0:0:0:
451,89,134818,1,0,0:0:0:0:
454,86,134983,1,8,0:0:0:0:
480,120,135148,1,0,0:0:0:0:
465,116,135313,1,8,0:0:0:0:
457,109,135396,1,8,0:0:0:0:
469,113,135643,1,8,0:0:0:0:
474,117,135808,1,0,0:0:0:0:
467,113,135973,1,8,0:0:0:0:
466,112,136055,1,8,0:0:0:0:
466,112,136137,1,8,0:0:0:0:
453,109,136302,1,0,0:0:0:0:
457,109,136467,1,8,0:0:0:0:
453,108,136632,1,0,0:0:0:0:
453,108,136962,1,0,0:0:0:0:
456,104,137126,1,8,0:0:0:0:
453,109,137291,1,0,0:0:0:0:
464,103,137786,1,8,0:0:0:0:
445,111,137951,1,8,0:0:0:0:
446,111,138115,1,0,0:0:0:0:
443,102,138280,1,8,0:0:0:0:
447,101,138445,1,0,0:0:0:0:
447,101,138528,1,0,0:0:0:0:
447,101,138610,1,0,0:0:0:0:
447,101,138775,1,8,0:0:0:0:
447,101,138940,1,8,0:0:0:0:
447,101,139104,1,0,0:0:0:0:
457,103,139352,1,8,0:0:0:0:
459,100,139434,1,8,0:0:0:0:
455,103,139599,1,8,0:0:0:0:
455,103,139764,1,0,0:0:0:0:
457,92,140010,1,0,0:0:0:0:
461,92,140093,1,0,0:0:0:0:
457,103,140258,1,8,0:0:0:0:
459,100,140423,1,8,0:0:0:0:
455,103,140670,1,0,0:0:0:0:
440,94,140753,1,0,0:0:0:0:
451,94,140918,1,0,0:0:0:0:
451,94,141082,1,8,0:0:0:0:
451,94,141330,1,8,0:0:0:0:
451,94,141412,1,8,0:0:0:0:
451,94,141577,1,0,0:0:0:0:
451,94,141742,1,8,0:0:0:0:
454,109,141907,1,8,0:0:0:0:
454,109,142071,1,0,0:0:0:0:
457,100,142236,1,8,0:0:0:0:
451,94,142401,1,0,0:0:0:0:
457,97,142565,1,8,0:0:0:0:
457,97,142648,1,8,0:0:0:0:
451,94,142731,1,8,0:0:0:0:
437,100,142895,1,8,0:0:0:0:
462,94,143060,1,0,0:0:0:0:
461,94,143308,1,8,0:0:0:0:
460,93,143390,1,8,0:0:0:0:
451,94,143555,1,8,0:0:0:0:
460,92,143720,1,0,0:0:0:0:
449,87,143885,1,8,0:0:0:0:
446,89,143967,1,8,0:0:0:0:
456,86,144050,1,8,0:0:0:0:
451,89,144214,1,0,0:0:0:0:
451,89,144379,1,8,0:0:0:0:
454,86,144626,1,0,0:0:0:0:
454,86,144709,1,0,0:0:0:0:
449,87,144874,1,0,0:0:0:0:
456,86,145039,1,8,0:0:0:0:
451,89,145203,1,0,0:0:0:0:
451,89,145286,1,0,0:0:0:0:
451,89,145368,1,0,0:0:0:0:
454,86,145533,1,8,0:0:0:0:
454,86,145697,1,0,0:0:0:0:
