osu file format v14

[General]
AudioFilename: audio.mp3
AudioLeadIn: 0
PreviewTime: 85616
Countdown: 0
SampleSet: Normal
StackLeniency: 0.7
Mode: 1
LetterboxInBreaks: 0
WidescreenStoryboard: 0

[Editor]
DistanceSpacing: 1
BeatDivisor: 4
GridSize: 32
TimelineZoom: 2.599999

[Metadata]
Title:SPIKEY BOI
TitleUnicode:SPIKEY BOI
Artist:METAROOM
ArtistUnicode:METAROOM
Creator:Nifty
Version:Kantan
Source:
Tags:sweet genesis nothing world mafti electronic instrumental breakcore glitchcore
BeatmapID:2978840
BeatmapSetID:1424830

[Difficulty]
HPDrainRate:7
CircleSize:2
OverallDifficulty:3
ApproachRate:10
SliderMultiplier:1.4
SliderTickRate:1

[Events]
//Background and Video events
0,0,"shred.jpg",0,-80
//Break Periods
//Storyboard Layer 0 (Background)
//Storyboard Layer 1 (Fail)
//Storyboard Layer 2 (Pass)
//Storyboard Layer 3 (Foreground)
//Storyboard Layer 4 (Overlay)
//Storyboard Sound Samples

[TimingPoints]
-15,329.67032967033,3,1,0,80,1,0
15,-100,3,1,0,80,0,0
3941,-100,3,1,0,80,0,0
7897,-100,3,1,0,80,0,1
11358,-100,3,1,0,80,0,0
11853,-100,3,1,0,80,0,1
15314,-100,3,1,0,80,0,0
15809,-100,3,1,0,80,0,1
19270,-100,3,1,0,80,0,0
19765,-100,3,1,0,80,0,1
21743,-100,3,1,0,80,0,0
22732,-100,3,1,0,80,0,0
23721,329.67032967033,4,1,0,60,1,0
23721,-100,3,1,0,60,0,0
34352,-100,3,1,0,50,0,0
39545,-100,3,1,0,60,0,0
44819,-100,3,1,0,80,0,0
52731,-100,3,1,0,80,0,0
66004,-100,3,1,0,70,0,0
71193,-100,3,1,0,80,0,0
76468,-100,3,1,0,60,0,0
81742,-100,3,1,0,70,0,0
85534,-100,3,1,0,50,0,0
87017,329.67032967033,3,1,0,80,1,1
87017,-100,3,1,0,80,0,1
98390,-100,3,1,0,80,0,0
98885,-100,3,1,0,80,0,1
100863,-100,3,1,0,80,0,0
101852,-100,3,1,0,80,0,0
102841,329.67032967033,3,1,0,60,1,8
103500,329.67032967033,4,1,0,60,1,0
103500,-100,3,1,0,60,0,8
114049,-100,3,1,0,50,0,8
119241,-100,3,1,0,60,0,8
124598,-100,3,1,0,80,0,9
145697,-100,3,1,0,80,0,8
145984,-100,3,1,0,80,0,8

[HitObjects]
308,160,7897,5,0,0:0:0:0:
360,133,8391,1,8,0:0:0:0:
371,130,8886,1,0,0:0:0:0:
365,125,9380,1,8,0:0:0:0:
364,120,9875,1,8,0:0:0:0:
365,108,10369,1,0,0:0:0:0:
383,99,10864,1,8,0:0:0:0:
396,117,11853,1,0,0:0:0:0:
397,108,12347,1,8,0:0:0:0:
405,111,12842,1,8,0:0:0:0:
403,102,13336,1,0,0:0:0:0:
405,111,13831,1,0,0:0:0:0:
407,84,14325,1,8,0:0:0:0:
408,100,14820,1,0,0:0:0:0:
413,90,15809,1,8,0:0:0:0:
403,104,16303,1,0,0:0:0:0:
416,100,16798,1,8,0:0:0:0:
410,102,17292,1,0,0:0:0:0:
407,102,17787,1,8,0:0:0:0:
414,92,18281,1,0,0:0:0:0:
407,102,18776,1,8,0:0:0:0:
424,104,19765,1,8,0:0:0:0:
424,104,20259,1,0,0:0:0:0:
424,104,20754,1,8,0:0:0:0:
418,100,21248,1,8,0:0:0:0:
424,104,21743,1,0,0:0:0:0:
437,110,22237,1,0,0:0:0:0:
438,109,22732,1,8,0:0:0:0:
438,109,23721,1,0,0:0:0:0:
441,98,24380,1,0,0:0:0:0:
441,98,24710,1,0,0:0:0:0:
435,100,25039,1,0,0:0:0:0:
441,98,26358,1,0,0:0:0:0:
449,103,27017,1,0,0:0:0:0:
452,103,27347,1,0,0:0:0:0:
452,103,27677,1,0,0:0:0:0:
429,103,28336,1,0,0:0:0:0:
420,102,28995,1,0,0:0:0:0:
436,97,29655,1,0,0:0:0:0:
436,98,29984,1,0,0:0:0:0:
435,103,30314,1,0,0:0:0:0:
443,104,31633,1,0,0:0:0:0:
443,104,32292,1,0,0:0:0:0:
443,104,32622,1,0,0:0:0:0:
443,104,32951,1,8,0:0:0:0:
440,120,33611,1,0,0:0:0:0:
431,109,33940,1,8,0:0:0:0:
440,103,34270,1,0,0:0:0:0:
444,106,34929,1,0,0:0:0:0:
440,103,35259,1,0,0:0:0:0:
444,106,35589,1,0,0:0:0:0:
440,103,36907,1,0,0:0:0:0:
440,103,37567,1,0,0:0:0:0:
437,110,37896,1,0,0:0:0:0:
438,111,38226,1,0,0:0:0:0:
443,98,38885,1,0,0:0:0:0:
408,127,39545,5,8,0:0:0:0:
408,127,39874,1,8,0:0:0:0:
408,127,40204,1,8,0:0:0:0:
408,127,40863,1,8,0:0:0:0:
408,127,41193,1,8,0:0:0:0:
408,127,41523,1,8,0:0:0:0:
408,127,42182,1,8,0:0:0:0:
408,127,42512,1,8,0:0:0:0:
408,127,42841,1,8,0:0:0:0:
408,127,43171,1,8,0:0:0:0:
414,125,43501,1,0,0:0:0:0:
418,129,44160,1,0,0:0:0:0:
428,123,44819,1,0,0:0:0:0:
426,122,45149,1,8,0:0:0:0:
408,133,45479,1,0,0:0:0:0:
315,144,46138,1,0,0:0:0:0:
428,123,46468,1,8,0:0:0:0:
426,111,47457,1,0,0:0:0:0:
429,112,47786,1,8,0:0:0:0:
450,118,48116,1,8,0:0:0:0:
436,114,48775,1,8,0:0:0:0:
435,112,49105,1,8,0:0:0:0:
435,110,49435,1,0,0:0:0:0:
445,113,50753,1,0,0:0:0:0:
457,117,51083,1,8,0:0:0:0:
464,119,51413,1,8,0:0:0:0:
455,115,52072,1,8,0:0:0:0:
469,114,52402,1,0,0:0:0:0:
466,117,52731,1,8,0:0:0:0:
472,127,53391,1,0,0:0:0:0:
468,120,54050,1,8,0:0:0:0:
476,125,54710,1,8,0:0:0:0:
468,120,55039,1,8,0:0:0:0:
470,127,55369,1,0,0:0:0:0:
416,142,56028,1,0,0:0:0:0:
447,146,56358,1,0,0:0:0:0:
454,127,56688,1,0,0:0:0:0:
494,147,58006,1,0,0:0:0:0:
477,135,58666,1,0,0:0:0:0:
477,137,58995,1,8,0:0:0:0:
474,123,59325,1,0,0:0:0:0:
468,110,59984,1,8,0:0:0:0:
488,129,60314,1,8,0:0:0:0:
481,120,60644,1,0,0:0:0:0:
470,134,61303,1,8,0:0:0:0:
470,141,62457,1,8,0:0:0:0:
483,147,62951,1,8,0:0:0:0:
489,140,63281,1,0,0:0:0:0:
463,141,63940,1,0,0:0:0:0:
489,140,64270,1,0,0:0:0:0:
473,140,64600,1,8,0:0:0:0:
473,144,65259,1,0,0:0:0:0:
463,142,65589,1,8,0:0:0:0:
463,141,65918,1,0,0:0:0:0:
470,146,66907,1,0,0:0:0:0:
470,146,67237,1,0,0:0:0:0:
470,146,67731,1,0,0:0:0:0:
462,148,68556,1,8,0:0:0:0:
463,145,69050,1,0,0:0:0:0:
468,143,69874,1,0,0:0:0:0:
469,143,70369,1,8,0:0:0:0:
466,156,70863,1,8,0:0:0:0:
460,148,71193,1,0,0:0:0:0:
470,162,72182,1,8,0:0:0:0:
467,169,72512,1,8,0:0:0:0:
470,162,73171,1,0,0:0:0:0:
455,166,74325,1,0,0:0:0:0:
462,172,74819,1,0,0:0:0:0:
453,174,75149,1,0,0:0:0:0:
452,172,75644,1,0,0:0:0:0:
463,166,76468,1,8,0:0:0:0:
467,160,77786,1,8,0:0:0:0:
467,160,79105,1,8,0:0:0:0:
467,160,80424,1,8,0:0:0:0:
454,139,81742,1,0,0:0:0:0:
454,139,82731,1,0,0:0:0:0:
454,139,83721,1,8,0:0:0:0:
470,134,85699,1,0,0:0:0:0:
433,146,86028,1,0,0:0:0:0:
446,140,86358,1,8,0:0:0:0:
470,134,87017,1,0,0:0:0:0:
471,143,87511,1,0,0:0:0:0:
458,144,88006,1,8,0:0:0:0:
465,134,88500,1,0,0:0:0:0:
470,152,88995,1,8,0:0:0:0:
465,134,89489,1,8,0:0:0:0:
460,141,89984,1,0,0:0:0:0:
480,128,90478,1,0,0:0:0:0:
460,141,90973,1,8,0:0:0:0:
453,134,91467,1,8,0:0:0:0:
456,158,91962,1,0,0:0:0:0:
462,143,92456,1,8,0:0:0:0:
459,140,92951,1,0,0:0:0:0:
459,140,93445,1,8,0:0:0:0:
457,131,93940,1,8,0:0:0:0:
462,139,94929,5,0,0:0:0:0:
469,135,95423,1,8,0:0:0:0:
479,129,95918,1,0,0:0:0:0:
471,137,96412,1,8,0:0:0:0:
452,127,96907,1,8,0:0:0:0:
463,124,97401,1,0,0:0:0:0:
460,136,97896,1,8,0:0:0:0:
471,140,98885,1,0,0:0:0:0:
479,140,99379,1,8,0:0:0:0:
471,140,99874,1,8,0:0:0:0:
471,140,100368,1,0,0:0:0:0:
471,128,100863,1,8,0:0:0:0:
486,142,101357,1,0,0:0:0:0:
487,130,101852,1,8,0:0:0:0:
481,132,103500,1,0,0:0:0:0:
481,132,104159,1,0,0:0:0:0:
481,132,104489,1,0,0:0:0:0:
481,132,104818,1,0,0:0:0:0:
481,132,106137,1,0,0:0:0:0:
481,132,106796,1,0,0:0:0:0:
481,132,107126,1,0,0:0:0:0:
481,132,107456,1,0,0:0:0:0:
481,132,108115,1,0,0:0:0:0:
475,127,108774,1,0,0:0:0:0:
475,127,109434,1,0,0:0:0:0:
475,127,109763,1,0,0:0:0:0:
475,127,110093,1,0,0:0:0:0:
466,126,111412,1,0,0:0:0:0:
466,126,112071,1,0,0:0:0:0:
466,126,112401,1,0,0:0:0:0:
466,126,112730,1,8,0:0:0:0:
466,126,113390,1,0,0:0:0:0:
466,126,114049,1,0,0:0:0:0:
472,123,114379,1,8,0:0:0:0:
466,126,115038,1,8,0:0:0:0:
466,126,115697,1,8,0:0:0:0:
466,126,117016,1,8,0:0:0:0:
466,126,117675,1,8,0:0:0:0:
466,126,118335,1,8,0:0:0:0:
466,126,118994,1,8,0:0:0:0:
466,126,119324,1,0,0:0:0:0:
466,126,119983,1,0,0:0:0:0:
466,126,120313,1,8,0:0:0:0:
466,126,120642,1,0,0:0:0:0:
466,126,121302,1,8,0:0:0:0:
436,115,121631,1,8,0:0:0:0:
450,126,121961,1,0,0:0:0:0:
450,126,122620,1,0,0:0:0:0:
463,123,122950,1,0,0:0:0:0:
457,120,123280,1,8,0:0:0:0:
480,120,124598,1,0,0:0:0:0:
457,109,124928,1,8,0:0:0:0:
474,117,125258,1,0,0:0:0:0:
457,109,125917,1,8,0:0:0:0:
453,108,126412,1,8,0:0:0:0:
464,103,127236,1,8,0:0:0:0:
446,111,127565,1,8,0:0:0:0:
447,101,127895,1,0,0:0:0:0:
447,101,128225,1,0,0:0:0:0:
447,101,128554,1,8,0:0:0:0:
418,115,129214,1,0,0:0:0:0:
459,100,129873,1,8,0:0:0:0:
455,103,130203,1,0,0:0:0:0:
451,94,130532,1,8,0:0:0:0:
451,94,131192,1,0,0:0:0:0:
454,109,131686,1,0,0:0:0:0:
462,94,132510,1,0,0:0:0:0:
451,94,132840,1,8,0:0:0:0:
460,92,133170,1,0,0:0:0:0:
456,86,133500,1,8,0:0:0:0:
451,89,133829,1,8,0:0:0:0:
480,120,135148,1,0,0:0:0:0:
457,109,135478,1,8,0:0:0:0:
474,117,135808,1,0,0:0:0:0:
457,109,136467,1,8,0:0:0:0:
453,108,136961,1,8,0:0:0:0:
464,103,137786,1,8,0:0:0:0:
446,111,138115,1,0,0:0:0:0:
447,101,138445,1,0,0:0:0:0:
447,101,138775,1,8,0:0:0:0:
447,101,139104,1,0,0:0:0:0:
447,101,139763,1,0,0:0:0:0:
459,100,140423,1,8,0:0:0:0:
455,103,140752,1,0,0:0:0:0:
451,94,141082,1,8,0:0:0:0:
451,94,141742,1,0,0:0:0:0:
457,100,142236,1,0,0:0:0:0:
462,94,143060,1,0,0:0:0:0:
461,94,143390,1,8,0:0:0:0:
460,92,143720,1,0,0:0:0:0:
456,86,144050,1,0,0:0:0:0:
451,89,144379,1,8,0:0:0:0:
456,86,145039,1,8,0:0:0:0:
448,74,145368,1,8,0:0:0:0:
454,86,145697,1,0,0:0:0:0:
