osu file format v14

[General]
AudioFilename: audio.mp3
AudioLeadIn: 0
PreviewTime: 38561
Countdown: 0
SampleSet: Normal
StackLeniency: 0.7
Mode: 1
LetterboxInBreaks: 0
WidescreenStoryboard: 0

[Editor]
DistanceSpacing: 1
BeatDivisor: 8
GridSize: 32
TimelineZoom: 2.2

[Metadata]
Title:S.N.U.F.F.Y
TitleUnicode:S.N.U.F.F.Y
Artist:METAROOM
ArtistUnicode:METAROOM
Creator:davidminh0111
Version:Futsuu
Source:
Tags:snuffy featured artist fa osu! electronic virtual youtuber vtuber english
BeatmapID:4068721
BeatmapSetID:1963076

[Difficulty]
HPDrainRate:7
CircleSize:2
OverallDifficulty:4
ApproachRate:10
SliderMultiplier:2
SliderTickRate:1

[Events]
//Background and Video events
0,0,"bg.jpg",0,0
//Break Periods
//Storyboard Layer 0 (Background)
//Storyboard Layer 1 (Fail)
//Storyboard Layer 2 (Pass)
//Storyboard Layer 3 (Foreground)
//Storyboard Layer 4 (Overlay)
//Storyboard Sound Samples

[TimingPoints]
166,600,4,1,0,60,1,0
166,-100,4,1,0,60,0,0
12765,-100,4,1,0,60,0,0
12915,-100,4,1,0,60,0,0
13065,-100,4,1,0,60,0,0
13365,-100,4,1,0,60,0,0
13515,-100,4,1,0,60,0,0
13665,-100,4,1,0,60,0,0
13815,-100,4,1,0,60,0,0
13965,-100,4,1,0,60,0,0
14040,-100,4,1,0,60,0,0
14115,-100,4,1,0,60,0,0
14265,-100,4,1,0,60,0,0
14415,-100,4,1,0,60,0,0
14565,-100,4,1,0,60,0,0
18766,-100,4,1,0,70,0,0
18916,-100,4,1,0,60,0,0
19066,-100,4,1,0,60,0,0
19216,-100,4,1,0,60,0,0
19366,-100,4,1,0,70,0,0
22365,-100,4,1,0,70,0,0
22515,-100,4,1,0,70,0,0
22665,-100,4,1,0,70,0,0
22815,-100,4,1,0,70,0,0
22965,-100,4,1,0,70,0,0
23115,-100,4,1,0,70,0,0
23265,-100,4,1,0,70,0,0
23415,-100,4,1,0,70,0,0
23565,-100,4,1,0,70,0,0
23640,-100,4,1,0,70,0,0
23715,-100,4,1,0,70,0,0
23865,-100,4,1,0,70,0,0
24015,-100,4,1,0,70,0,0
24165,-100,4,1,0,70,0,0
31665,-100,4,1,0,70,0,0
31815,-100,4,1,0,70,0,0
31965,-100,4,1,0,70,0,0
32265,-100,4,1,0,70,0,0
32415,-100,4,1,0,70,0,0
32565,-100,4,1,0,70,0,0
33015,-100,4,1,0,70,0,0
33165,-100,4,1,0,70,0,0
33315,-100,4,1,0,70,0,0
33465,-100,4,1,0,70,0,0
33615,-100,4,1,0,70,0,0
33765,-100,4,1,0,70,0,0
36166,-100,4,1,0,70,0,0
36466,-100,4,1,0,70,0,0
36616,-100,4,1,0,70,0,0
36766,-100,4,1,0,70,0,0
37066,-100,4,1,0,70,0,0
37216,-100,4,1,0,70,0,0
37366,-100,4,1,0,70,0,0
37666,-100,4,1,0,70,0,0
37816,-100,4,1,0,70,0,0
37966,-100,4,1,0,70,0,0
38566,-100,4,1,0,70,0,0
38716,-100,4,1,0,70,0,0
48166,-100,4,1,0,70,0,0
48241,-100,4,1,0,70,0,0
57766,-100,4,1,0,70,0,0
60728,-100,4,1,0,70,0,0
60878,-100,4,1,0,70,0,0
61028,-100,4,1,0,70,0,0
61178,-100,4,1,0,70,0,0
61328,-100,4,1,0,70,0,0
61478,-100,4,1,0,70,0,0
61628,-100,4,1,0,70,0,0
61778,-100,4,1,0,70,0,0
61928,-100,4,1,0,70,0,0
62003,-100,4,1,0,70,0,0
62078,-100,4,1,0,70,0,0
62228,-100,4,1,0,70,0,0
62378,-100,4,1,0,70,0,0
62528,-100,4,1,0,70,0,0
70028,-100,4,1,0,70,0,0
70178,-100,4,1,0,70,0,0
70328,-100,4,1,0,70,0,0
70628,-100,4,1,0,70,0,0
70778,-100,4,1,0,70,0,0
70928,-100,4,1,0,70,0,0
71378,-100,4,1,0,70,0,0
71528,-100,4,1,0,70,0,0
71678,-100,4,1,0,70,0,0
71828,-100,4,1,0,70,0,0
71978,-100,4,1,0,70,0,0
72128,-100,4,1,0,70,0,0
74528,-100,4,1,0,70,0,0
74828,-100,4,1,0,70,0,0
74978,-100,4,1,0,70,0,0
75128,-100,4,1,0,70,0,0
75428,-100,4,1,0,70,0,0
75578,-100,4,1,0,70,0,0
75728,-100,4,1,0,70,0,0
76028,-100,4,1,0,70,0,0
76178,-100,4,1,0,70,0,0
76328,-100,4,1,0,70,0,0
76966,-100,4,1,0,70,0,0
77041,-100,4,1,0,70,0,0
96166,-100,4,1,0,70,0,0
98865,-100,4,1,0,70,0,0
99015,-100,4,1,0,70,0,0
99165,-100,4,1,0,70,0,0
99465,-100,4,1,0,70,0,0
99615,-100,4,1,0,70,0,0
99765,-100,4,1,0,70,0,0
100065,-100,4,1,0,70,0,0
100215,-100,4,1,0,70,0,0
100365,-100,4,1,0,70,0,0
100928,-100,4,1,0,70,0,0
103365,-100,4,1,0,70,0,0
103665,-100,4,1,0,70,0,0
103815,-100,4,1,0,70,0,0
103965,-100,4,1,0,70,0,0
104265,-100,4,1,0,70,0,0
104415,-100,4,1,0,70,0,0
104565,-100,4,1,0,70,0,0
104865,-100,4,1,0,70,0,0
105015,-100,4,1,0,70,0,0
105165,-100,4,1,0,70,0,0
105315,-100,4,1,0,70,0,0
105390,-100,4,1,0,70,0,0
105465,-100,4,1,0,70,0,0
105615,-100,4,1,0,70,0,0
105765,-100,4,1,0,70,0,0
108428,-100,4,1,0,70,0,0
108578,-100,4,1,0,70,0,0
108728,-100,4,1,0,70,0,0
109028,-100,4,1,0,70,0,0
109178,-100,4,1,0,70,0,0
109328,-100,4,1,0,70,0,0
109628,-100,4,1,0,70,0,0
109778,-100,4,1,0,70,0,0
109928,-100,4,1,0,70,0,0
110566,-100,4,1,0,70,0,0
112928,-100,4,1,0,70,0,0
113228,-100,4,1,0,70,0,0
113378,-100,4,1,0,70,0,0
113528,-100,4,1,0,70,0,0
113828,-100,4,1,0,70,0,0
113978,-100,4,1,0,70,0,0
114128,-100,4,1,0,70,0,0
114428,-100,4,1,0,70,0,0
114578,-100,4,1,0,70,0,0
114728,-100,4,1,0,70,0,0
115028,-100,4,1,0,70,0,0
115178,-100,4,1,0,70,0,0
115328,-100,4,1,0,70,0,0
115628,-100,4,1,0,70,0,0
115778,-100,4,1,0,70,0,0
115928,-100,4,1,0,70,0,0
116265,-100,4,1,0,70,0,0
116415,-100,4,1,0,70,0,0
116565,-100,4,1,0,70,0,0
116715,-100,4,1,0,70,0,0
116865,-100,4,1,0,70,0,0
117015,-100,4,1,0,70,0,0
117165,-100,4,1,0,70,0,0
117315,-100,4,1,0,70,0,0
117465,-100,4,1,0,70,0,0
117615,-100,4,1,0,70,0,0
117764,-100,4,1,0,70,0,0
120728,-100,4,1,0,70,0,0
120878,-100,4,1,0,70,0,0
121028,-100,4,1,0,70,0,0
121178,-100,4,1,0,70,0,0
121328,-100,4,1,0,70,0,0
121478,-100,4,1,0,70,0,0
121628,-100,4,1,0,70,0,0
121778,-100,4,1,0,70,0,0
121928,-100,4,1,0,70,0,0
122003,-100,4,1,0,70,0,0
122078,-100,4,1,0,70,0,0
122228,-100,4,1,0,70,0,0
122378,-100,4,1,0,70,0,0
122528,-100,4,1,0,70,0,0
130028,-100,4,1,0,70,0,0
130178,-100,4,1,0,70,0,0
130328,-100,4,1,0,70,0,0
130628,-100,4,1,0,70,0,0
130778,-100,4,1,0,70,0,0
130928,-100,4,1,0,70,0,0
131378,-100,4,1,0,70,0,0
131528,-100,4,1,0,70,0,0
131678,-100,4,1,0,70,0,0
131828,-100,4,1,0,70,0,0
131978,-100,4,1,0,70,0,0
132128,-100,4,1,0,70,0,0
134528,-100,4,1,0,70,0,0
134828,-100,4,1,0,70,0,0
134978,-100,4,1,0,70,0,0
135128,-100,4,1,0,70,0,0
135428,-100,4,1,0,70,0,0
135578,-100,4,1,0,70,0,0
135728,-100,4,1,0,70,0,0
136028,-100,4,1,0,70,0,0
136178,-100,4,1,0,70,0,0
136328,-100,4,1,0,70,0,0
136628,-100,4,1,0,70,0,0
136778,-100,4,1,0,70,0,0
138766,-100,4,1,0,70,0,0
146566,-100,4,1,0,70,0,0
146641,-100,4,1,0,70,0,0
156165,-100,4,1,0,70,0,0
156465,-100,4,1,0,70,0,0
156615,-100,4,1,0,70,0,0
156765,-100,4,1,0,70,0,0
157065,-100,4,1,0,70,0,0
157365,-100,4,1,0,70,0,0
157515,-100,4,1,0,70,0,0
157665,-100,4,1,0,70,0,0
157815,-100,4,1,0,70,0,0
157965,-100,4,1,0,70,0,0
158265,-100,4,1,0,70,0,0
158415,-100,4,1,0,70,0,0
158565,-100,4,1,0,70,0,0
158865,-100,4,1,0,70,0,0
159015,-100,4,1,0,70,0,0
159165,-100,4,1,0,70,0,0
159315,-100,4,1,0,70,0,0
159465,-100,4,1,0,70,0,0
159765,-100,4,1,0,70,0,0
159915,-100,4,1,0,70,0,0
160065,-100,4,1,0,70,0,0
160215,-100,4,1,0,70,0,0
160365,-100,4,1,0,70,0,0
160665,-100,4,1,0,70,0,0
160815,-100,4,1,0,70,0,0
160965,-100,4,1,0,70,0,0
161265,-100,4,1,0,70,0,0
161415,-100,4,1,0,70,0,0
161565,-100,4,1,0,70,0,0
161715,-100,4,1,0,70,0,0
161865,-100,4,1,0,70,0,0
162165,-100,4,1,0,70,0,0
162315,-100,4,1,0,70,0,0
162465,-100,4,1,0,70,0,0
162615,-100,4,1,0,70,0,0
162765,-100,4,1,0,70,0,0
163065,-100,4,1,0,70,0,0
163215,-100,4,1,0,70,0,0
163365,-100,4,1,0,70,0,0
163665,-100,4,1,0,70,0,0
163815,-100,4,1,0,70,0,0
163965,-100,4,1,0,70,0,0
164265,-100,4,1,0,70,0,0
164415,-100,4,1,0,70,0,0
164565,-100,4,1,0,70,0,0
164715,-100,4,1,0,70,0,0
164790,-100,4,1,0,70,0,0
164865,-100,4,1,0,70,0,0
165165,-100,4,1,0,70,0,0
165315,-100,4,1,0,70,0,0
165390,-100,4,1,0,70,0,0
165465,-100,4,1,0,70,0,0
165615,-100,4,1,0,70,0,0
165765,-100,4,1,0,70,0,0
166065,-100,4,1,0,70,0,0
166215,-100,4,1,0,70,0,0
166365,-100,4,1,0,70,0,0
166515,-100,4,1,0,70,0,0
166665,-100,4,1,0,70,0,0
166965,-100,4,1,0,70,0,0
167115,-100,4,1,0,70,0,0
167265,-100,4,1,0,70,0,0
167415,-100,4,1,0,70,0,0
167490,-100,4,1,0,70,0,0
167565,-100,4,1,0,70,0,0
167715,-100,4,1,0,70,0,0
167865,-100,4,1,0,70,0,0
168015,-100,4,1,0,70,0,0
168165,-100,4,1,0,70,0,0
168315,-100,4,1,0,70,0,0
168465,-100,4,1,0,70,0,0
168765,-100,4,1,0,70,0,0
168915,-100,4,1,0,70,0,0
169065,-100,4,1,0,70,0,0
169365,-100,4,1,0,70,0,0
169515,-100,4,1,0,70,0,0
169665,-100,4,1,0,70,0,0
169815,-100,4,1,0,70,0,0
169965,-100,4,1,0,70,0,0
170040,-100,4,1,0,70,0,0
170115,-100,4,1,0,70,0,0
170265,-100,4,1,0,70,0,0
170415,-100,4,1,0,70,0,0
170565,-100,4,1,0,70,0,0
170865,-100,4,1,0,70,0,0
171015,-100,4,1,0,70,0,0
171165,-100,4,1,0,70,0,0
171315,-100,4,1,0,70,0,0
171465,-100,4,1,0,70,0,0
171765,-100,4,1,0,70,0,0
171915,-100,4,1,0,70,0,0
172065,-100,4,1,0,70,0,0
172215,-100,4,1,0,70,0,0
172290,-100,4,1,0,70,0,0
172365,-100,4,1,0,70,0,0
172515,-100,4,1,0,70,0,0
172665,-100,4,1,0,70,0,0
172965,-100,4,1,0,70,0,0
173265,-100,4,1,0,70,0,0
173415,-100,4,1,0,70,0,0
173565,-100,4,1,0,70,0,0
173715,-100,4,1,0,70,0,0
173865,-100,4,1,0,70,0,0
174165,-100,4,1,0,70,0,0
174315,-100,4,1,0,70,0,0
174390,-100,4,1,0,70,0,0
174465,-100,4,1,0,70,0,0
174615,-100,4,1,0,70,0,0
174765,-100,4,1,0,70,0,0
175065,-100,4,1,0,70,0,0

[HitObjects]
256,192,166,5,0,0:0:0:0:
256,192,766,1,8,0:0:0:0:
256,192,1066,1,0,0:0:0:0:
256,192,1366,1,0,0:0:0:0:
256,192,1516,1,8,0:0:0:0:
256,192,1666,1,0,0:0:0:0:
256,192,1966,1,8,0:0:0:0:
256,192,2266,1,8,0:0:0:0:
256,192,2566,1,0,0:0:0:0:
256,192,2716,1,0,0:0:0:0:
256,192,3016,1,0,0:0:0:0:
256,192,3166,1,8,0:0:0:0:
256,192,3466,1,0,0:0:0:0:
256,192,3766,1,8,0:0:0:0:
256,192,4066,1,0,0:0:0:0:
256,192,4216,1,0,0:0:0:0:
256,192,4366,1,8,0:0:0:0:
256,192,4966,1,0,0:0:0:0:
256,192,5266,1,0,0:0:0:0:
256,192,5416,1,8,0:0:0:0:
256,192,5566,1,8,0:0:0:0:
256,192,5866,1,0,0:0:0:0:
256,192,6166,1,8,0:0:0:0:
256,192,6466,1,0,0:0:0:0:
256,192,6766,1,8,0:0:0:0:
256,192,6916,1,0,0:0:0:0:
256,192,7066,1,8,0:0:0:0:
256,192,7366,1,0,0:0:0:0:
256,192,7666,1,0,0:0:0:0:
256,192,7966,1,8,0:0:0:0:
256,192,8266,1,0,0:0:0:0:
256,192,8566,1,8,0:0:0:0:
256,192,8716,1,8,0:0:0:0:
256,192,8866,1,0,0:0:0:0:
256,192,9166,1,8,0:0:0:0:
256,192,9766,1,0,0:0:0:0:
256,192,10066,1,8,0:0:0:0:
256,192,10216,1,0,0:0:0:0:
256,192,10366,1,8,0:0:0:0:
256,192,10666,1,0,0:0:0:0:
256,192,11266,1,0,0:0:0:0:
256,192,11566,1,8,0:0:0:0:
256,192,11866,1,8,0:0:0:0:
256,192,12166,1,0,0:0:0:0:
256,192,12766,1,8,0:0:0:0:
256,192,13066,1,8,0:0:0:0:
256,192,13366,1,0,0:0:0:0:
256,192,13516,1,8,0:0:0:0:
256,192,13666,1,8,0:0:0:0:
256,192,13966,1,8,0:0:0:0:
256,192,14566,1,0,0:0:0:0:
256,192,14866,1,8,0:0:0:0:
256,192,15016,1,0,0:0:0:0:
256,192,15166,1,8,0:0:0:0:
256,192,15466,1,0,0:0:0:0:
256,192,16066,1,0,0:0:0:0:
256,192,16366,1,8,0:0:0:0:
256,192,16666,1,0,0:0:0:0:
256,192,16966,1,0,0:0:0:0:
256,192,17266,1,8,0:0:0:0:
256,192,17416,1,0,0:0:0:0:
256,192,17566,1,8,0:0:0:0:
256,192,17866,1,0,0:0:0:0:
256,192,18166,1,8,0:0:0:0:
256,192,18466,1,0,0:0:0:0:
256,192,18766,1,8,0:0:0:0:
256,192,19366,1,0,0:0:0:0:
256,192,19666,1,8,0:0:0:0:
256,192,19816,1,0,0:0:0:0:
256,192,19966,1,8,0:0:0:0:
256,192,20266,1,0,0:0:0:0:
256,192,20866,1,0,0:0:0:0:
256,192,21166,1,8,0:0:0:0:
256,192,21316,1,0,0:0:0:0:
256,192,21466,1,8,0:0:0:0:
256,192,21766,1,0,0:0:0:0:
256,192,22366,1,0,0:0:0:0:
256,192,22666,1,8,0:0:0:0:
256,192,22966,1,0,0:0:0:0:
256,192,23266,1,0,0:0:0:0:
256,192,23416,1,8,0:0:0:0:
256,192,23566,1,8,0:0:0:0:
256,192,23866,1,0,0:0:0:0:
256,192,24166,1,0,0:0:0:0:
256,192,24466,1,0,0:0:0:0:
256,192,24616,1,0,0:0:0:0:
256,192,24766,1,8,0:0:0:0:
256,192,25066,1,0,0:0:0:0:
256,192,25666,1,0,0:0:0:0:
256,192,25966,1,8,0:0:0:0:
256,192,26266,1,0,0:0:0:0:
256,192,26416,1,8,0:0:0:0:
256,192,26566,1,0,0:0:0:0:
256,192,26866,1,0,0:0:0:0:
256,192,27016,1,0,0:0:0:0:
256,192,27166,1,8,0:0:0:0:
256,192,27466,1,0,0:0:0:0:
256,192,27766,1,8,0:0:0:0:
256,192,28066,1,0,0:0:0:0:
256,192,28366,1,8,0:0:0:0:
256,192,28966,1,8,0:0:0:0:
256,192,29266,1,8,0:0:0:0:
256,192,29416,1,0,0:0:0:0:
256,192,29566,1,8,0:0:0:0:
256,192,29866,1,0,0:0:0:0:
256,192,30466,1,0,0:0:0:0:
256,192,30766,1,0,0:0:0:0:
256,192,30916,1,0,0:0:0:0:
256,192,31066,1,8,0:0:0:0:
256,192,31366,1,12,0:0:0:0:
256,192,31966,1,4,0:0:0:0:
256,192,32566,1,4,0:0:0:0:
256,192,33166,1,12,0:0:0:0:
256,192,33766,1,0,0:0:0:0:
256,192,34066,1,8,0:0:0:0:
256,192,34216,1,8,0:0:0:0:
256,192,34366,1,0,0:0:0:0:
256,192,34666,1,8,0:0:0:0:
256,192,34966,1,8,0:0:0:0:
256,192,35266,1,0,0:0:0:0:
256,192,35416,1,0,0:0:0:0:
256,192,35566,1,8,0:0:0:0:
256,192,35866,1,0,0:0:0:0:
256,192,36166,1,12,0:0:0:0:
256,192,36766,1,12,0:0:0:0:
256,192,37366,1,12,0:0:0:0:
256,192,37966,1,12,0:0:0:0:
256,192,38566,1,4,0:0:0:0:
256,192,39166,1,0,0:0:0:0:
256,192,39466,1,8,0:0:0:0:
256,192,39766,1,0,0:0:0:0:
256,192,40066,1,8,0:0:0:0:
256,192,40216,1,0,0:0:0:0:
256,192,40366,1,8,0:0:0:0:
256,192,40666,1,8,0:0:0:0:
256,192,40966,1,0,0:0:0:0:
256,192,41266,1,0,0:0:0:0:
256,192,41416,1,0,0:0:0:0:
256,192,41566,1,8,0:0:0:0:
256,192,41716,1,8,0:0:0:0:
256,192,41866,1,8,0:0:0:0:
256,192,42166,1,0,0:0:0:0:
256,192,42466,1,0,0:0:0:0:
256,192,42766,1,8,0:0:0:0:
256,192,43366,1,8,0:0:0:0:
256,192,43966,1,0,0:0:0:0:
256,192,44266,1,8,0:0:0:0:
256,192,44566,1,0,0:0:0:0:
256,192,44866,1,0,0:0:0:0:
256,192,45016,1,0,0:0:0:0:
256,192,45166,1,8,0:0:0:0:
256,192,45466,1,8,0:0:0:0:
256,192,45766,1,0,0:0:0:0:
256,192,46066,1,8,0:0:0:0:
256,192,46366,1,0,0:0:0:0:
256,192,46666,1,8,0:0:0:0:
256,192,46816,1,0,0:0:0:0:
256,192,46966,1,8,0:0:0:0:
256,192,47116,1,8,0:0:0:0:
256,192,47266,1,0,0:0:0:0:
256,192,47566,1,8,0:0:0:0:
256,192,48166,1,4,0:0:0:0:
256,192,48766,1,0,0:0:0:0:
256,192,49066,1,8,0:0:0:0:
256,192,49366,1,0,0:0:0:0:
256,192,49666,1,8,0:0:0:0:
256,192,49816,1,0,0:0:0:0:
256,192,49966,1,8,0:0:0:0:
256,192,50266,1,8,0:0:0:0:
256,192,50566,1,0,0:0:0:0:
256,192,50866,1,0,0:0:0:0:
256,192,51016,1,8,0:0:0:0:
256,192,51166,1,0,0:0:0:0:
256,192,51316,1,0,0:0:0:0:
256,192,51466,1,8,0:0:0:0:
256,192,51766,1,0,0:0:0:0:
256,192,52066,1,0,0:0:0:0:
256,192,52366,1,8,0:0:0:0:
256,192,52966,1,0,0:0:0:0:
256,192,53566,1,0,0:0:0:0:
256,192,53866,1,8,0:0:0:0:
256,192,54166,1,0,0:0:0:0:
256,192,54466,1,0,0:0:0:0:
256,192,54616,1,0,0:0:0:0:
256,192,54766,1,8,0:0:0:0:
256,192,55066,1,8,0:0:0:0:
256,192,55366,1,0,0:0:0:0:
256,192,55666,1,8,0:0:0:0:
256,192,55816,1,0,0:0:0:0:
256,192,55966,1,8,0:0:0:0:
256,192,56266,1,0,0:0:0:0:
256,192,56566,1,8,0:0:0:0:
256,192,56866,1,0,0:0:0:0:
256,192,57166,1,8,0:0:0:0:
256,192,57766,1,0,0:0:0:0:
256,192,58066,1,8,0:0:0:0:
256,192,58216,1,0,0:0:0:0:
256,192,58366,1,8,0:0:0:0:
256,192,58666,1,0,0:0:0:0:
256,192,59266,1,0,0:0:0:0:
256,192,59416,1,0,0:0:0:0:
256,192,59566,1,8,0:0:0:0:
256,192,59866,1,8,0:0:0:0:
256,192,60166,1,0,0:0:0:0:
256,192,60766,1,8,0:0:0:0:
256,192,61066,1,8,0:0:0:0:
256,192,61366,1,0,0:0:0:0:
256,192,61666,1,0,0:0:0:0:
256,192,61816,1,8,0:0:0:0:
256,192,61966,1,8,0:0:0:0:
256,192,62266,1,0,0:0:0:0:
256,192,62566,1,8,0:0:0:0:
256,192,62866,1,8,0:0:0:0:
256,192,63016,1,0,0:0:0:0:
256,192,63166,1,8,0:0:0:0:
256,192,63466,1,0,0:0:0:0:
256,192,64066,1,0,0:0:0:0:
256,192,64366,1,8,0:0:0:0:
256,192,64666,1,8,0:0:0:0:
256,192,64816,1,8,0:0:0:0:
256,192,64966,1,0,0:0:0:0:
256,192,65266,1,0,0:0:0:0:
256,192,65566,1,8,0:0:0:0:
256,192,65866,1,0,0:0:0:0:
256,192,66166,1,0,0:0:0:0:
256,192,66316,1,8,0:0:0:0:
256,192,66466,1,0,0:0:0:0:
256,192,66766,1,8,0:0:0:0:
256,192,67366,1,8,0:0:0:0:
256,192,67666,1,8,0:0:0:0:
256,192,67816,1,0,0:0:0:0:
256,192,67966,1,8,0:0:0:0:
256,192,68266,1,0,0:0:0:0:
256,192,68866,1,0,0:0:0:0:
256,192,69016,1,8,0:0:0:0:
256,192,69166,1,8,0:0:0:0:
256,192,69466,1,0,0:0:0:0:
256,192,69766,1,12,0:0:0:0:
256,192,70366,1,4,0:0:0:0:
256,192,70966,1,4,0:0:0:0:
256,192,71566,1,12,0:0:0:0:
256,192,72166,1,0,0:0:0:0:
256,192,72466,1,8,0:0:0:0:
256,192,72616,1,0,0:0:0:0:
256,192,72766,1,8,0:0:0:0:
256,192,73066,1,0,0:0:0:0:
256,192,73366,1,8,0:0:0:0:
256,192,73666,1,0,0:0:0:0:
256,192,73816,1,0,0:0:0:0:
256,192,73966,1,8,0:0:0:0:
256,192,74266,1,0,0:0:0:0:
256,192,74566,1,12,0:0:0:0:
256,192,75166,1,12,0:0:0:0:
256,192,75766,1,12,0:0:0:0:
256,192,76366,1,12,0:0:0:0:
256,192,76966,1,4,0:0:0:0:
256,192,77566,1,0,0:0:0:0:
256,192,77866,1,8,0:0:0:0:
256,192,78166,1,8,0:0:0:0:
256,192,78466,1,0,0:0:0:0:
256,192,78616,1,0,0:0:0:0:
256,192,78766,1,8,0:0:0:0:
256,192,79066,1,8,0:0:0:0:
256,192,79366,1,0,0:0:0:0:
256,192,79666,1,8,0:0:0:0:
256,192,79966,1,8,0:0:0:0:
256,192,80116,1,8,0:0:0:0:
256,192,80266,1,8,0:0:0:0:
256,192,80566,1,0,0:0:0:0:
256,192,80866,1,0,0:0:0:0:
256,192,81166,1,8,0:0:0:0:
256,192,81766,1,0,0:0:0:0:
256,192,82366,1,8,0:0:0:0:
256,192,82666,1,0,0:0:0:0:
256,192,82966,1,0,0:0:0:0:
256,192,83266,1,8,0:0:0:0:
256,192,83416,1,0,0:0:0:0:
256,192,83566,1,8,0:0:0:0:
256,192,83716,1,8,0:0:0:0:
256,192,83866,1,0,0:0:0:0:
256,192,84166,1,0,0:0:0:0:
256,192,84466,1,8,0:0:0:0:
256,192,84766,1,8,0:0:0:0:
256,192,85066,1,0,0:0:0:0:
256,192,85216,1,8,0:0:0:0:
256,192,85366,1,0,0:0:0:0:
256,192,85666,1,0,0:0:0:0:
256,192,85966,1,8,0:0:0:0:
256,192,86566,1,0,0:0:0:0:
256,192,87166,1,0,0:0:0:0:
256,192,87466,1,8,0:0:0:0:
256,192,87766,1,0,0:0:0:0:
256,192,88066,1,8,0:0:0:0:
256,192,88216,1,0,0:0:0:0:
256,192,88366,1,8,0:0:0:0:
256,192,88666,1,0,0:0:0:0:
256,192,88966,1,0,0:0:0:0:
256,192,89266,1,8,0:0:0:0:
256,192,89566,1,0,0:0:0:0:
256,192,89716,1,0,0:0:0:0:
256,192,89866,1,0,0:0:0:0:
256,192,90166,1,8,0:0:0:0:
256,192,90466,1,0,0:0:0:0:
256,192,90766,1,8,0:0:0:0:
256,192,91366,1,0,0:0:0:0:
256,192,91966,1,8,0:0:0:0:
256,192,92266,1,8,0:0:0:0:
256,192,92566,1,0,0:0:0:0:
256,192,92866,1,0,0:0:0:0:
256,192,93016,1,0,0:0:0:0:
256,192,93166,1,8,0:0:0:0:
256,192,93466,1,8,0:0:0:0:
256,192,93766,1,0,0:0:0:0:
256,192,94366,1,8,0:0:0:0:
256,192,94966,1,0,0:0:0:0:
256,192,95266,1,0,0:0:0:0:
256,192,95566,1,8,0:0:0:0:
256,192,96166,1,0,0:0:0:0:
256,192,96466,1,8,0:0:0:0:
256,192,96616,1,0,0:0:0:0:
256,192,96916,1,0,0:0:0:0:
256,192,97066,1,8,0:0:0:0:
256,192,97366,1,8,0:0:0:0:
256,192,97666,1,0,0:0:0:0:
256,192,97966,1,8,0:0:0:0:
256,192,98566,1,12,0:0:0:0:
256,192,99166,1,4,0:0:0:0:
256,192,99766,1,4,0:0:0:0:
256,192,100366,1,12,0:0:0:0:
256,192,100966,1,0,0:0:0:0:
256,192,101266,1,8,0:0:0:0:
256,192,101416,1,0,0:0:0:0:
256,192,101716,1,0,0:0:0:0:
256,192,101866,1,8,0:0:0:0:
256,192,102166,1,0,0:0:0:0:
256,192,102466,1,8,0:0:0:0:
256,192,102766,1,0,0:0:0:0:
256,192,103366,1,4,0:0:0:0:
256,192,103966,1,12,0:0:0:0:
256,192,104566,1,12,0:0:0:0:
256,192,105166,1,4,0:0:0:0:
256,192,105766,1,8,0:0:0:0:
256,192,106066,1,8,0:0:0:0:
256,192,106216,1,0,0:0:0:0:
256,192,106366,1,8,0:0:0:0:
256,192,106666,1,0,0:0:0:0:
256,192,106966,1,8,0:0:0:0:
256,192,107266,1,0,0:0:0:0:
256,192,107566,1,0,0:0:0:0:
256,192,108166,1,12,0:0:0:0:
256,192,108766,1,4,0:0:0:0:
256,192,109366,1,4,0:0:0:0:
256,192,109966,1,12,0:0:0:0:
256,192,110566,1,0,0:0:0:0:
256,192,110866,1,8,0:0:0:0:
256,192,111016,1,0,0:0:0:0:
256,192,111166,1,0,0:0:0:0:
256,192,111466,1,8,0:0:0:0:
256,192,111766,1,0,0:0:0:0:
256,192,112066,1,8,0:0:0:0:
256,192,112366,1,8,0:0:0:0:
256,192,112966,1,12,0:0:0:0:
256,192,113566,1,12,0:0:0:0:
256,192,114166,1,12,0:0:0:0:
256,192,114766,1,12,0:0:0:0:
256,192,115366,1,12,0:0:0:0:
256,192,115966,1,12,0:0:0:0:
256,192,116566,1,8,0:0:0:0:
256,192,116866,1,8,0:0:0:0:
256,192,117166,1,0,0:0:0:0:
256,192,117316,1,0,0:0:0:0:
256,192,117466,1,8,0:0:0:0:
256,192,117766,1,4,0:0:0:0:
256,192,118066,1,8,0:0:0:0:
256,192,118216,1,0,0:0:0:0:
256,192,118366,1,0,0:0:0:0:
256,192,118666,1,0,0:0:0:0:
256,192,118966,1,8,0:0:0:0:
256,192,119266,1,0,0:0:0:0:
256,192,119566,1,8,0:0:0:0:
256,192,120166,1,8,0:0:0:0:
256,192,120466,1,0,0:0:0:0:
256,192,120766,1,0,0:0:0:0:
256,192,120916,1,0,0:0:0:0:
256,192,121066,1,8,0:0:0:0:
256,192,121216,1,8,0:0:0:0:
256,192,121366,1,0,0:0:0:0:
256,192,121666,1,0,0:0:0:0:
256,192,121816,1,0,0:0:0:0:
256,192,121966,1,8,0:0:0:0:
256,192,122266,1,8,0:0:0:0:
256,192,122566,1,0,0:0:0:0:
256,192,122866,1,8,0:0:0:0:
256,192,123016,1,0,0:0:0:0:
256,192,123166,1,8,0:0:0:0:
256,192,123466,1,0,0:0:0:0:
256,192,123766,1,8,0:0:0:0:
256,192,124066,1,8,0:0:0:0:
256,192,124366,1,0,0:0:0:0:
256,192,124966,1,8,0:0:0:0:
256,192,125266,1,8,0:0:0:0:
256,192,125416,1,8,0:0:0:0:
256,192,125566,1,0,0:0:0:0:
256,192,125866,1,0,0:0:0:0:
256,192,126166,1,8,0:0:0:0:
256,192,126466,1,0,0:0:0:0:
256,192,126766,1,8,0:0:0:0:
256,192,127366,1,0,0:0:0:0:
256,192,127666,1,8,0:0:0:0:
256,192,127816,1,0,0:0:0:0:
256,192,127966,1,8,0:0:0:0:
256,192,128266,1,0,0:0:0:0:
256,192,128566,1,8,0:0:0:0:
256,192,128866,1,0,0:0:0:0:
256,192,129166,1,8,0:0:0:0:
256,192,129316,1,0,0:0:0:0:
256,192,129466,1,8,0:0:0:0:
256,192,129766,1,12,0:0:0:0:
256,192,130366,1,4,0:0:0:0:
256,192,130966,1,4,0:0:0:0:
256,192,131566,1,12,0:0:0:0:
256,192,132166,1,0,0:0:0:0:
256,192,132466,1,0,0:0:0:0:
256,192,132616,1,0,0:0:0:0:
256,192,132766,1,8,0:0:0:0:
256,192,133066,1,0,0:0:0:0:
256,192,133366,1,8,0:0:0:0:
256,192,133666,1,8,0:0:0:0:
256,192,133816,1,0,0:0:0:0:
256,192,133966,1,0,0:0:0:0:
256,192,134266,1,8,0:0:0:0:
256,192,134566,1,12,0:0:0:0:
256,192,135166,1,12,0:0:0:0:
256,192,135766,1,12,0:0:0:0:
256,192,136366,1,12,0:0:0:0:
256,192,136966,8,0,138466,0:0:0:0:
256,192,138766,5,8,0:0:0:0:
256,192,139066,1,8,0:0:0:0:
256,192,139216,1,8,0:0:0:0:
256,192,139366,1,0,0:0:0:0:
256,192,139666,1,0,0:0:0:0:
256,192,139966,1,8,0:0:0:0:
256,192,140266,1,8,0:0:0:0:
256,192,140566,1,0,0:0:0:0:
256,192,140716,1,8,0:0:0:0:
256,192,140866,1,0,0:0:0:0:
256,192,141166,1,8,0:0:0:0:
256,192,141766,1,0,0:0:0:0:
256,192,142066,1,0,0:0:0:0:
256,192,142366,1,8,0:0:0:0:
256,192,142666,1,0,0:0:0:0:
256,192,142816,1,8,0:0:0:0:
256,192,142966,1,0,0:0:0:0:
256,192,143266,1,8,0:0:0:0:
256,192,143416,1,0,0:0:0:0:
256,192,143566,1,8,0:0:0:0:
256,192,143866,1,0,0:0:0:0:
256,192,144166,1,8,0:0:0:0:
256,192,144466,1,0,0:0:0:0:
256,192,144616,1,0,0:0:0:0:
256,192,144766,1,8,0:0:0:0:
256,192,144916,1,0,0:0:0:0:
256,192,145066,1,8,0:0:0:0:
256,192,145366,1,8,0:0:0:0:
256,192,145666,1,0,0:0:0:0:
256,192,145966,1,8,0:0:0:0:
256,192,146566,1,4,0:0:0:0:
256,192,146866,1,8,0:0:0:0:
256,192,147166,1,0,0:0:0:0:
256,192,147466,1,8,0:0:0:0:
256,192,147766,1,0,0:0:0:0:
256,192,148066,1,8,0:0:0:0:
256,192,148216,1,0,0:0:0:0:
256,192,148366,1,8,0:0:0:0:
256,192,148666,1,0,0:0:0:0:
256,192,148966,1,0,0:0:0:0:
256,192,149266,1,0,0:0:0:0:
256,192,149566,1,8,0:0:0:0:
256,192,149716,1,0,0:0:0:0:
256,192,149866,1,8,0:0:0:0:
256,192,150166,1,0,0:0:0:0:
256,192,150466,1,0,0:0:0:0:
256,192,150616,1,8,0:0:0:0:
256,192,150766,1,8,0:0:0:0:
256,192,151366,1,0,0:0:0:0:
256,192,151666,1,8,0:0:0:0:
256,192,151966,1,0,0:0:0:0:
256,192,152266,1,8,0:0:0:0:
256,192,152566,1,0,0:0:0:0:
256,192,152866,1,8,0:0:0:0:
256,192,153016,1,0,0:0:0:0:
256,192,153166,1,8,0:0:0:0:
256,192,153466,1,8,0:0:0:0:
256,192,153766,1,0,0:0:0:0:
256,192,154066,1,0,0:0:0:0:
256,192,154366,1,8,0:0:0:0:
256,192,154666,1,0,0:0:0:0:
256,192,154966,1,0,0:0:0:0:
256,192,155266,1,0,0:0:0:0:
256,192,155566,1,8,0:0:0:0:
256,192,156166,1,8,0:0:0:0:
256,192,156466,1,8,0:0:0:0:
256,192,156616,1,0,0:0:0:0:
256,192,156766,1,8,0:0:0:0:
256,192,157066,1,0,0:0:0:0:
256,192,157366,1,0,0:0:0:0:
256,192,157516,1,8,0:0:0:0:
256,192,157666,1,0,0:0:0:0:
256,192,157966,1,0,0:0:0:0:
256,192,158566,1,0,0:0:0:0:
256,192,158866,1,8,0:0:0:0:
256,192,159016,1,8,0:0:0:0:
256,192,159166,1,0,0:0:0:0:
256,192,159466,1,8,0:0:0:0:
256,192,159766,1,0,0:0:0:0:
256,192,160066,1,8,0:0:0:0:
256,192,160366,1,0,0:0:0:0:
256,192,160966,1,0,0:0:0:0:
256,192,161266,1,8,0:0:0:0:
256,192,161416,1,0,0:0:0:0:
256,192,161566,1,8,0:0:0:0:
256,192,161866,1,0,0:0:0:0:
256,192,162166,1,8,0:0:0:0:
256,192,162316,1,0,0:0:0:0:
256,192,162466,1,0,0:0:0:0:
256,192,162766,1,8,0:0:0:0:
256,192,163366,1,0,0:0:0:0:
256,192,163666,1,0,0:0:0:0:
256,192,163816,1,0,0:0:0:0:
256,192,163966,1,8,0:0:0:0:
256,192,164266,1,0,0:0:0:0:
256,192,164566,1,8,0:0:0:0:
256,192,164866,1,0,0:0:0:0:
256,192,165166,1,8,0:0:0:0:
256,192,165766,1,0,0:0:0:0:
256,192,166066,1,8,0:0:0:0:
256,192,166216,1,0,0:0:0:0:
256,192,166366,1,8,0:0:0:0:
256,192,166666,1,0,0:0:0:0:
256,192,166966,1,8,0:0:0:0:
256,192,167266,1,0,0:0:0:0:
256,192,167566,1,8,0:0:0:0:
256,192,167716,1,8,0:0:0:0:
256,192,167866,1,0,0:0:0:0:
256,192,168166,1,0,0:0:0:0:
256,192,168766,1,8,0:0:0:0:
256,192,169066,1,0,0:0:0:0:
256,192,169366,1,8,0:0:0:0:
256,192,169666,1,8,0:0:0:0:
256,192,169816,1,0,0:0:0:0:
256,192,169966,1,8,0:0:0:0:
256,192,170566,1,0,0:0:0:0:
256,192,170866,1,8,0:0:0:0:
256,192,171016,1,0,0:0:0:0:
256,192,171166,1,8,0:0:0:0:
256,192,171466,1,0,0:0:0:0:
256,192,171766,1,8,0:0:0:0:
256,192,172066,1,0,0:0:0:0:
256,192,172216,1,0,0:0:0:0:
256,192,172366,1,8,0:0:0:0:
256,192,172666,1,8,0:0:0:0:
256,192,172966,1,0,0:0:0:0:
256,192,173566,1,0,0:0:0:0:
256,192,173866,1,0,0:0:0:0:
256,192,174166,1,8,0:0:0:0:
256,192,174316,1,8,0:0:0:0:
256,192,174466,1,0,0:0:0:0:
256,192,174766,1,0,0:0:0:0:
256,192,175066,1,0,0:0:0:0:
