osu file format v14

[General]
AudioFilename: audio.mp3
AudioLeadIn: 0
PreviewTime: 73978
Countdown: 0
SampleSet: Soft
StackLeniency: 0.2
Mode: 0
LetterboxInBreaks: 0
WidescreenStoryboard: 0

[Editor]
Bookmarks: 10345,16831,25912,28573,30047,50561,89486,111864,114128
DistanceSpacing: 0.6
BeatDivisor: 4
GridSize: 8
TimelineZoom: 1.5

[Metadata]
Title:PINK ORIGINS
TitleUnicode:PINK ORIGINS
Artist:METAROOM
ArtistUnicode:METAROOM
Creator:Lugu
Version:LEVITATION
Source:
Tags:fa featured artist mpg mappersguild experimental electronic instrumental high energy edm hyperpop records future bass mokobe log_on_now
BeatmapID:3246722
BeatmapSetID:1589495

[Difficulty]
HPDrainRate:5.6
CircleSize:4.2
OverallDifficulty:8.6
ApproachRate:9.3
SliderMultiplier:1.82
SliderTickRate:1

[Events]
//Background and Video events
0,0,"Webp.net-compress-image.jpg",0,0
//Break Periods
2,51540,59324
//Storyboard Layer 0 (Background)
//Storyboard Layer 1 (Fail)
//Storyboard Layer 2 (Pass)
//Storyboard Layer 3 (Foreground)
//Storyboard Layer 4 (Overlay)
//Storyboard Sound Samples

[TimingPoints]
1330,324.324324324324,4,2,1,30,1,0
1330,-100,4,2,1,30,0,0
1978,-100,4,2,1,30,0,0
2627,-100,4,2,1,30,0,0
3275,-100,4,2,1,30,0,0
3924,-100,4,2,1,30,0,0
4573,-100,4,2,1,30,0,0
5221,-270.27027027027,4,2,1,30,0,0
7654,-270.27027027027,4,2,1,30,0,0
7816,-312.5,4,2,1,30,0,0
10248,-312.5,4,2,1,30,0,0
10411,-114.942528735632,4,2,1,40,0,0
15600,-166.666666666667,4,2,1,45,0,0
17465,-166.666666666667,4,2,1,5,0,0
17546,-333.333333333333,4,2,1,45,0,0
18113,-333.333333333333,4,2,1,5,0,0
18194,-114.942528735632,4,2,1,35,0,0
20059,-114.942528735632,4,2,1,5,0,0
20140,-232.558139534884,4,2,1,35,0,0
20708,-232.558139534884,4,2,1,35,0,0
20789,-232.558139534884,4,2,1,45,0,0
23708,-114.942528735632,4,2,1,45,0,0
24681,-232.558139534884,4,2,1,45,0,0
25978,-114.942528735632,4,2,1,50,0,0
26140,-114.942528735632,4,2,1,5,0,0
26302,-114.942528735632,4,2,1,50,0,0
26464,-114.942528735632,4,2,1,5,0,0
26627,-114.942528735632,4,2,1,50,0,0
26789,-114.942528735632,4,2,1,5,0,0
26951,-114.942528735632,4,2,1,50,0,0
27113,-114.942528735632,4,2,1,5,0,0
27275,-114.942528735632,4,2,1,50,0,0
27437,-114.942528735632,4,2,1,5,0,0
27600,-114.942528735632,4,2,1,50,0,0
27762,-114.942528735632,4,2,1,5,0,0
27924,-114.942528735632,4,2,1,50,0,0
28086,-114.942528735632,4,2,1,5,0,0
28248,-114.942528735632,4,2,1,50,0,0
28573,-52.0833333333333,4,2,1,60,0,0
28816,-52.0833333333333,4,2,1,5,0,0
28897,-64.9350649350649,4,2,1,60,0,0
29059,-100,4,2,1,60,0,0
29221,-285.714285714286,4,2,1,60,0,0
29465,-285.714285714286,4,2,1,5,0,0
29546,-48.6631016042777,4,2,2,60,0,0
30113,-48.6631016042777,4,2,2,5,0,0
30194,-64.9350649350649,4,2,2,60,0,0
30357,-100,4,2,2,60,0,0
30681,-62.5,4,2,2,60,0,0
31167,-62.5,4,2,1,60,0,0
32059,-62.5,4,2,1,5,0,0
32140,-54.9450549450549,4,2,2,60,0,0
32708,-54.9450549450549,4,2,2,5,0,0
32789,-64.9350649350649,4,2,2,60,0,0
32951,-100,4,2,2,60,0,0
33113,-285.714285714286,4,2,2,60,0,0
33357,-285.714285714286,4,2,2,5,0,0
33438,-285.714285714286,4,2,2,60,0,0
33681,-285.714285714286,4,2,2,5,0,0
33762,-52.0833333333333,4,2,1,60,0,0
34005,-52.0833333333333,4,2,1,5,0,0
34086,-54.3478260869565,4,2,1,60,0,0
34411,-270.27027027027,4,2,1,60,0,0
34654,-270.27027027027,4,2,1,5,0,0
34735,-54.9450549450549,4,2,2,60,0,0
35302,-54.9450549450549,4,2,2,5,0,0
35384,-64.9350649350649,4,2,2,60,0,0
35546,-100,4,2,2,60,0,0
35708,-270.27027027027,4,2,2,60,0,0
35951,-270.27027027027,4,2,2,5,0,0
36032,-270.27027027027,4,2,2,60,0,0
36275,-270.27027027027,4,2,2,5,0,0
36357,-52.0833333333333,4,2,2,60,0,0
36600,-52.0833333333333,4,2,2,5,0,0
36681,-64.9350649350649,4,2,2,60,0,0
37248,-64.9350649350649,4,2,2,5,0,0
37329,-52.0833333333333,4,2,1,60,0,0
37897,-52.0833333333333,4,2,1,5,0,0
37978,-64.9350649350649,4,2,1,60,0,0
38140,-100,4,2,1,60,0,0
38302,-270.27027027027,4,2,1,60,0,0
38546,-270.27027027027,4,2,1,5,0,0
38627,-270.27027027027,4,2,1,60,0,0
38951,-52.0833333333333,4,2,1,60,0,0
39194,-52.0833333333333,4,2,1,5,0,0
39275,-64.9350649350649,4,2,1,60,0,0
39438,-100,4,2,1,60,0,0
39600,-270.27027027027,4,2,1,60,0,0
39843,-270.27027027027,4,2,1,5,0,0
39924,-52.0833333333333,4,2,2,60,0,0
40492,-52.0833333333333,4,2,2,5,0,0
40573,-64.9350649350649,4,2,2,60,0,0
40735,-100,4,2,2,60,0,0
40897,-90.9090909090909,4,2,2,60,0,0
42519,-54.9450549450549,4,2,2,60,0,0
43086,-54.9450549450549,4,2,2,60,0,0
43167,-64.9350649350649,4,2,2,60,0,0
43735,-64.9350649350649,4,2,2,5,0,0
43816,-57.4712643678161,4,2,2,60,0,0
44059,-57.4712643678161,4,2,2,5,0,0
44140,-52.0833333333333,4,2,1,60,0,0
44384,-52.0833333333333,4,2,1,5,0,0
44465,-64.9350649350649,4,2,1,60,0,0
44627,-100,4,2,1,60,0,0
44789,-270.27027027027,4,2,1,60,0,0
45032,-270.27027027027,4,2,1,5,0,0
45113,-52.0833333333333,4,2,2,60,0,0
45681,-52.0833333333333,4,2,2,5,0,0
45762,-64.9350649350649,4,2,2,60,0,0
45924,-100,4,2,2,60,0,0
46086,-270.27027027027,4,2,2,60,0,0
46329,-270.27027027027,4,2,2,5,0,0
46411,-270.27027027027,4,2,2,60,0,0
46654,-270.27027027027,4,2,2,5,0,0
46735,-52.0833333333333,4,2,1,60,0,0
46978,-52.0833333333333,4,2,1,5,0,0
47059,-64.9350649350649,4,2,1,60,0,0
47221,-100,4,2,1,60,0,0
47384,-54.3478260869565,4,2,1,60,0,0
47627,-54.3478260869565,4,2,1,5,0,0
47708,-125,4,2,2,60,0,0
60681,-125,4,2,2,45,0,0
61005,-125,4,2,2,50,0,0
64573,-500,4,2,2,50,0,0
66194,-125,4,2,2,50,0,0
68789,-125,4,2,2,45,0,0
71384,-125,4,2,2,60,0,0
73978,-52.0833333333333,4,2,2,72,0,1
75275,-45.4545454545455,4,2,2,72,0,1
75924,-31.25,4,2,2,72,0,1
76046,-31.25,4,2,2,5,0,1
76086,-31.25,4,2,2,72,0,1
76208,-31.25,4,2,2,5,0,1
76248,-31.25,4,2,2,72,0,1
77221,-52.0833333333333,4,2,2,72,0,1
77546,-43.4782608695652,4,2,2,72,0,1
80465,-100,4,2,2,65,0,0
81762,-52.0833333333333,4,2,2,72,0,1
85329,-111.111111111111,4,2,2,72,0,1
85654,-52.0833333333333,4,2,2,72,0,1
86302,-100,4,2,2,72,0,1
86951,-52.0833333333333,4,2,2,72,0,1
89221,-100,4,2,2,72,0,1
89546,-108.695652173913,4,2,2,45,0,0
92140,-52.0833333333333,4,2,1,65,0,0
92383,-52.0833333333333,4,2,1,5,0,0
92464,-64.9350649350649,4,2,1,65,0,0
92626,-100,4,2,1,65,0,0
92788,-285.714285714286,4,2,1,65,0,0
93032,-285.714285714286,4,2,1,5,0,0
93113,-48.6631016042777,4,2,2,65,0,0
93680,-48.6631016042777,4,2,2,5,0,0
93761,-64.9350649350649,4,2,2,65,0,0
93924,-100,4,2,2,65,0,0
94248,-62.5,4,2,2,65,0,0
94734,-62.5,4,2,1,65,0,0
95626,-62.5,4,2,1,5,0,0
95707,-54.9450549450549,4,2,2,65,0,0
96275,-54.9450549450549,4,2,2,5,0,0
96356,-64.9350649350649,4,2,2,65,0,0
96518,-100,4,2,2,65,0,0
96680,-285.714285714286,4,2,2,65,0,0
96924,-285.714285714286,4,2,2,5,0,0
97005,-285.714285714286,4,2,2,65,0,0
97248,-285.714285714286,4,2,2,5,0,0
97329,-52.0833333333333,4,2,1,65,0,0
97572,-52.0833333333333,4,2,1,5,0,0
97653,-54.3478260869565,4,2,1,65,0,0
97978,-270.27027027027,4,2,1,65,0,0
98221,-270.27027027027,4,2,1,5,0,0
98302,-54.9450549450549,4,2,2,65,0,0
98869,-54.9450549450549,4,2,2,5,0,0
98951,-64.9350649350649,4,2,2,65,0,0
99113,-100,4,2,2,65,0,0
99275,-270.27027027027,4,2,2,65,0,0
99518,-270.27027027027,4,2,2,5,0,0
99599,-270.27027027027,4,2,2,65,0,0
99842,-270.27027027027,4,2,2,5,0,0
99924,-52.0833333333333,4,2,2,65,0,0
100167,-52.0833333333333,4,2,2,5,0,0
100248,-64.9350649350649,4,2,2,65,0,0
100815,-64.9350649350649,4,2,2,5,0,0
100896,-52.0833333333333,4,2,1,65,0,0
101464,-52.0833333333333,4,2,1,5,0,0
101545,-64.9350649350649,4,2,1,65,0,0
101707,-100,4,2,1,65,0,0
101869,-270.27027027027,4,2,1,65,0,0
102194,-270.27027027027,4,2,1,65,0,0
102518,-100,4,2,1,65,0,0
102761,-100,4,2,1,5,0,0
102842,-64.9350649350649,4,2,1,65,0,0
103005,-100,4,2,1,65,0,0
103167,-270.27027027027,4,2,1,65,0,0
103410,-270.27027027027,4,2,1,5,0,0
103491,-52.0833333333333,4,2,2,65,0,0
104059,-52.0833333333333,4,2,2,5,0,0
104140,-64.9350649350649,4,2,2,65,0,0
104302,-100,4,2,2,65,0,0
104464,-90.9090909090909,4,2,2,65,0,0
106086,-54.9450549450549,4,2,2,65,0,0
106653,-54.9450549450549,4,2,2,65,0,0
106734,-64.9350649350649,4,2,2,65,0,0
107302,-64.9350649350649,4,2,2,5,0,0
107383,-57.4712643678161,4,2,2,65,0,0
107626,-57.4712643678161,4,2,2,5,0,0
107707,-76.9230769230769,4,2,1,65,0,0
107951,-52.0833333333333,4,2,1,5,0,0
108032,-64.9350649350649,4,2,1,65,0,0
108194,-100,4,2,1,65,0,0
108356,-270.27027027027,4,2,1,65,0,0
108599,-270.27027027027,4,2,1,5,0,0
108681,-52.0833333333333,4,2,2,65,0,0
109248,-52.0833333333333,4,2,2,5,0,0
109329,-64.9350649350649,4,2,2,65,0,0
109491,-100,4,2,2,65,0,0
109653,-270.27027027027,4,2,2,65,0,0
109896,-270.27027027027,4,2,2,5,0,0
109978,-270.27027027027,4,2,2,65,0,0
110221,-270.27027027027,4,2,2,5,0,0
110302,-52.0833333333333,4,2,1,65,0,0
110626,-64.9350649350649,4,2,1,65,0,0
110788,-100,4,2,1,65,0,0
110951,-54.3478260869565,4,2,1,65,0,0
111194,-54.3478260869565,4,2,1,5,0,0
111275,-125,4,2,2,65,0,0
114113,-125,4,2,2,5,0,0
114194,-125,4,2,2,65,0,0

[Colours]
Combo1 : 0,64,128
Combo2 : 0,128,192
Combo3 : 174,174,0
Combo4 : 210,0,210

[HitObjects]
256,192,1330,12,0,4897,0:0:0:0:
232,58,5221,6,0,B|99:18|105:132|-8:108|-8:108|121:190|81:86|188:105|221:171,1,505.050012330322,2|0,1:2|0:0,0:0:0:0:
302,230,7816,6,0,B|321:186|371:144|442:162|442:162|490:176|541:153|564:80|514:33|458:32|419:89,1,436.8,2|0,0:2|0:0,0:0:0:0:
352,28,10411,5,2,0:0:0:0:
344,47,10492,1,0,0:0:0:0:
343,67,10573,1,0,0:0:0:0:
482,252,10735,5,2,0:0:0:0:
463,237,10816,1,0,0:0:0:0:
439,233,10897,1,0,0:0:0:0:
416,240,10978,1,0,0:0:0:0:
403,259,11059,1,2,0:0:0:0:
402,294,11140,1,0,0:0:0:0:
425,320,11221,1,2,0:0:0:0:
450,344,11302,1,0,0:0:0:0:
447,379,11384,2,0,L|393:372,3,39.5850003322105,2|0|0|0,0:0|0:0|0:0|0:0,0:0:0:0:
301,339,11708,5,2,0:0:0:0:
284,322,11789,1,0,0:0:0:0:
262,312,11870,1,0,0:0:0:0:
238,312,11951,1,0,0:0:0:0:
216,320,12032,1,2,0:0:0:0:
183,343,12113,1,0,0:0:0:0:
145,354,12194,1,2,0:0:0:0:
105,350,12275,1,0,0:0:0:0:
70,329,12357,2,0,L|65:273,3,39.5850003322105,2|0|0|0,0:0|0:0|0:0|0:0,0:0:0:0:
173,198,12681,2,0,L|168:254,3,39.5850003322105,2|0|0|0,0:0|0:0|0:0|0:0,0:0:0:0:
77,105,13005,6,0,L|33:113,3,39.5850003322105,2|0|0|0,0:0|0:0|0:0|0:0,0:0:0:0:
138,55,13329,2,0,L|189:62,1,39.5850003322105,2|0,0:0|0:0,0:0:0:0:
294,24,13492,2,0,L|243:31,1,39.5850003322105
234,130,13654,1,2,0:0:0:0:
261,158,13735,1,0,0:0:0:0:
299,168,13816,1,2,0:0:0:0:
338,163,13897,1,0,0:0:0:0:
373,144,13978,2,0,L|385:98,3,39.5850003322105,2|0|0|0,0:0|0:0|0:0|0:0,0:0:0:0:
434,213,14302,5,2,1:2:0:0:
434,213,14789,1,0,1:0:0:0:
294,353,14951,1,0,1:0:0:0:
261,158,15113,1,0,1:0:0:0:
327,244,15275,1,0,0:0:0:0:
191,294,15438,2,0,L|159:285,2,19.7925001661053,0|0|0,1:0|1:0|1:0,0:0:0:0:
34,362,15600,6,0,B|103:320|123:232|64:122|64:122|58:200|6:215,1,382.199988336182,2|0,1:2|0:0,0:0:0:0:
152,35,16897,6,0,B|88:52|88:52|214:79,1,191.099994168091,2|0,0:0|0:0,0:0:0:0:
251,136,17546,2,0,P|274:113|275:50,1,95.5499970840455,2|0,0:0|0:0,0:0:0:0:
338,14,18194,6,0,L|388:7,3,39.5850003322105,2|0|0|0,0:0|0:0|0:0|0:0,0:0:0:0:
446,57,18519,1,0,0:0:0:0:
460,70,18600,1,0,0:0:0:0:
467,88,18681,1,0,0:0:0:0:
466,107,18762,1,0,0:0:0:0:
460,126,18843,5,0,0:0:0:0:
439,144,18924,1,0,0:0:0:0:
430,170,19005,1,0,0:0:0:0:
435,197,19086,1,0,0:0:0:0:
446,222,19167,2,0,L|496:228,3,39.5850003322105
369,265,19492,6,0,B|296:338|195:263|195:263|258:263|283:219,1,277.095002325474,2|0,0:0|0:0,0:0:0:0:
241,85,20140,6,0,P|204:106|217:191,1,136.955002089767,2|0,0:0|0:0,0:0:0:0:
290,151,20789,5,10,0:0:0:0:
85,81,21113,1,8,0:0:0:0:
290,151,21438,5,8,0:0:0:0:
78,207,21762,1,8,0:0:0:0:
290,151,22086,6,0,L|295:69,1,78.2600011941528,10|8,0:0|0:0,0:0:0:0:
78,207,22735,6,0,L|83:289,1,78.2600011941528,10|8,0:0|0:0,0:0:0:0:
416,337,23384,5,10,0:0:0:0:
419,323,23465,1,0,0:0:0:0:
421,309,23546,1,0,0:0:0:0:
424,295,23627,1,8,0:0:0:0:
428,282,23708,5,8,0:0:0:0:
403,250,23789,1,0,0:0:0:0:
391,212,23870,1,0,0:0:0:0:
400,173,23951,1,0,0:0:0:0:
432,150,24032,5,8,0:0:0:0:
447,153,24113,1,0,0:0:0:0:
460,161,24194,1,0,0:0:0:0:
467,174,24275,1,0,0:0:0:0:
473,188,24357,5,8,0:0:0:0:
425,193,24438,1,0,0:0:0:0:
377,198,24519,1,0,0:0:0:0:
329,203,24600,1,0,0:0:0:0:
285,207,24681,6,0,L|295:122,1,78.2600011941528,8|8,1:2|0:0,0:0:0:0:
304,57,25329,1,8,0:0:0:0:
418,265,25654,2,0,P|399:285|359:287,1,58.6950008956146,8|0,1:2|0:0,0:0:0:0:
361,294,25978,6,0,L|456:302,1,79.1700006644211,2|0,1:2|0:0,0:0:0:0:
282,285,26302,6,0,L|203:278,1,79.1700006644211,2|0,0:0|0:0,0:0:0:0:
361,294,26627,6,0,L|456:302,1,79.1700006644211,2|0,0:0|0:0,0:0:0:0:
282,285,26951,6,0,L|203:278,1,79.1700006644211,2|0,0:0|0:0,0:0:0:0:
361,294,27275,6,0,L|456:302,1,79.1700006644211,2|0,0:0|0:0,0:0:0:0:
282,285,27600,6,0,L|203:278,1,79.1700006644211,2|0,0:0|0:0,0:0:0:0:
361,294,27924,6,0,L|456:302,1,79.1700006644211,2|0,0:0|0:0,0:0:0:0:
282,285,28248,5,2,0:0:0:0:
87,151,28573,6,0,B|54:136|27:181|27:181|137:158|137:158|145:161|145:161|232:144,1,262.080006398438,6|0,1:2|0:0,0:0:0:0:
284,127,28897,2,0,P|299:113|288:57,1,70.0699986100617,2|0,0:0|0:0,0:0:0:0:
232,32,29059,2,0,L|177:25,1,45.5,2|0,0:0|0:0,0:0:0:0:
365,191,29221,6,0,L|418:185,1,47.7749985420228,10|0,0:0|0:0,0:0:0:0:
272,204,29546,22,1,B|202:213|202:213|171:218|155:259|181:292|215:288|215:288|400:264|400:264|469:255|469:255|501:250|516:209|490:176|457:180|457:180|344:193,1,654.500002351701,6|0,1:2|0:0,0:0:0:0:
284,127,30194,6,0,P|282:108|327:59,1,70.0699986100617,2|0,1:2|0:0,0:0:0:0:
385,61,30357,2,0,L|376:116,1,45.5,2|0,0:0|0:0,0:0:0:0:
272,204,30519,1,10,0:0:0:0:
106,86,30681,6,0,B|116:66|116:50|116:50|122:64|155:91,1,72.8,0|0,1:0|0:0,0:0:0:0:
142,151,30843,1,2,0:0:0:0:
142,151,31005,1,0,0:0:0:0:
10,310,31167,5,6,1:2:0:0:
31,280,31248,1,0,0:0:0:0:
65,267,31329,1,0,0:0:0:0:
100,278,31411,1,0,0:0:0:0:
124,305,31492,2,0,B|105:329|117:347|117:347|125:330|147:326,1,72.8,2|0,0:0|0:0,0:0:0:0:
204,294,31654,2,0,B|223:270|211:252|211:252|203:269|181:273,1,72.8,2|0,0:0|0:0,0:0:0:0:
199,372,31816,6,0,L|432:348,1,218.4,10|0,0:0|0:0,0:0:0:0:
456,344,32140,6,0,B|416:393|373:345|360:296|367:249|397:219|429:191|466:164|466:164|494:142|554:98|505:-13|434:-14|381:64|390:137|477:181,1,579.670019459138,6|0,1:2|0:0,0:0:0:0:
346,165,32789,6,0,P|322:167|285:126,1,70.0699986100617,2|0,1:2|0:0,0:0:0:0:
295,65,32951,2,0,L|303:14,1,45.5,2|0,0:0|0:0,0:0:0:0:
184,222,33113,6,0,L|193:281,1,47.7749985420228,10|0,0:0|0:0,0:0:0:0:
219,338,33438,2,0,P|244:326|260:302,1,47.7749985420228,2|0,0:0|0:0,0:0:0:0:
113,269,33762,6,0,B|121:335|34:315|48:379|48:379|-10:318|61:308|37:250,1,262.080006398438,6|0,1:2|0:0,0:0:0:0:
19,195,34086,2,0,B|5:190|-15:195|-15:195|16:161|43:189,1,83.7199971895753,2|0,0:0|0:0,0:0:0:0:
198,209,34248,2,0,B|209:218|230:221|230:221|189:242|173:206,1,83.7199971895753,2|0,0:0|0:0,0:0:0:0:
152,150,34411,6,0,L|147:92,1,50.5050012330322,8|0,0:0|0:0,0:0:0:0:
86,19,34735,6,0,B|35:-12|-14:71|-14:71|139:157|116:28|221:-3|309:85|309:85|245:74|225:116,1,579.670019459138,6|0,1:2|0:0,0:0:0:0:
198,209,35384,6,0,P|191:243|205:274,1,70.0699986100617,2|0,1:2|0:0,0:0:0:0:
270,315,35546,2,0,L|331:318,1,45.5,2|0,0:0|0:0,0:0:0:0:
498,129,35708,6,0,L|436:132,1,50.5050012330322,10|0,0:0|0:0,0:0:0:0:
432,205,36032,2,0,L|494:202,1,50.5050012330322,2|0,0:0|0:0,0:0:0:0:
489,302,36357,6,0,B|456:349|405:299|410:295|415:289|394:257|337:272|313:301|313:301|357:285|379:328,1,262.080006398438,6|0,1:2|0:0,0:0:0:0:
205,341,36681,6,0,B|191:324|171:324|171:324|192:315|206:298,1,70.0699986100617,2|0,0:0|0:0,0:0:0:0:
314,300,36843,2,0,B|323:313|340:319|340:319|320:320|306:336,1,70.0699986100617,2|0,0:0|0:0,0:0:0:0:
255,244,37005,2,0,B|198:202|249:146|259:149|269:151|324:84|234:58,1,210.209995830185,10|0,0:0|0:0,0:0:0:0:
140,132,37329,6,0,B|73:182|73:182|206:163|206:163|342:142|342:142|390:133|417:168|413:218|356:230|356:230|242:247,1,611.520014929688,4|0,1:2|0:0,0:0:0:0:
185,256,37978,2,0,L|92:267,1,70.0699986100617,2|0,1:2|0:0,0:0:0:0:
41,274,38140,2,0,P|22:310|24:332,1,45.5,2|0,0:0|0:0,0:0:0:0:
140,132,38302,6,0,P|134:110|115:86,1,50.5050012330322,10|0,0:0|0:0,0:0:0:0:
20,13,38627,5,2,0:2:0:0:
20,21,38708,1,2,0:2:0:0:
20,29,38789,1,2,0:2:0:0:
20,37,38870,1,2,0:2:0:0:
43,162,38951,6,0,B|17:167|-2:190|-2:190|0:128|59:91|106:97|106:97|120:129|165:141,1,262.080006398438,6|0,1:2|0:0,0:0:0:0:
215,119,39275,2,0,L|231:42,1,70.0699986100617,2|0,0:0|0:0,0:0:0:0:
280,304,39438,2,0,L|266:374,1,45.5,2|0,0:0|0:0,0:0:0:0:
460,259,39600,6,0,L|470:195,1,50.5050012330322,10|0,0:0|0:0,0:0:0:0:
485,103,39924,6,0,B|453:162|426:119|400:185|400:185|341:170|341:170|338:166|338:166|130:118|130:118|190:101|190:101|268:117|268:117|280:67|328:61,1,611.520014929688,6|0,1:2|0:0,0:0:0:0:
370,30,40573,2,0,P|381:59|367:104,1,70.0699986100617,2|0,1:2|0:0,0:0:0:0:
270,228,40735,2,0,L|203:233,1,45.5,2|0,0:0|0:0,0:0:0:0:
36,300,40897,6,0,B|59:322|59:346|59:346|69:322|111:307,1,100.10000305481,10|0,0:0|1:0,0:0:0:0:
112,246,41221,2,0,B|89:224|89:200|89:200|79:224|37:239,1,100.10000305481,2|0,0:0|0:0,0:0:0:0:
188,355,41546,5,2,1:2:0:0:
264,343,41627,1,0,0:0:0:0:
336,333,41708,2,0,L|402:342,1,50.0500015274048,2|0,0:0|0:0,0:0:0:0:
186,340,41870,5,2,0:0:0:0:
258,274,41951,1,0,0:0:0:0:
333,347,42032,2,0,L|399:356,1,50.0500015274048,2|0,0:0|0:0,0:0:0:0:
184,327,42194,5,10,0:0:0:0:
120,138,42357,5,2,0:0:0:0:
150,209,42438,1,2,0:0:0:0:
207,158,42519,2,0,B|281:72|374:150|368:162|364:174|427:264|558:173|622:121|495:-9|350:-2|449:188|310:98,1,579.670019459138,6|0,1:2|0:0,0:0:0:0:
249,53,43167,6,0,L|257:12,4,35.0349993050308,2|0|0|0|2,1:2|1:0|1:0|0:0|0:0,0:0:0:0:
0,190,43492,2,0,B|105:174|105:174|109:175|109:175|212:158,1,210.209995830185,10|0,0:0|0:0,0:0:0:0:
222,153,43816,2,0,B|153:104|121:171|122:173|123:174|65:252|5:177,1,237.510001993263,2|0,0:0|0:0,0:0:0:0:
0,307,44140,6,0,B|88:289|88:289|94:290|94:290|197:269|197:269|159:301|184:342,1,262.080006398438,6|0,1:2|0:0,0:0:0:0:
235,368,44465,2,0,P|286:366|301:343,1,70.0699986100617,2|0,0:0|0:0,0:0:0:0:
344,107,44627,2,0,L|336:46,1,45.5,2|0,0:0|0:0,0:0:0:0:
453,231,44789,6,0,L|447:289,1,50.5050012330322,8|0,0:0|0:0,0:0:0:0:
445,293,45113,6,0,B|371:311|324:244|330:162|377:131|377:131|416:106|457:40|412:-43|289:-26|239:78|350:93|340:197|242:204,1,611.520014929688,6|0,1:2|0:0,0:0:0:0:
221,230,45762,2,0,P|208:192|219:156,1,70.0699986100617,2|0,1:2|0:0,0:0:0:0:
81,52,45924,2,0,L|16:39,1,45.5,2|0,0:0|0:0,0:0:0:0:
144,118,46086,6,0,L|192:90,1,50.5050012330322,10|0,0:0|0:0,0:0:0:0:
60,144,46411,2,0,L|40:195,1,50.5050012330322,2|0,0:0|0:0,0:0:0:0:
36,305,46735,6,0,B|24:271|-10:268|-10:268|21:205|107:233|103:240|99:250|124:281|182:270,1,262.080006398438,6|0,1:2|0:0,0:0:0:0:
229,238,47059,2,0,P|249:201|230:166,1,70.0699986100617,2|0,0:0|0:0,0:0:0:0:
81,52,47221,2,0,L|22:58,1,45.5,2|0,0:0|0:0,0:0:0:0:
151,102,47384,6,0,B|202:140|265:106|221:73|260:21|333:38|370:120|250:159,1,251.159991568726,10|0,0:0|0:0,0:0:0:0:
367,193,47708,6,0,L|358:274,1,72.8,4|0,1:2|0:0,0:0:0:0:
485,384,48032,2,0,L|494:303,1,72.8,2|0,0:0|0:0,0:0:0:0:
298,132,48357,2,0,L|289:213,1,72.8,2|2,1:2|0:0,0:0:0:0:
504,112,48681,6,0,L|513:31,1,72.8,10|0,0:0|0:0,0:0:0:0:
148,155,49005,2,0,L|139:227,1,72.8,2|0,0:2|0:0,0:0:0:0:
111,377,49329,5,2,1:2:0:0:
205,276,49492,1,2,0:0:0:0:
0,253,49654,2,0,L|8:299,1,36.4,2|0,0:0|0:0,0:0:0:0:
29,371,49816,1,2,0:0:0:0:
191,376,49978,5,2,0:0:0:0:
282,252,50141,1,2,0:0:0:0:
367,377,50302,2,0,L|369:334,1,36.4,2|0,0:0|0:0,0:0:0:0:
434,248,50465,1,2,0:0:0:0:
500,379,50627,5,2,1:2:0:0:
425,41,60681,5,8,0:3:0:0:
470,55,60762,1,8,0:3:0:0:
470,102,60843,1,8,0:3:0:0:
425,117,60924,1,8,0:3:0:0:
397,79,61005,6,0,B|290:12|296:109|196:67|196:67|266:148|267:72|321:89|352:131,1,364,2|0,1:2|0:0,0:0:0:0:
407,239,61978,2,0,B|439:162|543:150|563:264|510:355|433:360|333:354|246:307|377:226|214:128|180:202|180:202|217:227|205:273,1,655.2,2|0,1:2|0:0,0:0:0:0:
0,309,63600,6,0,B|60:361|60:361|88:243|88:243|85:230|85:230|118:79,1,364,2|0,1:2|0:0,0:0:0:0:
105,15,64573,2,0,P|61:28|117:83,1,163.8,2|0,1:2|0:0,0:0:0:0:
215,27,66194,6,0,B|294:-42|410:12|417:111|417:111|397:87|365:73|321:91,1,364,2|0,1:2|0:0,0:0:0:0:
176,181,67167,2,0,B|111:152|111:152|107:157|107:157|39:122|39:122|184:109|184:109|188:105|188:105|252:97|252:97|226:213|226:213|222:216|222:216|191:377,1,655.2,2|0,1:2|0:0,0:0:0:0:
311,364,68789,5,8,0:3:0:0:
374,306,68951,1,8,0:3:0:0:
420,371,69113,5,8,0:3:0:0:
435,254,69275,1,8,0:3:0:0:
484,315,69438,5,8,0:3:0:0:
295,289,69600,1,8,0:3:0:0:
345,71,69762,6,0,P|383:63|424:90,1,72.8,8|0,0:3|0:0,0:0:0:0:
263,137,70086,6,0,P|225:145|184:118,1,72.8,8|0,0:3|0:0,0:0:0:0:
358,60,70411,6,0,P|396:52|437:79,1,72.8,8|0,0:3|0:0,0:0:0:0:
252,151,70735,6,0,P|214:159|173:132,1,72.8,8|0,0:3|0:0,0:0:0:0:
365,46,71060,6,0,P|403:38|444:65,1,72.8,8|8,0:3|0:3,0:0:0:0:
48,231,71384,5,2,1:2:0:0:
102,175,71546,1,0,0:0:0:0:
102,175,71627,1,0,0:0:0:0:
102,175,71708,2,0,L|97:121,1,36.4,8|0,0:0|0:0,0:0:0:0:
210,229,71870,5,0,1:0:0:0:
147,331,72032,1,2,0:0:0:0:
188,150,72194,1,8,0:0:0:0:
197,148,72275,1,8,0:0:0:0:
207,147,72357,2,0,B|254:24|254:24|317:95|317:95|323:95|323:95|380:163|380:163|341:253|341:253|342:256|342:256|298:359|298:359|250:320|250:320|245:320|245:320|179:249,1,691.6,8|0,1:2|0:0,0:0:0:0:
114,227,73978,5,2,1:2:0:0:
63,214,74059,1,0,0:0:0:0:
38,260,74140,1,2,0:0:0:0:
76,295,74221,1,2,0:0:0:0:
117,281,74302,2,0,B|143:260|169:269|169:269|149:284|128:312,1,87.3600021328126,10|0,0:0|0:0,0:0:0:0:
374,353,74465,5,0,1:2:0:0:
393,313,74546,1,0,0:0:0:0:
363,342,74627,2,0,B|350:316|350:316|316:306|316:306|305:278,1,87.3600021328126,2|0,0:0|0:0,0:0:0:0:
353,91,74789,5,8,0:0:0:0:
336,135,74870,1,0,0:0:0:0:
353,91,74951,1,2,0:0:0:0:
317,52,75032,1,0,0:0:0:0:
264,49,75113,1,2,0:0:0:0:
227,87,75194,1,0,0:0:0:0:
207,133,75275,2,0,B|192:164|156:144|156:144|171:135|190:100,1,100.10000305481,2|0,1:2|0:0,0:0:0:0:
426,40,75438,5,2,0:0:0:0:
444,113,75519,1,2,0:0:0:0:
426,40,75600,2,0,P|393:9|324:35,1,100.10000305481,10|0,0:0|0:0,0:0:0:0:
207,133,75762,5,0,1:2:0:0:
283,157,75843,1,0,0:0:0:0:
207,133,75924,2,0,B|223:181|189:231|145:194|104:220|86:277|104:310,1,218.4,2|0,0:0|0:0,0:0:0:0:
207,299,76086,2,0,B|223:251|189:201|145:238|104:212|86:155|104:122,1,218.4,2|0,0:0|0:0,0:0:0:0:
156,36,76248,5,10,0:0:0:0:
154,54,76329,1,8,0:0:0:0:
152,73,76411,1,10,0:0:0:0:
2,311,76573,5,2,1:2:0:0:
31,279,76654,1,0,0:0:0:0:
72,266,76735,1,2,0:0:0:0:
113,280,76816,1,2,0:0:0:0:
138,315,76897,2,0,B|172:314|187:364|187:364|199:315|246:311,1,145.6,10|0,0:0|0:0,0:0:0:0:
396,242,77059,5,0,1:2:0:0:
386,199,77140,1,0,0:0:0:0:
385,245,77221,2,0,B|367:267|334:258|334:258|351:252|369:223,1,87.3600021328126,2|0,0:0|0:0,0:0:0:0:
429,80,77384,2,0,P|446:80|462:108,1,43.6800010664063,0|0,1:2|1:0,0:0:0:0:
420,75,77465,2,0,P|415:64|435:29,1,43.6800010664063,0|0,1:0|0:0,0:0:0:0:
415,83,77546,6,0,B|327:157|226:41|347:-6|352:49,1,209.300003992081,2|2,0:0|0:0,0:0:0:0:
196,112,77789,1,0,0:0:0:0:
193,104,77870,6,0,B|149:57|149:57|135:146|135:146|131:152|131:152|122:210,1,209.300003992081,10|2,1:2|0:0,0:0:0:0:
69,277,78113,1,2,0:0:0:0:
68,268,78194,2,0,P|105:237|180:235,1,104.65000199604,10|0,0:0|0:0,0:0:0:0:
297,189,78357,5,0,1:2:0:0:
317,261,78438,1,0,0:0:0:0:
375,213,78519,2,0,B|445:208|445:208|426:222|419:252,1,104.65000199604,10|0,0:0|0:0,0:0:0:0:
192,379,78681,2,0,B|122:384|122:384|141:370|148:340,1,104.65000199604,10|0,0:0|0:0,0:0:0:0:
218,260,78843,5,10,0:0:0:0:
247,327,78924,1,8,0:0:0:0:
322,341,79005,2,0,B|338:359|362:363|362:363|333:391|304:356,1,104.65000199604,10|0,0:0|0:0,0:0:0:0:
30,152,79167,5,2,1:2:0:0:
43,202,79248,1,0,0:0:0:0:
88,227,79329,1,2,0:0:0:0:
140,218,79411,1,2,0:0:0:0:
175,179,79492,2,0,B|196:137|224:142|224:142|198:163|198:195,1,104.65000199604,8|0,0:0|0:0,0:0:0:0:
436,122,79654,5,0,1:0:0:0:
377,127,79735,1,0,0:0:0:0:
443,113,79816,2,0,P|391:83|336:103,1,104.65000199604,2|0,0:0|0:0,0:0:0:0:
141,35,79978,5,0,1:0:0:0:
68,59,80059,1,0,1:0:0:0:
141,35,80140,2,0,P|195:50|251:85,1,104.65000199604,10|0,0:0|0:0,0:0:0:0:
350,92,80302,2,0,P|375:137|388:188,1,104.65000199604,2|0,0:0|0:0,0:0:0:0:
474,261,80465,6,0,P|447:293|456:353,1,91,0|0,1:2|0:0,0:0:0:0:
315,253,80870,5,2,0:0:0:0:
315,253,80951,2,0,P|324:308|370:341,2,91,2|2|2,0:0|1:2|1:2,0:0:0:0:
150,298,81438,5,8,0:0:0:0:
194,359,81519,1,8,0:0:0:0:
269,373,81600,1,8,0:0:0:0:
269,373,81762,5,0,1:2:0:0:
287,326,81843,1,0,0:0:0:0:
251,291,81924,1,2,0:0:0:0:
225,248,82005,1,2,0:0:0:0:
244,201,82086,2,0,B|266:175|292:186|292:186|281:190|273:219,1,87.3600021328126,8|0,0:0|0:0,0:0:0:0:
77,216,82248,5,0,0:0:0:0:
30,224,82329,1,0,0:0:0:0:
73,203,82411,2,0,B|95:202|118:219|118:219|90:219|63:237,1,87.3600021328126,2|0,0:0|0:0,0:0:0:0:
18,37,82573,5,0,1:0:0:0:
92,22,82654,1,0,1:0:0:0:
166,5,82735,2,0,B|249:22|249:22|253:26|253:26|357:48,1,174.720004265625,2|8,1:2|0:0,0:0:0:0:
470,150,83059,6,0,B|447:164|445:187|445:187|434:162|401:158,1,87.3600021328126,10|0,0:0|0:0,0:0:0:0:
350,129,83221,2,0,P|337:164|371:211,1,87.3600021328126,0|0,1:0|0:0,0:0:0:0:
498,374,83384,1,0,1:0:0:0:
512,307,83465,1,0,0:0:0:0:
456,266,83546,1,8,0:0:0:0:
402,315,83627,1,8,0:0:0:0:
422,384,83708,1,0,0:0:0:0:
307,157,83870,6,0,B|301:202|301:202|299:204|299:204|291:251,1,87.3600021328126,2|2,1:2|0:0,0:0:0:0:
197,369,84032,2,0,B|205:330|205:330|204:328|204:328|214:283,1,87.3600021328126,2|2,0:0|0:0,0:0:0:0:
293,243,84194,1,2,0:0:0:0:
87,64,84357,5,2,1:2:0:0:
134,42,84438,1,0,0:0:0:0:
169,80,84519,1,2,0:0:0:0:
137,121,84600,1,2,0:0:0:0:
85,110,84681,2,0,B|67:131|43:134|43:134|67:135|87:159,1,87.3600021328126,10|0,0:0|0:0,0:0:0:0:
193,245,84843,5,0,1:2:0:0:
226,205,84924,1,0,0:0:0:0:
182,250,85005,2,0,B|199:290|199:290|298:282|298:282|299:278|299:278|390:269|390:269|412:316,1,262.080006398438,2|0,0:0|0:0,0:0:0:0:
492,232,85329,6,0,P|513:213|508:195,1,40.9499987503052,10|0,0:0|0:0,0:0:0:0:
446,167,85492,2,0,P|425:186|430:204,1,40.9499987503052,2|0,0:0|0:0,0:0:0:0:
459,332,85654,6,0,B|475:329|486:365|486:365|488:333|514:314,1,87.3600021328126,2|0,1:2|0:0,0:0:0:0:
334,147,85816,1,2,0:0:0:0:
288,132,85897,1,2,0:0:0:0:
241,146,85978,2,0,B|248:185|248:185|247:187|247:187|256:236,1,87.3600021328126,10|0,0:0|0:0,0:0:0:0:
317,320,86140,5,0,1:2:0:0:
262,367,86221,1,0,0:0:0:0:
189,338,86302,2,0,B|193:313|186:289|186:289|204:310|236:312,1,91,2|2,0:0|0:0,0:0:0:0:
317,320,86627,6,0,L|308:376,1,45.5,10|8,0:0|0:0,0:0:0:0:
118,359,86789,1,10,0:0:0:0:
114,341,86870,1,0,0:0:0:0:
111,324,86951,5,2,1:2:0:0:
46,351,87032,1,0,0:0:0:0:
0,298,87113,1,2,0:0:0:0:
13,229,87194,1,2,0:0:0:0:
76,199,87275,2,0,B|104:197|116:220|116:220|120:192|149:180,1,87.3600021328126,10|0,0:0|0:0,0:0:0:0:
307,54,87438,5,0,1:2:0:0:
291,122,87519,1,0,0:0:0:0:
274,189,87600,2,0,B|291:208|293:233|293:233|322:210|306:177,1,87.3600021328126,2|0,0:0|0:0,0:0:0:0:
488,57,87762,2,0,L|497:103,1,43.6800010664063,0|0,1:2|1:0,0:0:0:0:
447,40,87843,2,0,L|456:97,1,43.6800010664063,0|0,1:0|0:0,0:0:0:0:
398,20,87924,6,0,L|410:108,1,87.3600021328126,2|0,0:0|0:0,0:0:0:0:
482,330,88086,2,0,L|494:242,1,87.3600021328126,2|0,0:0|0:0,0:0:0:0:
436,180,88248,5,10,1:2:0:0:
387,241,88411,1,2,0:0:0:0:
387,241,88492,1,2,0:0:0:0:
288,156,88654,1,0,0:0:0:0:
288,156,88735,2,0,B|261:136|261:136|276:201,1,87.3600021328126,2|0,1:2|0:0,0:0:0:0:
326,339,88897,1,10,0:0:0:0:
326,339,88978,2,0,B|353:359|353:359|338:294,1,87.3600021328126,0|0,0:0|1:2,0:0:0:0:
283,263,89140,1,0,0:0:0:0:
283,263,89221,5,10,0:0:0:0:
231,267,89302,1,8,0:0:0:0:
196,318,89384,1,10,0:0:0:0:
152,353,89465,1,0,0:0:0:0:
98,348,89546,6,0,L|2:331,1,83.7199971895753,2|2,1:2|0:0,0:0:0:0:
84,182,89870,6,0,P|107:227|94:285,1,83.7199971895753,2|0,0:0|0:0,0:0:0:0:
104,363,90194,6,0,L|8:346,1,83.7199971895753,2|0,0:0|0:0,0:0:0:0:
103,168,90519,6,0,P|126:213|113:271,1,83.7199971895753,2|0,0:0|0:0,0:0:0:0:
235,384,90843,5,10,0:0:0:0:
16,235,91086,1,8,0:0:0:0:
16,235,91167,1,10,0:0:0:0:
269,121,91329,1,8,0:0:0:0:
269,121,91411,1,2,0:0:0:0:
269,121,91492,1,0,0:0:0:0:
139,13,91654,1,2,0:0:0:0:
57,42,91735,1,0,0:0:0:0:
139,13,91816,6,0,L|128:79,1,41.8599985947876,2|0,0:0|0:0,0:0:0:0:
103,173,91978,2,0,L|114:107,1,41.8599985947876,2|0,0:0|0:0,0:0:0:0:
233,41,92140,6,0,B|377:31|377:31|422:28|454:73|446:119|410:137|361:128,1,262.080006398438,6|0,1:2|0:0,0:0:0:0:
269,121,92465,2,0,L|187:126,1,70.0699986100617,2|0,0:0|0:0,0:0:0:0:
293,193,92627,2,0,L|347:188,1,45.5,2|0,0:0|0:0,0:0:0:0:
500,334,92789,6,0,L|452:330,1,47.7749985420228,10|0,0:0|0:0,0:0:0:0:
379,306,93113,6,0,B|340:349|289:368|236:323|212:296|212:296|177:259|119:190|2:225|-54:357|66:404|182:404|150:280|255:373,1,654.500005487295,6|0,1:2|0:0,0:0:0:0:
300,268,93762,6,0,P|320:241|317:192,1,70.0699986100617,2|0,1:2|0:0,0:0:0:0:
205,78,93924,2,0,L|216:138,1,45.5,2|0,0:0|0:0,0:0:0:0:
250,214,94086,1,10,0:0:0:0:
461,106,94248,2,0,B|449:91|445:76|445:76|441:91|419:104,1,72.8,0|0,1:0|0:0,0:0:0:0:
249,62,94411,5,2,0:0:0:0:
280,93,94492,1,0,0:0:0:0:
256,130,94573,1,0,0:0:0:0:
213,122,94654,1,0,0:0:0:0:
205,78,94735,6,0,B|161:116|89:72|150:30|54:-11|9:42|28:48,1,218.4,6|0,1:2|0:0,0:0:0:0:
67,119,95059,2,0,B|49:133|47:151|47:151|43:130|17:114,1,72.8,2|0,0:0|0:0,0:0:0:0:
15,214,95221,2,0,P|54:224|86:208,1,72.8,2|0,0:0|0:0,0:0:0:0:
315,308,95384,6,0,B|319:289|358:281|358:281|272:290|272:290|255:306|255:306|184:312,1,218.4,10|0,0:0|0:0,0:0:0:0:
391,349,95708,6,0,B|413:393|533:368|545:252|465:210|382:252|189:95|348:-80|515:-34|519:49|475:150|421:86|449:159,1,579.670019459138,6|0,1:2|0:0,0:0:0:0:
323,186,96357,6,0,L|238:171,1,70.0699986100617,2|0,1:2|0:0,0:0:0:0:
81,85,96519,2,0,P|69:64|69:37,1,45.5,2|0,0:0|0:0,0:0:0:0:
275,55,96681,6,0,L|266:114,1,47.7749985420228,10|0,0:0|0:0,0:0:0:0:
253,173,97005,2,0,L|245:224,1,47.7749985420228,2|0,0:0|0:0,0:0:0:0:
277,293,97329,6,0,B|299:363|340:291|377:368|377:368|387:292|325:338|331:246,1,262.080006398438,6|0,1:2|0:0,0:0:0:0:
393,207,97654,2,0,P|420:215|427:267,1,83.7199971895753,2|0,0:0|0:0,0:0:0:0:
173,365,97816,1,2,0:0:0:0:
176,355,97897,1,0,0:0:0:0:
180,344,97978,2,0,L|190:293,1,50.5050012330322,10|0,0:0|0:0,0:0:0:0:
176,141,98302,6,0,B|77:86|47:210|47:210|207:143|329:160|329:160|267:167|251:237,1,579.670019459138,6|0,1:2|0:0,0:0:0:0:
337,237,98951,6,0,L|435:222,1,70.0699986100617,2|0,1:2|0:0,0:0:0:0:
366,56,99113,2,0,P|335:77|323:109,1,45.5,2|0,0:0|0:0,0:0:0:0:
480,253,99275,6,0,L|487:203,1,50.5050012330322,10|0,0:0|0:0,0:0:0:0:
331,83,99600,2,0,L|338:133,1,50.5050012330322,2|0,0:0|0:0,0:0:0:0:
202,215,99924,6,0,B|120:209|120:209|119:206|119:206|26:198|26:198|99:250,1,262.080006398438,6|0,1:2|0:0,0:0:0:0:
309,375,100248,2,0,L|299:291,1,70.0699986100617,2|0,0:0|0:0,0:0:0:0:
372,287,100411,2,0,L|382:371,1,70.0699986100617,2|0,0:0|0:0,0:0:0:0:
281,162,100573,2,0,B|326:116|389:149|385:154|383:158|427:197|474:161,1,210.209995830185,10|0,0:0|0:0,0:0:0:0:
493,154,100897,6,0,B|399:169|399:169|396:166|396:166|223:196|223:196|283:105|283:105|282:101|282:101|359:-17|359:-17|386:17|386:17|384:22|384:22|415:58,1,611.520014929688,6|0,1:2|0:0,0:0:0:0:
493,154,101546,6,0,L|482:243,1,70.0699986100617,2|0,1:2|0:0,0:0:0:0:
390,321,101708,2,0,P|375:332|343:332,1,45.5,2|0,0:0|0:0,0:0:0:0:
89,208,101870,2,0,B|92:229|92:229|90:234|90:234|96:265,1,50.5050012330322,8|0,0:0|0:0,0:0:0:0:
92,277,102194,5,2,0:2:0:0:
55,254,102275,1,2,0:2:0:0:
49,211,102357,1,2,0:2:0:0:
64,171,102438,1,2,0:2:0:0:
99,147,102519,6,0,L|289:162,1,182,6|2,1:2|0:0,0:0:0:0:
512,122,103005,1,2,0:0:0:0:
315,25,103167,6,0,L|310:88,1,50.5050012330322,10|0,0:0|0:0,0:0:0:0:
393,262,103492,6,0,B|430:273|425:207|522:267|522:267|459:376|436:270|377:313|346:337|387:219|258:206|211:276|211:276|279:287|300:350,1,611.520014929688,6|0,1:2|0:0,0:0:0:0:
290,67,104140,6,0,L|280:163,1,70.0699986100617,2|0,1:2|0:0,0:0:0:0:
145,70,104302,2,0,P|168:50|205:48,1,45.5,2|0,0:0|0:0,0:0:0:0:
129,215,104465,6,0,L|18:230,1,100.10000305481,10|0,0:0|1:0,0:0:0:0:
9,157,104789,2,0,L|120:142,1,100.10000305481,2|0,0:0|0:0,0:0:0:0:
280,217,105113,5,2,1:2:0:0:
247,286,105194,1,0,0:0:0:0:
237,362,105275,2,0,L|171:376,1,50.0500015274048,2|0,0:0|0:0,0:0:0:0:
295,213,105438,5,2,0:0:0:0:
257,284,105519,1,0,0:0:0:0:
255,369,105600,2,0,L|203:386,1,50.0500015274048,2|0,0:0|0:0,0:0:0:0:
309,210,105762,5,10,0:0:0:0:
423,360,105924,1,2,0:0:0:0:
377,304,106005,1,2,0:0:0:0:
423,360,106086,6,0,B|457:344|483:277|465:215|400:179|400:179|347:155|288:110|310:-10|437:-23|499:49|443:110|388:126|502:208,1,579.670019459138,6|0,1:2|0:0,0:0:0:0:
377,304,106735,6,0,L|381:266,4,35.0349993050308,2|0|0|0|2,1:2|1:0|1:0|0:0|0:0,0:0:0:0:
171,51,107059,6,0,B|269:42|269:42|275:46|275:46|395:35,1,210.209995830185,10|0,0:0|0:0,0:0:0:0:
414,108,107384,2,0,B|316:117|316:117|310:113|310:113|169:128,1,237.510001993263,2|0,0:0|0:0,0:0:0:0:
88,134,107708,6,0,B|8:181|8:181|104:214,1,177.449991876984,6|0,1:2|0:0,0:0:0:0:
171,203,108032,2,0,L|254:193,1,70.0699986100617,2|0,0:0|0:0,0:0:0:0:
317,195,108194,2,0,L|371:189,1,45.5,2|0,0:0|0:0,0:0:0:0:
449,195,108357,6,0,L|508:189,1,50.5050012330322,8|0,0:0|0:0,0:0:0:0:
482,334,108681,6,0,B|450:275|423:318|397:252|397:252|338:267|338:267|335:271|335:271|127:319|127:319|187:336|187:336|265:320|265:320|277:370|325:376,1,611.520014929688,6|0,1:2|0:0,0:0:0:0:
471,224,109329,6,0,L|490:137,1,70.0699986100617,2|0,1:2|0:0,0:0:0:0:
278,22,109492,2,0,L|287:78,1,45.5,2|0,0:0|0:0,0:0:0:0:
503,37,109654,6,0,P|474:48|455:63,1,50.5050012330322,10|0,0:0|0:0,0:0:0:0:
303,139,109978,2,0,L|251:149,1,50.5050012330322,2|0,0:0|0:0,0:0:0:0:
78,214,110302,5,6,1:2:0:0:
82,206,110384,1,0,0:0:0:0:
85,197,110465,1,0,0:0:0:0:
89,189,110546,1,0,0:0:0:0:
9,99,110627,6,0,B|19:84|23:66|23:66|30:85|45:101,1,70.0699986100617,2|0,0:0|0:0,0:0:0:0:
172,199,110789,2,0,L|154:246,1,45.5,2|0,0:0|0:0,0:0:0:0:
23,363,110951,6,0,B|10:337|-18:322|-18:322|41:271|113:268|141:346,1,251.159991568726,10|0,0:0|0:0,0:0:0:0:
222,359,111275,6,0,L|239:270,1,72.8,4|0,1:2|0:0,0:0:0:0:
185,127,111600,2,0,L|168:216,1,72.8,2|0,0:0|0:0,0:0:0:0:
303,377,111924,2,0,L|320:288,1,72.8,2|2,1:2|0:0,0:0:0:0:
290,65,112248,6,0,P|316:40|351:34,1,72.8,10|0,0:0|0:0,0:0:0:0:
457,216,112573,2,0,P|430:241|380:243,1,72.8,2|0,0:2|0:0,0:0:0:0:
376,145,112897,5,2,1:2:0:0:
256,192,112978,12,0,114113,0:0:0:0:
255,32,114194,5,2,1:2:0:0:
