osu file format v14

[General]
AudioFilename: audio.mp3
AudioLeadIn: 0
PreviewTime: 73978
Countdown: 0
SampleSet: Soft
StackLeniency: 0.2
Mode: 0
LetterboxInBreaks: 0
WidescreenStoryboard: 1

[Editor]
Bookmarks: 10345,16831,25912,30047,50561,89486,114128
DistanceSpacing: 0.6
BeatDivisor: 4
GridSize: 8
TimelineZoom: 1.5

[Metadata]
Title:PINK ORIGINS
TitleUnicode:PINK ORIGINS
Artist:METAROOM
ArtistUnicode:METAROOM
Creator:Lugu
Version:INSANE
Source:
Tags:fa featured artist mpg mappersguild experimental electronic instrumental high energy edm hyperpop records future bass mokobe log_on_now
BeatmapID:3246724
BeatmapSetID:1589495

[Difficulty]
HPDrainRate:4.5
CircleSize:3.6
OverallDifficulty:7.5
ApproachRate:9
SliderMultiplier:1.63
SliderTickRate:1

[Events]
//Background and Video events
0,0,"Webp.net-compress-image.jpg",0,0
//Break Periods
2,50827,60081
//Storyboard Layer 0 (Background)
//Storyboard Layer 1 (Fail)
//Storyboard Layer 2 (Pass)
//Storyboard Layer 3 (Foreground)
//Storyboard Layer 4 (Overlay)
//Storyboard Sound Samples

[TimingPoints]
1330,324.324324324324,4,2,1,30,1,0
5221,-270.27027027027,4,2,1,30,0,0
7816,-312.5,4,2,1,30,0,0
10411,-114.942528735632,4,2,1,40,0,0
15600,-166.666666666667,4,2,1,45,0,0
17464,-166.666666666667,4,2,1,5,0,0
17546,-333.333333333333,4,2,1,45,0,0
18113,-333.333333333333,4,2,1,5,0,0
18194,-114.942528735632,4,2,1,35,0,0
20059,-114.942528735632,4,2,1,5,0,0
20140,-232.558139534884,4,2,1,35,0,0
20789,-232.558139534884,4,2,1,45,0,0
23708,-114.942528735632,4,2,1,45,0,0
25978,-114.942528735632,4,2,1,50,0,0
26140,-114.942528735632,4,2,1,5,0,0
26302,-114.942528735632,4,2,1,50,0,0
26464,-114.942528735632,4,2,1,5,0,0
26627,-114.942528735632,4,2,1,50,0,0
26789,-114.942528735632,4,2,1,5,0,0
26951,-114.942528735632,4,2,1,50,0,0
27113,-114.942528735632,4,2,1,5,0,0
27275,-114.942528735632,4,2,1,50,0,0
27437,-114.942528735632,4,2,1,5,0,0
27600,-114.942528735632,4,2,1,50,0,0
27762,-114.942528735632,4,2,1,5,0,0
27924,-114.942528735632,4,2,1,50,0,0
28086,-114.942528735632,4,2,1,5,0,0
28248,-114.942528735632,4,2,1,50,0,0
28573,-100,4,2,1,60,0,0
28897,-100,4,2,1,60,0,0
29546,-100,4,2,2,60,0,0
30194,-100,4,2,2,60,0,0
31167,-100,4,2,1,60,0,0
32140,-100,4,2,2,60,0,0
33356,-100,4,2,2,5,0,0
33438,-100,4,2,2,60,0,0
33762,-100,4,2,1,60,0,0
34005,-100,4,2,1,5,0,0
34086,-100,4,2,1,60,0,0
34735,-100,4,2,2,60,0,0
35384,-100,4,2,2,60,0,0
35951,-100,4,2,2,5,0,0
36032,-100,4,2,2,60,0,0
36681,-100,4,2,2,60,0,0
37329,-100,4,2,1,60,0,0
37978,-100,4,2,1,60,0,0
39194,-100,4,2,1,5,0,0
39275,-100,4,2,1,60,0,0
39924,-100,4,2,2,60,0,0
40573,-100,4,2,2,60,0,0
44140,-100,4,2,1,60,0,0
44383,-100,4,2,1,5,0,0
44465,-100,4,2,1,60,0,0
45113,-100,4,2,2,60,0,0
45762,-100,4,2,2,60,0,0
46329,-100,4,2,2,5,0,0
46411,-100,4,2,2,60,0,0
46735,-100,4,2,1,60,0,0
47059,-100,4,2,1,60,0,0
47627,-100,4,2,1,5,0,0
47708,-100,4,2,2,60,0,0
60681,-100,4,2,2,45,0,0
61005,-100,4,2,2,50,0,0
68789,-100,4,2,2,45,0,0
70411,-232.558139534884,4,2,2,45,0,0
71384,-232.558139534884,4,2,2,60,0,0
71708,-125,4,2,2,60,0,0
73978,-90.9090909090909,4,2,2,72,0,1
80465,-90.9090909090909,4,2,2,65,0,0
81762,-90.9090909090909,4,2,2,72,0,1
89546,-90.9090909090909,4,2,2,45,0,0
89870,-125,4,2,2,45,0,0
92140,-100,4,2,1,65,0,0
92383,-100,4,2,1,5,0,0
92465,-100,4,2,1,65,0,0
93113,-100,4,2,2,65,0,0
93762,-100,4,2,2,65,0,0
94735,-100,4,2,1,65,0,0
95708,-100,4,2,2,65,0,0
96924,-100,4,2,2,5,0,0
97005,-100,4,2,2,65,0,0
97329,-100,4,2,1,65,0,0
97572,-100,4,2,1,5,0,0
97654,-100,4,2,1,65,0,0
98302,-100,4,2,2,65,0,0
98951,-100,4,2,2,65,0,0
99518,-100,4,2,2,5,0,0
99600,-100,4,2,2,65,0,0
100248,-100,4,2,2,65,0,0
100897,-100,4,2,1,65,0,0
101546,-100,4,2,1,65,0,0
103410,-100,4,2,1,5,0,0
103492,-100,4,2,2,65,0,0
104140,-100,4,2,2,65,0,0
107627,-100,4,2,2,5,0,0
107708,-100,4,2,1,65,0,0
108600,-100,4,2,1,5,0,0
108681,-100,4,2,2,65,0,0
109329,-100,4,2,2,65,0,0
109897,-100,4,2,2,5,0,0
109978,-100,4,2,2,65,0,0
110302,-100,4,2,1,65,0,0
111194,-100,4,2,1,5,0,0
111275,-100,4,2,2,65,0,0
114032,-100,4,2,2,5,0,0
114194,-100,4,2,2,65,0,0

[Colours]
Combo1 : 0,64,128
Combo2 : 0,128,192
Combo3 : 174,174,0
Combo4 : 210,0,210

[HitObjects]
256,192,1330,12,0,5059,2:0:0:0:
462,62,5221,6,0,B|364:159|360:22|244:94|244:94|339:78|372:169|344:237,1,452.325,2|0,1:2|2:0,2:0:0:0:
282,325,7816,6,0,B|307:340|386:288|386:288|323:215|201:244|128:306,1,391.2,2|0,2:0|2:0,2:0:0:0:
57,265,10411,6,0,L|66:224,2,35.4525000000001,2|0|0,2:0|2:0|2:0,2:0:0:0:
0,136,10735,1,2,2:0:0:0:
12,118,10816,1,0,2:0:0:0:
30,107,10897,1,0,2:0:0:0:
50,101,10978,1,0,2:0:0:0:
71,100,11059,2,0,L|118:105,3,35.4525000000001,2|0|2|0,2:0|2:0|2:0|2:0,2:0:0:0:
185,61,11384,1,2,2:0:0:0:
199,76,11465,1,0,2:0:0:0:
218,84,11546,1,0,2:0:0:0:
238,88,11627,1,0,2:0:0:0:
259,86,11708,6,0,L|277:43,3,35.4525000000001,2|0|0|0,2:0|2:0|2:0|2:0,2:0:0:0:
331,140,12032,2,0,L|349:183,3,35.4525000000001,2|0|2|0,2:0|2:0|2:0|2:0,2:0:0:0:
394,81,12357,1,2,2:0:0:0:
407,64,12438,1,0,2:0:0:0:
426,55,12519,1,0,2:0:0:0:
447,57,12600,1,0,2:0:0:0:
464,69,12681,1,2,2:0:0:0:
477,84,12762,1,0,2:0:0:0:
477,105,12843,1,0,2:0:0:0:
465,122,12924,1,0,2:0:0:0:
446,132,13005,6,0,L|437:177,3,35.4525000000001,2|0|0|0,2:0|2:0|2:0|2:0,2:0:0:0:
512,251,13329,2,0,L|503:206,3,35.4525000000001,2|0|0|0,2:0|2:0|2:0|2:0,2:0:0:0:
442,298,13654,2,0,L|433:343,3,35.4525000000001,2|0|2|0,2:0|2:0|2:0|2:0,2:0:0:0:
374,239,13978,1,2,2:0:0:0:
356,226,14059,1,0,2:0:0:0:
334,222,14140,1,0,2:0:0:0:
313,227,14221,1,0,2:0:0:0:
296,239,14302,6,0,P|252:273|169:248,1,141.81,2|0,1:2|2:0,2:0:0:0:
141,175,14789,2,0,P|144:133|141:101,2,70.9050000000001,0|0|0,1:0|1:0|1:0,2:0:0:0:
73,247,15275,1,0,2:0:0:0:
238,153,15438,1,0,1:0:0:0:
238,153,15519,1,0,1:0:0:0:
238,153,15600,6,0,B|284:110|366:120|425:153|428:211|428:211|392:177|328:184,1,342.299999999999,2|0,1:2|2:0,2:0:0:0:
241,236,16897,6,0,B|209:215|165:237|168:246|171:256|134:297|80:274,1,171.15,2|0,2:0|2:0,2:0:0:0:
72,276,17546,2,0,L|82:364,1,85.5750000000001,2|0,2:0|2:0,2:0:0:0:
85,380,18194,6,0,B|-12:315|60:209|77:216|96:224|192:116|79:26|79:26|84:73|39:121,1,496.335000000001,2|0,2:0|2:0,2:0:0:0:
186,26,19492,6,0,B|249:84|304:43|298:34|288:23|354:-22|415:33,1,248.1675,2|0,2:0|2:0,2:0:0:0:
468,117,20140,2,0,L|456:245,1,122.6575,2|0,2:0|2:0,2:0:0:0:
455,260,20789,5,10,2:0:0:0:
277,317,21113,1,8,2:0:0:0:
375,220,21438,5,8,2:0:0:0:
197,277,21762,1,8,2:0:0:0:
288,186,22086,5,10,2:0:0:0:
110,243,22411,1,8,2:0:0:0:
205,152,22735,5,10,2:0:0:0:
27,209,23059,1,8,2:0:0:0:
135,107,23384,5,10,2:0:0:0:
0,128,23627,1,8,2:0:0:0:
0,128,23708,2,0,L|8:55,1,70.9050000000001,8|0,2:0|2:0,2:0:0:0:
135,107,24032,2,0,L|127:34,1,70.9050000000001,8|0,2:0|2:0,2:0:0:0:
269,80,24357,1,8,2:0:0:0:
279,61,24438,1,0,2:0:0:0:
296,48,24519,1,0,2:0:0:0:
315,40,24600,1,0,2:0:0:0:
331,37,24681,6,0,P|305:95|312:189,1,141.81,8|8,1:2|2:0,2:0:0:0:
468,348,25329,1,8,2:0:0:0:
234,283,25654,2,0,P|261:252|328:245,1,106.3575,8|0,1:2|2:0,2:0:0:0:
336,250,25978,6,0,L|327:328,1,70.9050000000001,2|0,1:2|2:0,2:0:0:0:
219,176,26302,6,0,L|210:98,1,70.9050000000001,2|0,2:0|2:0,2:0:0:0:
336,250,26627,6,0,L|327:328,1,70.9050000000001,2|0,2:0|2:0,2:0:0:0:
219,176,26951,6,0,L|210:98,1,70.9050000000001,2|0,2:0|2:0,2:0:0:0:
336,250,27275,6,0,L|327:328,1,70.9050000000001,2|0,2:0|2:0,2:0:0:0:
219,176,27600,6,0,L|210:98,1,70.9050000000001,2|0,2:0|2:0,2:0:0:0:
336,250,27924,6,0,L|327:328,1,70.9050000000001,2|0,2:0|2:0,2:0:0:0:
219,176,28248,5,2,2:0:0:0:
473,39,28573,6,0,P|454:76|367:81,1,122.25,6|0,1:2|2:0,2:0:0:0:
367,77,28897,2,0,L|360:32,2,40.75,2|0|2,2:0|2:0|2:0,2:0:0:0:
181,73,29221,2,0,P|166:35|186:-6,1,81.5,10|0,2:0|2:0,2:0:0:0:
281,118,29546,6,0,L|262:257,1,122.25,6|0,1:2|2:0,2:0:0:0:
261,253,29870,1,0,2:0:0:0:
100,197,30032,1,0,2:0:0:0:
100,197,30113,1,0,2:0:0:0:
100,197,30194,2,0,P|134:171|182:174,1,81.5,2|2,1:2|2:0,2:0:0:0:
292,375,30519,2,0,P|236:380|197:315,1,122.25,10|0,2:0|2:0,2:0:0:0:
196,319,30843,2,0,P|182:283|136:270,1,81.5,2|0,2:0|2:0,2:0:0:0:
6,373,31167,5,6,1:2:0:0:
24,356,31248,1,0,2:0:0:0:
31,332,31329,1,0,2:0:0:0:
31,307,31411,1,0,2:0:0:0:
18,286,31492,2,0,P|-3:247|12:203,1,81.5,2|2,2:0|2:0,2:0:0:0:
126,112,31816,2,0,L|117:200,1,81.5,10|0,2:0|2:0,2:0:0:0:
3,15,32140,6,0,B|28:-4|86:-2|104:37|104:37|78:41|52:72,1,163,6|0,1:2|2:0,2:0:0:0:
13,119,32627,1,0,2:0:0:0:
233,175,32789,2,0,P|254:137|239:101,1,81.5,2|2,1:2|2:0,2:0:0:0:
117,193,33113,2,0,L|100:331,1,122.25,10|0,2:0|2:0,2:0:0:0:
100,330,33438,2,0,P|111:363|166:369,1,81.5,2|0,2:0|2:0,2:0:0:0:
318,284,33762,6,0,L|329:152,1,122.25,6|0,1:2|2:0,2:0:0:0:
329,145,34086,2,0,P|352:131|375:126,2,40.75,2|0|2,2:0|2:0|2:0,2:0:0:0:
399,278,34411,2,0,P|417:237|405:199,1,81.5,8|0,2:0|2:0,2:0:0:0:
254,69,34735,2,0,L|242:200,1,122.25,6|0,1:2|2:0,2:0:0:0:
241,205,35059,1,0,2:0:0:0:
131,88,35221,1,0,2:0:0:0:
131,88,35302,1,0,2:0:0:0:
131,88,35384,6,0,P|91:80|60:39,1,81.5,2|2,1:2|2:0,2:0:0:0:
241,205,35708,2,0,P|195:205|123:257,1,122.25,10|0,2:0|2:0,2:0:0:0:
120,258,36032,2,0,P|99:302|56:317,1,81.5,2|0,2:0|2:0,2:0:0:0:
254,368,36357,5,6,1:2:0:0:
264,346,36438,1,0,2:0:0:0:
282,330,36519,1,0,2:0:0:0:
303,318,36600,1,0,2:0:0:0:
326,312,36681,2,0,P|349:353|390:356,1,81.5,2|2,2:0|2:0,2:0:0:0:
464,226,37005,2,0,P|441:185|400:182,1,81.5,10|0,2:0|2:0,2:0:0:0:
210,173,37329,6,0,B|261:198|283:148|278:145|273:141|296:78|357:117,1,163,4|0,1:2|2:0,2:0:0:0:
486,26,37816,1,0,2:0:0:0:
477,29,37897,1,0,2:0:0:0:
470,35,37978,2,0,P|473:83|475:120,1,81.5,2|2,1:2|2:0,2:0:0:0:
366,32,38302,2,0,P|326:5|282:18,1,81.5,10|0,2:0|2:0,2:0:0:0:
194,157,38627,1,2,2:0:0:0:
173,170,38708,1,2,2:0:0:0:
148,169,38789,1,2,2:0:0:0:
127,155,38870,1,2,2:0:0:0:
114,133,38951,6,0,P|67:157|58:237,1,122.25,6|0,1:2|2:0,2:0:0:0:
51,239,39275,2,0,P|57:266|49:295,2,40.75,2|0|2,2:0|2:0|2:0,2:0:0:0:
196,323,39600,2,0,P|160:358|122:355,1,81.5,10|0,2:0|2:0,2:0:0:0:
252,150,39924,2,0,P|299:150|356:211,1,122.25,6|0,1:2|2:0,2:0:0:0:
356,218,40248,1,0,2:0:0:0:
317,368,40411,1,0,2:0:0:0:
317,368,40492,1,0,2:0:0:0:
317,368,40573,6,0,P|288:334|298:292,1,81.5,2|2,1:2|2:0,2:0:0:0:
450,157,40897,2,0,P|442:197|436:245,1,81.5,10|0,2:0|1:0,2:0:0:0:
503,381,41221,2,0,P|488:335|447:322,1,81.5,2|0,2:0|2:0,2:0:0:0:
284,214,41546,5,2,1:2:0:0:
284,214,41627,1,0,2:0:0:0:
284,214,41708,2,0,L|240:216,1,40.75,2|0,2:0|2:0,2:0:0:0:
116,154,41870,1,2,2:0:0:0:
116,154,41951,1,0,2:0:0:0:
116,154,42032,2,0,L|160:156,1,40.75,2|0,2:0|2:0,2:0:0:0:
272,103,42194,1,10,2:0:0:0:
99,27,42357,1,2,2:0:0:0:
99,27,42438,1,2,2:0:0:0:
99,27,42519,6,0,B|131:57|163:29|160:23|157:16|201:-2|230:23,1,122.25,6|0,1:2|2:0,2:0:0:0:
226,19,42843,2,0,L|276:15,2,40.75,0|0|0,2:0|2:0|2:0,2:0:0:0:
272,103,43167,1,2,1:2:0:0:
272,103,43248,1,0,1:0:0:0:
272,103,43329,1,2,2:0:0:0:
428,52,43492,2,0,P|401:87|354:84,1,81.5,10|0,2:0|2:0,2:0:0:0:
205,202,43816,2,0,P|247:191|297:219,1,81.5,2|0,2:0|2:0,2:0:0:0:
446,271,44140,6,0,L|325:286,1,122.25,6|0,1:2|2:0,2:0:0:0:
308,290,44465,2,0,P|296:312|293:339,2,40.75,2|0|2,2:0|2:0|2:0,2:0:0:0:
173,379,44789,2,0,P|146:349|142:306,1,81.5,8|0,2:0|2:0,2:0:0:0:
264,131,45113,2,0,P|245:183|175:204,1,122.25,6|0,1:2|2:0,2:0:0:0:
166,206,45438,1,0,2:0:0:0:
10,75,45600,1,0,2:0:0:0:
10,75,45681,1,0,2:0:0:0:
10,75,45762,6,0,P|41:61|91:83,1,81.5,2|2,1:2|2:0,2:0:0:0:
166,206,46086,2,0,P|135:220|48:181,1,122.25,10|0,2:0|2:0,2:0:0:0:
46,181,46411,2,0,P|15:219|11:263,1,81.5,2|0,2:0|2:0,2:0:0:0:
110,362,46735,5,6,1:2:0:0:
128,345,46816,1,0,2:0:0:0:
151,337,46897,1,0,2:0:0:0:
175,333,46978,1,0,2:0:0:0:
199,331,47059,2,0,P|231:364|276:357,1,81.5,2|2,2:0|2:0,2:0:0:0:
377,295,47384,6,0,P|383:242|395:159,1,122.25,10|0,2:0|2:0,2:0:0:0:
396,161,47708,2,0,P|349:162|320:195,1,81.5,4|0,1:2|2:0,2:0:0:0:
408,63,48032,6,0,P|361:62|332:29,1,81.5,2|0,2:0|2:0,2:0:0:0:
396,161,48357,2,0,P|349:162|320:195,1,81.5,2|2,1:2|2:0,2:0:0:0:
274,102,48681,6,0,P|227:101|198:68,1,81.5,10|0,2:0|2:0,2:0:0:0:
143,135,49005,2,0,P|96:136|67:169,1,81.5,2|0,2:0|2:0,2:0:0:0:
26,253,49329,5,2,1:2:0:0:
111,248,49492,1,2,2:0:0:0:
116,331,49654,1,2,2:0:0:0:
31,338,49816,1,2,2:0:0:0:
26,253,49978,5,2,2:0:0:0:
110,262,50140,1,2,2:0:0:0:
101,345,50302,1,2,2:0:0:0:
16,337,50465,1,2,2:0:0:0:
61,295,50627,5,2,1:2:0:0:
403,40,60681,6,0,L|394:94,1,40.75,8|8,2:3|2:3,2:0:0:0:
437,148,60843,2,0,L|446:202,1,40.75,8|8,2:3|2:3,2:0:0:0:
414,264,61005,6,0,B|370:296|337:258|341:250|345:242|307:202|263:237|263:237|236:260|193:265|129:249|143:181|189:112|260:183,1,407.5,2|0,1:2|2:0,2:0:0:0:
325,129,61978,2,0,B|368:171|487:182|565:61|483:-29|393:7|400:78,1,326,2|0,1:2|2:0,2:0:0:0:
234,92,63113,1,0,1:2:0:0:
96,235,63600,6,0,B|32:218|32:218|7:172|7:172|152:213|152:213|172:244|172:244|280:266,1,407.5,2|0,1:2|2:0,2:0:0:0:
252,343,64573,2,0,P|376:301|268:189,1,326,2|0,1:2|1:2,2:0:0:0:
273,186,66194,6,0,B|213:136|160:188|167:205|170:220|109:299|-6:282|-43:202|-8:94|96:120|118:166,1,407.5,2|0,1:2|2:0,2:0:0:0:
227,251,67167,2,0,B|278:341|371:267|361:255|354:245|439:171|509:262,1,326,2|0,1:2|2:0,2:0:0:0:
67,40,68789,5,8,2:3:0:0:
102,112,68951,1,8,2:3:0:0:
156,44,69113,5,8,2:3:0:0:
146,186,69275,1,8,2:3:0:0:
247,51,69438,5,8,2:3:0:0:
202,119,69600,1,8,2:3:0:0:
291,131,69762,5,8,2:3:0:0:
156,44,69924,1,0,2:0:0:0:
234,200,70086,5,8,2:3:0:0:
341,63,70248,1,0,2:0:0:0:
487,143,70411,6,0,L|448:145,2,35.045,8|0|8,2:3|2:0|2:3,2:0:0:0:
234,200,71059,1,8,2:3:0:0:
450,326,71384,5,2,1:2:0:0:
490,244,71546,1,0,2:0:0:0:
490,244,71627,1,0,2:0:0:0:
490,244,71708,2,0,P|449:243|424:223,1,65.2,8|0,2:0|1:0,2:0:0:0:
379,170,72032,1,2,2:0:0:0:
302,355,72194,1,8,2:0:0:0:
302,355,72275,1,8,2:0:0:0:
302,355,72357,1,8,1:2:0:0:
256,192,72438,12,0,73816,2:0:0:0:
67,40,73978,6,0,L|70:102,1,44.825,2|0,1:2|2:0,2:0:0:0:
155,112,74140,1,2,2:0:0:0:
155,112,74221,1,2,2:0:0:0:
155,112,74302,2,0,P|165:62|142:15,1,89.65,10|0,2:0|1:2,2:0:0:0:
24,222,74627,2,0,P|64:254|144:236,1,134.475,2|0,2:0|2:0,2:0:0:0:
151,229,74951,1,2,2:0:0:0:
326,110,75113,1,2,2:0:0:0:
244,261,75275,6,0,P|241:203|237:162,1,89.65,2|2,1:2|2:0,2:0:0:0:
233,152,75519,1,2,2:0:0:0:
233,152,75600,1,10,2:0:0:0:
369,217,75762,1,0,1:2:0:0:
369,217,75843,1,0,2:0:0:0:
369,217,75924,2,0,L|356:272,1,44.825,2|0,2:0|2:0,2:0:0:0:
445,322,76086,2,0,L|432:267,1,44.825,2|0,2:0|2:0,2:0:0:0:
512,191,76248,2,0,L|499:246,2,44.825,10|8|10,2:0|2:0|2:0,2:0:0:0:
440,61,76573,6,0,P|401:95|350:85,1,89.65,2|2,1:2|2:0,2:0:0:0:
349,83,76816,1,2,2:0:0:0:
349,83,76897,1,10,2:0:0:0:
130,39,77059,1,0,1:2:0:0:
277,4,77221,1,2,2:0:0:0:
165,119,77384,1,0,1:2:0:0:
165,119,77465,1,0,1:0:0:0:
165,119,77546,2,0,P|170:170|172:218,1,89.65,2|2,2:0|2:0,2:0:0:0:
248,362,77870,5,10,1:2:0:0:
272,277,78032,1,2,2:0:0:0:
296,189,78194,1,10,2:0:0:0:
322,109,78357,2,0,L|369:92,1,44.825,0|0,1:2|2:0,2:0:0:0:
438,153,78519,5,10,2:0:0:0:
296,189,78681,1,10,2:0:0:0:
204,93,78843,1,10,2:0:0:0:
183,75,78924,1,8,2:0:0:0:
157,67,79005,2,0,L|160:114,1,44.825,10|0,2:0|2:0,2:0:0:0:
166,194,79167,5,2,1:2:0:0:
41,132,79329,1,2,2:0:0:0:
41,132,79411,1,2,2:0:0:0:
41,132,79492,2,0,P|13:175|20:222,1,89.65,8|0,2:0|1:0,2:0:0:0:
108,366,79816,2,0,P|134:323|214:303,1,134.475,2|0,2:0|1:0,2:0:0:0:
227,306,80140,2,0,P|263:325|314:306,1,89.65,10|2,2:0|2:0,2:0:0:0:
375,254,80465,5,0,1:2:0:0:
481,203,80627,1,0,2:0:0:0:
401,173,80789,1,0,2:0:0:0:
401,173,80870,1,2,2:0:0:0:
401,173,80951,1,2,2:0:0:0:
487,34,81113,5,2,1:2:0:0:
468,119,81275,1,2,1:2:0:0:
487,34,81438,1,8,2:0:0:0:
465,22,81519,1,8,2:0:0:0:
440,18,81600,1,8,2:0:0:0:
416,24,81681,1,0,2:0:0:0:
396,38,81762,6,0,P|365:84|309:75,1,89.65,0|2,1:2|2:0,2:0:0:0:
318,83,82005,1,2,2:0:0:0:
318,83,82086,1,8,2:0:0:0:
140,103,82248,1,0,2:0:0:0:
140,103,82329,1,0,2:0:0:0:
140,103,82411,2,0,P|166:71|219:77,1,89.65,2|0,2:0|1:0,2:0:0:0:
271,175,82735,5,2,1:2:0:0:
241,253,82897,1,8,2:0:0:0:
207,331,83059,1,10,2:0:0:0:
337,239,83221,5,0,1:0:0:0:
241,253,83384,1,0,1:0:0:0:
147,266,83546,1,8,2:0:0:0:
41,42,83870,5,2,1:2:0:0:
48,46,83951,1,2,2:0:0:0:
55,52,84032,2,0,L|68:115,1,44.825,2|2,2:0|2:0,2:0:0:0:
88,169,84194,1,2,2:0:0:0:
231,68,84357,5,2,1:2:0:0:
154,15,84519,1,2,2:0:0:0:
154,15,84600,1,2,2:0:0:0:
154,15,84681,2,0,L|141:108,1,89.65,10|0,2:0|1:2,2:0:0:0:
239,213,85005,2,0,P|289:207|332:140,1,134.475,2|0,2:0|2:0,2:0:0:0:
334,129,85329,2,0,P|351:102|416:96,1,89.65,10|2,2:0|2:0,2:0:0:0:
499,262,85654,5,2,1:2:0:0:
423,217,85816,1,2,2:0:0:0:
423,217,85897,1,2,2:0:0:0:
423,217,85978,2,0,P|410:260|428:315,1,89.65,10|0,2:0|1:2,2:0:0:0:
228,359,86302,2,0,L|287:363,1,44.825,2|0,2:0|2:0,2:0:0:0:
353,348,86465,1,2,2:0:0:0:
289,182,86627,1,10,2:0:0:0:
274,201,86708,1,8,2:0:0:0:
267,224,86789,1,10,2:0:0:0:
265,248,86870,1,0,2:0:0:0:
272,271,86951,6,0,P|316:262|347:218,1,89.65,2|2,1:2|2:0,2:0:0:0:
352,214,87194,1,2,2:0:0:0:
352,214,87275,1,10,2:0:0:0:
249,106,87438,1,0,1:2:0:0:
249,106,87519,1,0,2:0:0:0:
249,106,87600,2,0,P|226:66|238:23,1,89.65,2|0,2:0|1:2,2:0:0:0:
249,17,87843,1,0,1:0:0:0:
249,17,87924,5,2,2:0:0:0:
363,125,88086,1,2,2:0:0:0:
363,125,88167,1,0,2:0:0:0:
363,125,88248,2,0,P|357:168|351:219,1,89.65,10|2,1:2|2:0,2:0:0:0:
160,129,88573,1,0,2:0:0:0:
354,34,88735,2,0,P|392:13|439:23,1,89.65,2|10,1:2|2:0,2:0:0:0:
440,207,89059,1,0,1:2:0:0:
363,125,89221,2,0,P|409:117|466:103,1,89.65,10|10,2:0|2:0,2:0:0:0:
396,311,89546,5,2,1:2:0:0:
396,311,89708,1,2,2:0:0:0:
222,229,89870,6,0,L|213:151,1,65.2,2|0,2:0|2:0,2:0:0:0:
114,280,90194,6,0,L|105:358,1,65.2,2|0,2:0|2:0,2:0:0:0:
222,229,90519,6,0,L|213:151,1,65.2,2|0,2:0|2:0,2:0:0:0:
116,104,90843,5,10,2:0:0:0:
116,104,90924,1,0,2:0:0:0:
195,41,91086,1,8,2:0:0:0:
195,41,91167,1,10,2:0:0:0:
289,118,91329,1,8,2:0:0:0:
289,118,91411,1,2,2:0:0:0:
289,118,91492,1,0,2:0:0:0:
370,46,91654,1,2,2:0:0:0:
460,120,91816,6,0,L|453:174,1,32.6,2|0,2:0|2:0,2:0:0:0:
400,211,91978,2,0,L|393:265,1,32.6,2|0,2:0|2:0,2:0:0:0:
441,320,92140,6,0,P|410:288|318:293,1,122.25,6|0,1:2|2:0,2:0:0:0:
316,296,92465,2,0,L|304:343,2,40.75,2|0|2,2:0|2:0|2:0,2:0:0:0:
242,183,92789,2,0,P|201:183|170:208,1,81.5,10|0,2:0|2:0,2:0:0:0:
325,157,93113,6,0,L|340:31,1,122.25,6|0,1:2|2:0,2:0:0:0:
341,22,93438,1,0,2:0:0:0:
210,75,93600,1,0,2:0:0:0:
210,75,93681,1,0,2:0:0:0:
210,75,93762,2,0,P|162:63|141:30,1,81.5,2|2,1:2|2:0,2:0:0:0:
0,155,94086,2,0,P|37:129|122:135,1,122.25,10|0,2:0|2:0,2:0:0:0:
125,137,94411,2,0,L|113:229,1,81.5,2|0,2:0|2:0,2:0:0:0:
181,348,94735,5,6,1:2:0:0:
197,329,94816,1,0,2:0:0:0:
219,320,94897,1,0,2:0:0:0:
243,318,94978,1,0,2:0:0:0:
265,327,95059,2,0,P|310:358|351:344,1,81.5,2|2,2:0|2:0,2:0:0:0:
477,249,95384,2,0,P|437:249|408:276,1,81.5,10|0,2:0|2:0,2:0:0:0:
275,205,95708,6,0,B|240:165|276:125|286:139|320:90|283:49,1,163,6|0,1:2|2:0,2:0:0:0:
209,27,96194,1,0,2:0:0:0:
348,173,96357,2,0,P|391:161|409:129,1,81.5,2|2,1:2|2:0,2:0:0:0:
187,108,96681,2,0,L|181:243,1,122.25,10|0,2:0|2:0,2:0:0:0:
170,242,97005,2,0,L|167:328,1,81.5,2|0,2:0|2:0,2:0:0:0:
323,361,97329,6,0,P|342:322|291:266,1,122.25,6|0,1:2|2:0,2:0:0:0:
277,262,97654,2,0,L|271:216,2,40.75,2|0|2,2:0|2:0|2:0,2:0:0:0:
396,187,97978,2,0,P|441:182|476:209,1,81.5,8|0,2:0|2:0,2:0:0:0:
303,110,98302,6,0,P|262:143|188:137,1,122.25,6|0,1:2|2:0,2:0:0:0:
179,132,98627,1,0,2:0:0:0:
41,50,98789,1,0,2:0:0:0:
41,50,98870,1,0,2:0:0:0:
41,50,98951,2,0,P|67:82|62:130,1,81.5,2|2,1:2|2:0,2:0:0:0:
0,311,99275,2,0,P|0:271|67:230,1,122.25,10|0,2:0|2:0,2:0:0:0:
80,232,99600,2,0,L|167:245,1,81.5,2|0,2:0|2:0,2:0:0:0:
270,338,99924,5,6,1:2:0:0:
286,320,100005,1,0,2:0:0:0:
308,310,100086,1,0,2:0:0:0:
332,307,100167,1,0,2:0:0:0:
356,308,100248,2,0,P|406:328|431:367,1,81.5,2|2,2:0|2:0,2:0:0:0:
512,359,100573,1,10,2:0:0:0:
495,202,100735,1,0,2:0:0:0:
495,202,100816,1,0,2:0:0:0:
495,202,100897,6,0,P|447:188|335:218,1,163,4|0,1:2|2:0,2:0:0:0:
268,93,101384,1,0,2:0:0:0:
268,93,101465,1,0,2:0:0:0:
268,93,101546,2,0,P|314:88|350:126,1,81.5,2|2,1:2|2:0,2:0:0:0:
199,249,101870,2,0,P|193:195|185:147,1,81.5,10|0,2:0|2:0,2:0:0:0:
76,61,102194,1,2,2:0:0:0:
54,72,102275,1,2,2:0:0:0:
40,92,102357,1,2,2:0:0:0:
37,116,102438,1,2,2:0:0:0:
41,139,102519,5,6,1:2:0:0:
97,340,102843,1,2,2:0:0:0:
97,340,103005,1,2,2:0:0:0:
185,367,103167,2,0,P|219:342|315:337,1,122.25,10|0,2:0|2:0,2:0:0:0:
313,334,103492,6,0,P|359:353|453:324,1,122.25,6|0,1:2|2:0,2:0:0:0:
446,335,103816,1,0,2:0:0:0:
392,187,103978,1,0,2:0:0:0:
392,187,104059,1,0,2:0:0:0:
392,187,104140,2,0,P|374:225|376:270,1,81.5,2|2,1:2|2:0,2:0:0:0:
512,160,104465,2,0,L|508:79,1,81.5,10|0,2:0|1:0,2:0:0:0:
401,18,104789,2,0,P|346:4|310:31,1,81.5,2|0,2:0|2:0,2:0:0:0:
227,77,105113,5,2,1:2:0:0:
227,77,105194,1,0,2:0:0:0:
227,77,105275,2,0,L|234:130,1,40.75,2|0,2:0|2:0,2:0:0:0:
156,208,105438,1,2,2:0:0:0:
156,208,105519,1,0,2:0:0:0:
156,208,105600,2,0,L|149:261,1,40.75,2|0,2:0|2:0,2:0:0:0:
224,327,105762,1,10,2:0:0:0:
324,268,105924,1,2,2:0:0:0:
324,268,106005,1,2,2:0:0:0:
324,268,106086,6,0,P|371:253|450:295,1,122.25,6|0,1:2|2:0,2:0:0:0:
448,293,106411,2,0,L|439:338,2,40.75,0|0|0,2:0|2:0|2:0,2:0:0:0:
496,194,106735,1,2,1:2:0:0:
496,194,106816,1,0,1:0:0:0:
496,194,106897,1,2,2:0:0:0:
414,99,107059,2,0,P|373:90|335:112,1,81.5,10|0,2:0|2:0,2:0:0:0:
212,33,107384,2,0,P|222:78|232:170,1,122.25,2|0,2:0|2:0,2:0:0:0:
232,172,107708,5,6,1:2:0:0:
21,58,108032,1,2,2:0:0:0:
21,58,108194,1,2,2:0:0:0:
116,20,108357,2,0,P|109:63|105:156,1,122.25,8|0,2:0|2:0,2:0:0:0:
91,155,108681,6,0,P|91:203|87:296,1,122.25,6|0,1:2|2:0,2:0:0:0:
83,295,109005,1,0,2:0:0:0:
183,372,109167,1,0,2:0:0:0:
183,372,109248,1,0,2:0:0:0:
183,372,109329,2,0,P|221:349|262:357,1,81.5,2|2,1:2|2:0,2:0:0:0:
417,318,109654,2,0,P|377:321|320:266,1,122.25,10|0,2:0|2:0,2:0:0:0:
318,253,109978,1,2,2:0:0:0:
413,153,110140,1,0,2:0:0:0:
413,153,110221,1,0,2:0:0:0:
413,153,110302,6,0,P|403:201|398:243,1,81.5,6|0,1:2|2:0,2:0:0:0:
268,90,110627,2,0,P|262:49|253:9,1,81.5,2|2,2:0|2:0,2:0:0:0:
140,153,110951,2,0,P|129:198|113:293,1,122.25,10|0,2:0|2:0,2:0:0:0:
103,283,111275,6,0,P|70:319|16:323,1,81.5,4|0,1:2|2:0,2:0:0:0:
202,262,111600,2,0,P|195:307|164:348,1,81.5,2|0,2:0|2:0,2:0:0:0:
271,194,111924,2,0,P|303:231|314:284,1,81.5,2|2,1:2|2:0,2:0:0:0:
140,153,112248,6,0,P|126:111|145:77,1,81.5,10|0,2:0|2:0,2:0:0:0:
312,15,112573,2,0,L|302:104,1,81.5,2|0,2:0|2:0,2:0:0:0:
256,192,112897,12,0,114032,2:0:0:0:
254,342,114194,5,2,1:2:0:0:
