osu file format v14

[General]
AudioFilename: Meteor Impact.mp3
AudioLeadIn: 0
PreviewTime: 55714
Countdown: 0
SampleSet: Soft
StackLeniency: 0.7
Mode: 0
LetterboxInBreaks: 0
WidescreenStoryboard: 0

[Editor]
DistanceSpacing: 1
BeatDivisor: 4
GridSize: 8
TimelineZoom: 1

[Metadata]
Title:Meteor*Impact
TitleUnicode:めてお☆いんぱくと
Artist:MERURU (Tamura Yukari)
ArtistUnicode:メルル(田村ゆかり)
Creator:Doyak
Version:Normal
Source:俺の妹がこんなに可愛いわけがない
Tags:Oreimo Ore no Imouto ga Konna ni Kawaii Wake Nai My Little Sister Can't Be This Cute ED ending Stardust Witch Kurusu Kanako
BeatmapID:797760
BeatmapSetID:362996

[Difficulty]
HPDrainRate:4
CircleSize:3.5
OverallDifficulty:4
ApproachRate:4.5
SliderMultiplier:1.1
SliderTickRate:1

[Events]
//Background and Video events
0,0,"endcard.jpg",0,0
//Break Periods
//Storyboard Layer 0 (Background)
//Storyboard Layer 1 (Fail)
//Storyboard Layer 2 (Pass)
//Storyboard Layer 3 (Foreground)
//Storyboard Sound Samples

[TimingPoints]
5364,350.877192982456,4,2,1,50,1,0
10627,-100,4,2,1,70,0,0
11504,-100,4,2,2,70,0,0
14135,-100,4,2,1,70,0,0
14311,-100,4,2,2,70,0,0
15539,-100,4,2,1,70,0,0
22206,-100,4,2,1,60,0,0
32732,-100,4,2,1,70,0,0
33434,-100,4,2,1,60,0,0
47469,-100,4,2,2,50,0,0
53083,-100,4,2,1,50,0,0
53609,-100,4,2,1,55,0,0
54135,-100,4,2,1,60,0,0
54662,-100,4,2,1,65,0,0
55890,-100,4,2,1,80,0,1
61679,-100,4,2,2,80,0,1
62206,-100,4,2,1,80,0,1
63609,-100,4,2,2,80,0,1
64311,-100,4,2,1,80,0,1
72732,-100,4,2,1,65,0,0
75539,-100,4,2,1,80,0,1
77469,-100,4,2,2,80,0,1
78346,-100,4,2,1,80,0,1
81153,-100,4,2,2,80,0,1
82206,-100,4,2,1,70,0,0
82556,-100,4,2,1,50,0,0
87820,-100,4,2,1,70,0,0
88697,-100,4,2,2,70,0,0
90627,-100,4,2,1,70,0,0

[Colours]
Combo1 : 21,223,72
Combo2 : 255,81,255
Combo3 : 234,228,21
Combo4 : 21,194,232

[HitObjects]
364,186,5363,5,0,0:0:0:0:
312,167,5539,2,0,P|264:172|203:205,1,110,2|0,0:0|0:0,0:0:0:0:
169,237,6065,2,0,L|177:297,2,55,2|0|2,0:0|0:0|0:0,0:0:0:0:
120,137,6767,2,0,L|112:77,2,55,2|0|2,0:0|0:0|0:0,0:0:0:0:
59,229,7469,2,0,L|-1:237,2,55,2|0|2,0:0|0:0|0:0,0:0:0:0:
169,237,8171,5,0,0:0:0:0:
203,279,8346,2,0,P|254:306|312:296,1,110,2|0,0:0|0:0,0:0:0:0:
358,311,8872,2,0,L|373:369,2,55,2|0|2,0:0|0:0|0:0,0:0:0:0:
364,200,9574,2,0,L|349:142,2,55,2|0|2,0:0|0:0|0:0,0:0:0:0:
456,260,10276,2,0,L|514:245,2,55,2|0|10,0:0|0:0|0:0,0:0:0:0:
358,311,10978,6,0,P|303:294|266:250,1,110,4|8,0:0|0:0,0:0:0:0:
215,268,11504,2,0,L|224:155,1,110,2|0,0:0|0:0,0:0:0:0:
289,69,12206,2,0,P|331:103|398:116,1,110,2|0,0:0|0:0,0:0:0:0:
487,77,12907,2,0,L|473:188,1,110,2|0,0:0|0:0,0:0:0:0:
446,234,13434,2,0,P|416:247|391:252,2,55,8|0|2,0:0|0:0|0:0,0:0:0:0:
388,140,14135,5,8,0:0:0:0:
388,140,14311,2,0,P|333:147|291:192,1,110,2|0,0:0|0:0,0:0:0:0:
246,282,15013,2,0,L|135:269,1,110,2|0,0:0|0:0,0:0:0:0:
101,227,15539,2,0,L|37:220,2,55,8|0|0,0:0|0:0|0:0,0:0:0:0:
147,126,16241,1,8,0:0:0:0:
227,51,16592,6,0,P|254:102|250:160,1,110,4|8,0:0|0:0,0:0:0:0:
178,236,17293,2,0,P|227:262|287:259,1,110,0|8,0:0|0:0,0:0:0:0:
384,299,17995,2,0,L|394:187,1,110,0|8,0:0|0:0,0:0:0:0:
441,162,18521,2,0,P|384:143|350:108,1,110
349,52,19048,1,8,0:0:0:0:
245,88,19399,6,0,L|182:90,1,55,4|0,0:0|0:0,0:0:0:0:
196,199,19925,2,0,L|133:201,1,55,4|0,0:0|0:0,0:0:0:0:
147,310,20451,2,0,L|84:312,1,55,4|0,0:0|0:0,0:0:0:0:
47,210,20978,2,0,P|41:179|42:146,2,55,4|0|0,0:0|0:0|0:0,0:0:0:0:
96,235,21504,2,0,P|156:227|204:188,1,110,4|8,0:0|0:0,0:0:0:0:
273,120,22206,6,0,L|306:234,1,110,4|8,0:0|0:0,0:0:0:0:
337,269,22732,1,0,0:0:0:0:
386,293,22907,2,0,P|452:277|489:246,1,110,0|8,0:0|0:0,0:0:0:0:
458,144,23609,2,0,L|472:84,2,55,0|0|8,0:0|0:0|0:0,0:0:0:0:
407,165,24135,2,0,P|325:145|274:202,1,165,0|8,0:0|0:0,0:0:0:0:
220,294,25013,6,0,P|162:273|120:235,2,110,0|8|0,0:0|0:0|0:0,0:0:0:0:
256,335,25890,2,0,L|277:221,1,110
311,184,26416,2,0,P|374:175|414:147,1,110,0|8,0:0|0:0,0:0:0:0:
362,50,27118,1,0,0:0:0:0:
253,68,27469,2,0,L|243:2,2,55,8|0|0,0:0|0:0|0:0,0:0:0:0:
220,173,28171,5,8,0:0:0:0:
117,133,28521,2,0,P|59:153|29:189,1,110,0|8,0:0|0:0,0:0:0:0:
89,281,29223,2,0,P|142:305|209:312,1,110,0|8,0:0|0:0,0:0:0:0:
228,354,29749,2,0,L|251:189,1,165,0|8,0:0|0:0,0:0:0:0:
315,101,30627,6,0,P|380:118|430:109,1,110,0|8,0:0|0:0,0:0:0:0:
458,215,31328,2,0,L|513:202,2,55,0|0|8,0:0|0:0|0:0,0:0:0:0:
430,263,31855,2,0,P|374:325|295:310,1,165,0|8,0:0|0:0,0:0:0:0:
245,218,32732,5,12,0:0:0:0:
190,313,33083,1,12,0:0:0:0:
300,313,33434,6,0,P|347:263|354:218,1,110,4|8,0:0|0:0,0:0:0:0:
394,185,33960,2,0,L|452:199,2,55
378,131,34486,1,8,0:0:0:0:
268,145,34837,2,0,P|206:137|167:102,1,110,0|8,0:0|0:0,0:0:0:0:
132,68,35363,2,0,L|129:238,1,165,0|8,0:0|0:0,0:0:0:0:
225,288,36241,6,0,P|286:303|322:343,2,110,0|8|0,0:0|0:0|0:0,0:0:0:0:
181,321,37118,1,0,0:0:0:0:
102,243,37469,2,0,P|80:201|81:129,2,110,4|4|4,0:0|0:0|0:0,0:0:0:0:
250,169,38697,2,0,L|272:108,2,55,8|0|4,0:0|0:0|0:0,0:0:0:0:
325,249,39399,5,8,0:0:0:0:
397,166,39749,2,0,P|431:222|429:283,1,110,0|8,0:0|0:0,0:0:0:0:
344,331,40451,2,0,P|280:343|226:330,1,110,4|8,0:0|0:0,0:0:0:0:
190,364,40978,2,0,L|203:199,1,165,4|8,0:0|0:0,0:0:0:0:
166,95,41855,6,0,P|119:128|95:177,1,110,4|8,0:0|0:0,0:0:0:0:
43,190,42381,2,0,L|52:299,1,110
80,346,42907,1,8,0:0:0:0:
184,312,43258,2,0,L|179:374,2,55,4|0|8,0:0|0:0|0:0,0:0:0:0:
214,265,43785,1,0,0:0:0:0:
259,234,43960,2,0,P|323:226|377:251,1,110,0|8,0:0|0:0,0:0:0:0:
452,308,44662,6,0,L|466:196,1,110,4|8,0:0|0:0,0:0:0:0:
502,158,45188,2,0,P|443:137|408:103,1,110
390,52,45714,1,8,0:0:0:0:
326,141,46065,2,0,P|266:161|219:151,1,110,0|8,0:0|0:0,0:0:0:0:
145,72,46767,2,0,L|160:15,2,55,0|8|8,0:0|0:0|0:0,0:0:0:0:
114,177,47469,5,4,0:0:0:0:
275,326,48171,2,0,P|307:249|386:227,1,165,2|0,0:0|0:0,0:0:0:0:
415,268,48872,2,0,L|435:104,1,165
479,72,49574,2,0,P|418:56|374:23,1,110,2|8,0:0|0:0,0:0:0:0:
318,120,50276,5,0,0:0:0:0:
237,326,50978,2,0,P|205:249|126:227,1,165,2|0,0:0|0:0,0:0:0:0:
97,268,51679,2,0,L|77:104,1,165
33,72,52381,2,0,P|94:56|138:23,1,110,2|8,0:0|0:0,0:0:0:0:
237,61,53083,6,0,P|314:84|392:60,1,165,12|12,0:0|0:0,0:0:0:0:
471,205,54135,2,0,P|393:180|315:204,1,165,12|12,0:0|0:0,0:0:0:0:
164,137,55188,1,12,0:0:0:0:
121,238,55539,1,12,0:0:0:0:
230,275,55890,6,0,L|340:309,1,110,4|8,0:0|0:0,0:0:0:0:
412,229,56592,2,0,L|306:196,1,110,0|8,0:0|0:0,0:0:0:0:
237,110,57293,2,0,P|179:140|129:135,1,110,0|8,0:0|0:0,0:0:0:0:
94,99,57820,2,0,L|86:214,1,110
82,263,58346,2,0,L|21:258,2,55,8|0|0,0:0|0:0|0:0,0:0:0:0:
170,328,59048,5,8,0:0:0:0:
262,268,59399,2,0,P|272:240|293:216,1,55
334,191,59749,2,0,P|363:185|394:191,2,55,8|0|0,0:0|0:0|0:0,0:0:0:0:
367,296,60451,1,8,0:0:0:0:
475,278,60802,2,0,L|471:338,2,55,0|0|8,0:0|0:0|0:0,0:0:0:0:
480,167,61504,5,4,0:0:0:0:
480,167,61679,2,0,P|417:147|384:107,1,110,2|2,0:0|0:0,0:0:0:0:
383,60,62206,2,0,L|273:70,1,110,0|8,0:0|0:0,0:0:0:0:
177,123,62907,2,0,P|164:64|180:10,1,110,0|8,0:0|0:0,0:0:0:0:
273,70,63609,1,2,0:0:0:0:
325,286,64311,6,0,P|264:289|214:324,1,110,4|8,0:0|0:0,0:0:0:0:
114,295,65013,2,0,L|104:356,2,55,0|0|8,0:0|0:0|0:0,0:0:0:0:
150,253,65539,2,0,P|168:203|158:143,1,110,4|0,0:0|0:0,0:0:0:0:
128,102,66065,1,8,0:0:0:0:
61,190,66416,1,12,0:0:0:0:
81,298,66767,1,12,0:0:0:0:
176,352,67118,6,0,P|240:340|283:303,1,110,4|8,0:0|0:0,0:0:0:0:
264,203,67820,2,0,P|327:216|370:253,1,110,0|8,0:0|0:0,0:0:0:0:
461,292,68521,2,0,L|469:181,1,110,0|8,0:0|0:0,0:0:0:0:
501,137,69048,2,0,P|437:125|394:88,1,110
376,49,69574,1,8,0:0:0:0:
304,132,69925,6,0,P|255:122|200:89,2,110,4|8|4,0:0|0:0|0:0,0:0:0:0:
343,171,70802,1,0,0:0:0:0:
327,279,71153,2,0,P|285:319|231:329,1,110,4|0,0:0|0:0,0:0:0:0:
187,303,71679,1,8,0:0:0:0:
159,197,72030,1,12,0:0:0:0:
83,276,72381,1,12,0:0:0:0:
53,169,72732,6,0,P|97:106|186:90,1,165,4|0,0:0|0:0,0:0:0:0:
212,44,73434,2,0,L|240:161,1,110,0|8,0:0|0:0,0:0:0:0:
293,245,74135,2,0,P|337:231|399:256,1,110
424,299,74662,2,0,L|442:184,1,110
450,135,75188,1,8,0:0:0:0:
366,63,75539,6,0,P|312:83|256:77,1,110,12|8,0:0|0:0,0:0:0:0:
188,161,76241,2,0,P|242:156|293:176,1,110,8|8,0:0|0:0,0:0:0:0:
391,225,76942,2,0,L|362:344,1,110,12|8,0:0|0:0,0:0:0:0:
314,355,77469,2,0,P|258:338|203:352,2,110,2|2|2,0:0|0:0|0:0,0:0:0:0:
364,331,78346,2,0,P|420:348|475:334,1,110,12|8,0:0|0:0,0:0:0:0:
489,228,79048,2,0,L|499:159,2,55,8|0|8,0:0|0:0|0:0,0:0:0:0:
379,241,79749,6,0,L|396:129,1,110,4|8,0:0|0:0,0:0:0:0:
336,38,80451,1,0,0:0:0:0:
233,77,80802,1,8,0:0:0:0:
187,177,81153,2,0,P|161:163|143:136,2,55,2|2|2,0:0|0:0|0:0,0:0:0:0:
242,177,81679,1,2,0:0:0:0:
296,167,81855,2,0,L|288:276,1,110,0|8,0:0|0:0,0:0:0:0:
205,349,82556,5,4,0:0:0:0:
169,306,82732,2,0,P|128:280|65:282,1,110,2|0,0:0|0:0,0:0:0:0:
43,231,83258,2,0,L|36:162,2,55,2|0|2,0:0|0:0|0:0,0:0:0:0:
132,166,83960,2,0,L|125:97,2,55,2|0|2,0:0|0:0|0:0,0:0:0:0:
221,101,84662,2,0,L|214:32,2,55,2|0|2,0:0|0:0|0:0,0:0:0:0:
307,35,85363,5,0,0:0:0:0:
343,78,85539,2,0,P|384:104|447:102,1,110,2|0,0:0|0:0,0:0:0:0:
469,153,86065,2,0,L|476:222,2,55,2|0|2,0:0|0:0|0:0,0:0:0:0:
380,218,86767,2,0,L|387:287,2,55,2|0|2,0:0|0:0|0:0,0:0:0:0:
291,283,87469,2,0,L|298:352,2,55,2|0|10,0:0|0:0|0:0,0:0:0:0:
280,173,88171,6,0,P|228:192|193:232,1,110,4|8,0:0|0:0,0:0:0:0:
167,281,88697,2,0,P|151:229|118:180,1,110,2|0,0:0|0:0,0:0:0:0:
34,113,89399,2,0,L|138:76,1,110,2|0,0:0|0:0,0:0:0:0:
232,20,90100,2,0,P|248:72|281:121,1,110,2|0,0:0|0:0,0:0:0:0:
323,150,90627,2,0,L|381:126,2,55,8|0|12,0:0|0:0|0:0,0:0:0:0:
323,260,91328,6,0,L|265:236,1,55,0|12,0:0|0:0,0:0:0:0:
171,194,91855,1,12,0:0:0:0:
256,192,92206,12,0,93434,0:0:0:0:
