osu file format v14

[General]
AudioFilename: Meteor Impact.mp3
AudioLeadIn: 0
PreviewTime: 55714
Countdown: 0
SampleSet: Soft
StackLeniency: 0.7
Mode: 0
LetterboxInBreaks: 0
WidescreenStoryboard: 0

[Editor]
DistanceSpacing: 1.4
BeatDivisor: 4
GridSize: 8
TimelineZoom: 1

[Metadata]
Title:Meteor*Impact
TitleUnicode:めてお☆いんぱくと
Artist:MERURU (Tamura Yukari)
ArtistUnicode:メルル(田村ゆかり)
Creator:Doyak
Version:Light Insane
Source:俺の妹がこんなに可愛いわけがない
Tags:Oreimo Ore no Imouto ga Konna ni Kawaii Wake Nai My Little Sister Can't Be This Cute ED ending Stardust Witch Kurusu Kanako
BeatmapID:797733
BeatmapSetID:362996

[Difficulty]
HPDrainRate:6
CircleSize:4
OverallDifficulty:7
ApproachRate:7.8
SliderMultiplier:1.45
SliderTickRate:1

[Events]
//Background and Video events
0,0,"endcard.jpg",0,0
//Break Periods
//Storyboard Layer 0 (Background)
//Storyboard Layer 1 (Fail)
//Storyboard Layer 2 (Pass)
//Storyboard Layer 3 (Foreground)
//Storyboard Sound Samples

[TimingPoints]
5364,350.877192982456,4,2,1,50,1,0
10627,-100,4,2,1,70,0,0
22206,-100,4,2,1,60,0,0
32732,-100,4,2,1,70,0,0
33434,-100,4,2,1,60,0,0
44135,-100,4,2,2,60,0,0
44662,-100,4,2,1,60,0,0
47469,-111.111111111111,4,2,1,50,0,0
53609,-103.092783505155,4,2,1,55,0,0
54135,-96.1538461538461,4,2,1,60,0,0
54662,-90.9090909090909,4,2,1,65,0,0
55890,-90.9090909090909,4,2,1,80,0,1
61679,-90.9090909090909,4,2,2,80,0,1
62206,-90.9090909090909,4,2,1,80,0,1
72732,-111.111111111111,4,2,1,65,0,0
75539,-90.9090909090909,4,2,1,80,0,1
77469,-90.9090909090909,4,2,2,80,0,1
78346,-90.9090909090909,4,2,1,80,0,1
81153,-90.9090909090909,4,2,2,80,0,1
82206,-100,4,2,1,80,0,0
82556,-100,4,2,1,50,0,0
87820,-100,4,2,1,70,0,0

[Colours]
Combo1 : 21,223,72
Combo2 : 255,81,255
Combo3 : 234,228,21
Combo4 : 21,194,232

[HitObjects]
140,274,5363,5,0,0:0:0:0:
94,183,5539,2,0,P|171:177|232:234,1,145,2|0,0:0|0:0,0:0:0:0:
290,356,6065,1,2,0:0:0:0:
290,356,6241,1,0,0:0:0:0:
378,307,6416,1,2,0:0:0:0:
378,307,6592,1,0,0:0:0:0:
429,219,6767,6,0,P|435:173|424:136,1,72.5,2|0,0:0|0:0,0:0:0:0:
336,106,7118,2,0,P|330:152|341:189,1,72.5,2|0,0:0|0:0,0:0:0:0:
412,42,7469,2,0,P|384:18|350:6,2,72.5,2|0|2,0:0|0:0|0:0,0:0:0:0:
173,79,8171,5,0,0:0:0:0:
90,137,8346,2,0,P|147:177|218:170,1,145,2|0,0:0|0:0,0:0:0:0:
349,112,8872,1,2,0:0:0:0:
349,112,9048,1,0,0:0:0:0:
329,211,9223,1,2,0:0:0:0:
329,211,9399,1,0,0:0:0:0:
233,243,9574,6,0,P|187:237|150:248,1,72.5,2|0,0:0|0:0,0:0:0:0:
120,336,9925,2,0,P|166:342|203:331,1,72.5,2|0,0:0|0:0,0:0:0:0:
289,311,10276,2,0,P|324:304|360:311,1,72.5,2|0,0:0|0:0,0:0:0:0:
428,178,10627,1,10,0:0:0:0:
234,117,10978,6,0,P|165:155|100:131,1,145,4|8,0:0|0:0,0:0:0:0:
157,48,11504,2,0,L|183:206,1,145
247,268,12030,1,8,0:0:0:0:
373,203,12206,6,0,P|443:213|497:259,1,145
385,352,12732,1,8,0:0:0:0:
385,352,12907,2,0,P|314:341|260:295,1,145
220,201,13434,2,0,P|184:226|163:263,1,72.5,8|0,0:0|0:0,0:0:0:0:
32,316,13785,6,0,L|39:169,1,145,0|8,0:0|0:0,0:0:0:0:
99,89,14311,2,0,P|170:108|225:55,1,145
312,20,14837,1,8,0:0:0:0:
487,50,15013,6,0,P|512:119|491:189,1,145
432,267,15539,2,0,L|350:261,1,72.5,8|0,0:0|0:0,0:0:0:0:
295,183,15890,2,0,P|267:219|256:257,1,72.5
227,341,16241,1,8,0:0:0:0:
138,194,16416,1,0,0:0:0:0:
138,194,16504,1,0,0:0:0:0:
138,194,16592,6,0,P|154:151|181:122,1,72.5,4|0,0:0|0:0,0:0:0:0:
255,74,16942,2,0,P|300:67|339:76,1,72.5,8|0,0:0|0:0,0:0:0:0:
395,146,17293,2,0,L|476:160,2,72.5,0|0|8,0:0|0:0|0:0,0:0:0:0:
331,226,17820,1,0,0:0:0:0:
197,290,17995,6,0,P|182:246|182:208,1,72.5
294,136,18346,1,8,0:0:0:0:
294,136,18521,2,0,P|357:183|426:177,1,145
470,268,19048,2,0,P|466:303|453:337,1,72.5,8|0,0:0|0:0,0:0:0:0:
357,370,19399,5,4,0:0:0:0:
331,226,19574,1,0,0:0:0:0:
121,332,19925,5,4,0:0:0:0:
265,306,20100,1,0,0:0:0:0:
438,162,20451,5,4,0:0:0:0:
294,136,20626,1,0,0:0:0:0:
58,253,20978,6,0,P|43:206|46:178,2,72.5,4|0|0,0:0|0:0|0:0,0:0:0:0:
121,332,21504,1,4,0:0:0:0:
218,303,21679,2,0,L|225:341,2,36.25,0|0|8,0:0|0:0|0:0,0:0:0:0:
218,303,22206,6,0,P|277:255|350:251,1,145,4|8,0:0|0:0,0:0:0:0:
427,306,22732,1,0,0:0:0:0:
484,222,22907,2,0,P|491:171|486:143,1,72.5
425,69,23258,1,8,0:0:0:0:
329,103,23434,1,0,0:0:0:0:
263,180,23609,6,0,P|240:148|230:107,2,72.5,0|0|8,0:0|0:0|0:0,0:0:0:0:
377,228,24135,2,0,P|302:256|270:320,1,145
372,332,24662,1,8,0:0:0:0:
114,239,25013,6,0,L|136:94,2,145,0|8|0,0:0|0:0|0:0,0:0:0:0:
84,336,25890,2,0,P|125:340|170:322,1,72.5,0|8,0:0|0:0,0:0:0:0:
236,270,26241,1,0,0:0:0:0:
377,212,26416,6,0,P|420:201|461:205,1,72.5
487,296,26767,2,0,P|444:307|403:303,1,72.5,8|0,0:0|0:0,0:0:0:0:
315,292,27118,1,0,0:0:0:0:
315,292,27206,1,0,0:0:0:0:
315,292,27293,2,0,P|286:259|277:223,1,72.5,0|8,0:0|0:0,0:0:0:0:
317,83,27644,1,0,0:0:0:0:
234,142,27820,6,0,P|156:143|112:88,1,145,0|8,0:0|0:0,0:0:0:0:
30,38,28346,1,0,0:0:0:0:
24,139,28521,1,0,0:0:0:0:
286,65,28872,1,8,0:0:0:0:
419,293,29223,6,0,P|341:297|288:344,1,145,0|8,0:0|0:0,0:0:0:0:
226,267,29749,1,0,0:0:0:0:
144,328,29925,2,0,P|172:355|219:367,1,72.5
226,267,30276,2,0,P|198:240|151:228,1,72.5,8|0,0:0|0:0,0:0:0:0:
79,176,30627,6,0,P|68:92|92:32,2,145,0|8|0,0:0|0:0|0:0,0:0:0:0:
141,256,31504,2,0,P|176:262|211:254,1,72.5,0|8,0:0|0:0,0:0:0:0:
293,194,31855,1,0,0:0:0:0:
395,292,32030,6,0,L|407:215,1,72.5
497,175,32381,2,0,L|485:98,1,72.5,8|0,0:0|0:0,0:0:0:0:
437,13,32732,5,12,0:0:0:0:
191,88,33083,1,12,0:0:0:0:
191,88,33434,6,0,P|161:166|169:234,1,145,4|8,0:0|0:0,0:0:0:0:
228,306,33960,1,0,0:0:0:0:
316,257,34135,1,0,0:0:0:0:
414,281,34311,2,0,P|461:278|489:265,2,72.5,0|8|0,0:0|0:0|0:0,0:0:0:0:
327,335,34837,5,0,0:0:0:0:
274,247,35013,2,0,P|265:205|272:170,1,72.5,0|8,0:0|0:0,0:0:0:0:
350,114,35363,2,0,P|410:141|488:117,1,145
421,38,35890,1,8,0:0:0:0:
350,266,36241,6,0,P|408:308|490:294,2,145,0|8|0,0:0|0:0|0:0,0:0:0:0:
307,173,37118,2,0,P|274:197|252:237,1,72.5,0|8,0:0|0:0,0:0:0:0:
223,355,37469,5,4,0:0:0:0:
149,113,37820,1,4,0:0:0:0:
20,328,38171,2,0,P|92:344|159:306,1,145,4|0,0:0|0:0,0:0:0:0:
210,165,38697,1,8,0:0:0:0:
297,215,38872,1,0,0:0:0:0:
355,131,39048,6,0,P|407:122|489:169,1,145,4|8,0:0|0:0,0:0:0:0:
446,260,39574,1,0,0:0:0:0:
446,260,39749,2,0,P|379:311|315:314,1,145,0|8,0:0|0:0,0:0:0:0:
97,177,40451,6,0,P|180:188|227:231,1,145,4|8,0:0|0:0,0:0:0:0:
320,315,40978,2,0,P|309:231|338:174,1,145,4|0,0:0|0:0,0:0:0:0:
397,98,41504,1,8,0:0:0:0:
185,296,41855,6,0,L|41:285,1,145,4|8,0:0|0:0,0:0:0:0:
15,186,42381,1,0,0:0:0:0:
15,186,42556,2,0,P|22:146|37:109,2,72.5,0|0|8,0:0|0:0|0:0,0:0:0:0:
185,296,43258,5,4,0:0:0:0:
236,208,43434,2,0,P|271:188|305:183,1,72.5,0|8,0:0|0:0,0:0:0:0:
403,234,43785,1,0,0:0:0:0:
431,104,43960,1,0,0:0:0:0:
297,42,44135,2,0,P|283:107|302:184,1,145,2|2,0:0|0:0,0:0:0:0:
403,234,44662,6,0,P|331:251|283:307,1,145,4|8,0:0|0:0,0:0:0:0:
184,315,45188,1,0,0:0:0:0:
141,223,45363,2,0,P|135:177|145:144,1,72.5
236,116,45714,2,0,P|242:162|232:195,1,72.5,8|0,0:0|0:0,0:0:0:0:
320,305,46065,6,0,P|403:296|459:331,2,145,0|8|0,0:0|0:0|0:0,0:0:0:0:
230,353,46942,1,8,0:0:0:0:
183,262,47118,2,0,P|171:229|174:185,1,72.5,8|0,0:0|0:0,0:0:0:0:
288,121,47469,6,0,P|346:161|442:97,1,195.749994026184,4|0,0:0|0:0,0:0:0:0:
375,37,48171,2,0,P|308:12|253:32,1,130.499996017456,0|8,0:0|0:0,0:0:0:0:
200,104,48697,1,0,0:0:0:0:
200,104,48872,6,0,L|169:301,1,195.749994026184
247,345,49574,2,0,P|310:360|375:342,1,130.499996017456,0|8,0:0|0:0,0:0:0:0:
494,207,50276,6,0,P|404:154|313:170,1,195.749994026184
248,228,50978,2,0,L|222:97,1,130.499996017456,0|8,0:0|0:0,0:0:0:0:
149,155,51504,1,0,0:0:0:0:
149,155,51679,6,0,P|84:123|126:27,1,195.749994026184
206,65,52381,2,0,P|282:83|334:61,1,130.499996017456,0|8,0:0|0:0,0:0:0:0:
431,216,53083,6,0,L|448:286,2,65.2499980087281,12|0|0,0:0|0:0|0:0,0:0:0:0:
329,242,53609,2,0,L|347:313,2,70.3250016632653,12|0|0,0:0|0:0|0:0,0:0:0:0:
214,271,54135,2,0,L|232:345,2,75.3999995397949,12|0|0,0:0|0:0|0:0,0:0:0:0:
86,303,54662,2,0,L|104:381,2,79.7500024337769,12|0|0,0:0|0:0|0:0,0:0:0:0:
30,199,55188,5,12,0:0:0:0:
98,104,55363,2,0,L|88:64,2,39.8750012168885,0|0|12,0:0|0:0|0:0,0:0:0:0:
98,104,55890,6,0,P|174:135|255:129,1,159.500004867554,4|8,0:0|0:0,0:0:0:0:
333,55,56416,1,0,0:0:0:0:
437,96,56592,2,0,P|449:140|449:191,1,79.7500024337769
366,247,56942,2,0,P|354:203|354:152,1,79.7500024337769,8|0,0:0|0:0,0:0:0:0:
448,307,57293,6,0,P|375:347|295:319,1,159.500004867554,0|8,0:0|0:0,0:0:0:0:
253,189,57820,2,0,P|177:170|110:209,1,159.500004867554
60,309,58346,1,8,0:0:0:0:
161,354,58521,1,0,0:0:0:0:
317,289,58697,6,0,P|371:259|452:325,2,159.500004867554,0|8|0,0:0|0:0|0:0,0:0:0:0:
212,329,59574,2,0,P|204:290|210:250,1,79.7500024337769,0|8,0:0|0:0,0:0:0:0:
218,106,59925,6,0,P|242:181|208:251,1,159.500004867554
117,306,60451,2,0,L|100:217,1,79.7500024337769,8|0,0:0|0:0,0:0:0:0:
124,118,60802,2,0,P|74:108|44:88,2,79.7500024337769,0|0|8,0:0|0:0|0:0,0:0:0:0:
224,68,61328,1,0,0:0:0:0:
321,199,61504,5,4,0:0:0:0:
394,115,61679,2,0,P|432:199|409:265,1,159.500004867554,2|2,0:0|0:0,0:0:0:0:
317,319,62206,2,0,P|275:307|232:312,1,79.7500024337769
131,337,62556,2,0,P|128:297|140:259,1,79.7500024337769,8|0,0:0|0:0,0:0:0:0:
227,189,62907,6,0,P|257:121|251:37,1,159.500004867554,0|8,0:0|0:0,0:0:0:0:
391,90,63434,1,0,0:0:0:0:
391,90,63521,1,0,0:0:0:0:
391,90,63609,2,0,P|388:140|367:189,1,79.7500024337769
331,269,63960,1,8,0:0:0:0:
174,110,64311,6,0,P|125:96|90:101,1,79.7500024337769,4|0,0:0|0:0,0:0:0:0:
41,196,64662,2,0,P|90:210|125:205,1,79.7500024337769,8|0,0:0|0:0,0:0:0:0:
228,225,65013,2,0,P|248:267|254:316,1,79.7500024337769
336,374,65363,1,8,0:0:0:0:
436,271,65539,6,0,P|469:208|436:123,1,159.500004867554,4|0,0:0|0:0,0:0:0:0:
354,58,66065,1,8,0:0:0:0:
311,192,66241,1,0,0:0:0:0:
311,192,66328,1,0,0:0:0:0:
311,192,66416,1,12,0:0:0:0:
86,92,66767,1,12,0:0:0:0:
86,92,67118,6,0,P|49:166|65:245,1,159.500004867554,4|8,0:0|0:0,0:0:0:0:
141,317,67644,1,0,0:0:0:0:
241,269,67820,2,0,P|285:258|329:263,1,79.7500024337769
408,327,68171,2,0,P|429:274|425:236,1,79.7500024337769,8|0,0:0|0:0,0:0:0:0:
472,68,68521,6,0,P|424:140|354:134,1,159.500004867554,0|8,0:0|0:0,0:0:0:0:
299,40,69048,2,0,P|247:112|253:180,1,159.500004867554
310,274,69574,2,0,L|226:288,1,79.7500024337769,8|0,0:0|0:0,0:0:0:0:
108,234,69925,6,0,P|80:311|18:363,2,159.500004867554,4|8|4,0:0|0:0|0:0,0:0:0:0:
182,150,70802,2,0,P|221:148|268:157,1,79.7500024337769,0|8,0:0|0:0,0:0:0:0:
344,237,71153,6,0,P|418:213|458:145,1,159.500004867554,4|0,0:0|0:0,0:0:0:0:
388,57,71679,2,0,P|351:104|346:141,1,79.7500024337769,8|0,0:0|0:0,0:0:0:0:
344,237,72030,1,12,0:0:0:0:
108,153,72381,1,12,0:0:0:0:
314,328,72732,6,0,P|391:320|435:209,1,195.749994026184,4|0,0:0|0:0,0:0:0:0:
468,134,73434,2,0,P|416:129|392:117,1,65.2499980087281
324,79,73785,2,0,P|314:110|314:142,1,65.2499980087281,8|0,0:0|0:0,0:0:0:0:
359,278,74135,6,0,P|283:282|229:252,1,130.499996017456
169,194,74662,2,0,L|147:333,1,130.499996017456
66,363,75188,1,8,0:0:0:0:
20,284,75363,1,0,0:0:0:0:
56,142,75539,6,0,L|70:59,1,79.7500024337769,12|0,0:0|0:0,0:0:0:0:
182,115,75890,2,0,L|169:194,1,79.7500024337769,8|0,0:0|0:0,0:0:0:0:
343,194,76241,2,0,L|329:115,1,79.7500024337769,8|0,0:0|0:0,0:0:0:0:
442,63,76592,2,0,L|456:142,1,79.7500024337769,8|0,0:0|0:0,0:0:0:0:
492,247,76942,6,0,P|465:291|464:328,1,79.7500024337769,12|0,0:0|0:0,0:0:0:0:
363,370,77293,1,8,0:0:0:0:
282,291,77469,2,0,P|213:267|133:311,2,159.500004867554,2|2|2,0:0|0:0|0:0,0:0:0:0:
343,197,78346,6,0,P|359:148|358:120,1,79.7500024337769,12|0,0:0|0:0,0:0:0:0:
246,129,78697,2,0,P|235:78|220:54,1,79.7500024337769,8|0,0:0|0:0,0:0:0:0:
134,126,79048,1,8,0:0:0:0:
80,223,79223,2,0,P|78:264|94:308,1,79.7500024337769,0|8,0:0|0:0,0:0:0:0:
197,330,79574,1,0,0:0:0:0:
335,226,79749,6,0,P|378:214|424:219,1,79.7500024337769,4|0,0:0|0:0,0:0:0:0:
475,328,80100,2,0,P|432:340|386:335,1,79.7500024337769,8|0,0:0|0:0,0:0:0:0:
291,213,80451,2,0,P|279:170|284:124,1,79.7500024337769
393,73,80802,2,0,P|405:116|400:162,1,79.7500024337769,8|0,0:0|0:0,0:0:0:0:
365,358,81153,5,2,0:0:0:0:
314,287,81328,1,2,0:0:0:0:
450,246,81504,1,2,0:0:0:0:
450,333,81679,1,2,0:0:0:0:
368,217,81855,2,0,L|355:168,3,39.8750012168885
347,139,82206,1,8,0:0:0:0:
140,110,82556,5,4,0:0:0:0:
94,201,82732,2,0,P|171:207|232:150,1,145,2|0,0:0|0:0,0:0:0:0:
290,28,83258,1,2,0:0:0:0:
290,28,83434,1,0,0:0:0:0:
378,77,83609,1,2,0:0:0:0:
378,77,83785,1,0,0:0:0:0:
429,165,83960,6,0,P|435:211|424:248,1,72.5,2|0,0:0|0:0,0:0:0:0:
336,278,84311,2,0,P|330:232|341:195,1,72.5,2|0,0:0|0:0,0:0:0:0:
412,342,84662,2,0,P|384:366|350:378,2,72.5,2|0|2,0:0|0:0|0:0,0:0:0:0:
173,305,85364,5,0,0:0:0:0:
90,247,85539,2,0,P|147:207|218:214,1,145,2|0,0:0|0:0,0:0:0:0:
349,272,86065,1,2,0:0:0:0:
349,272,86241,1,0,0:0:0:0:
329,173,86416,1,2,0:0:0:0:
329,173,86592,1,0,0:0:0:0:
233,141,86767,6,0,P|187:147|150:136,1,72.5,2|0,0:0|0:0,0:0:0:0:
120,48,87118,2,0,P|166:42|203:53,1,72.5,2|0,0:0|0:0,0:0:0:0:
289,73,87469,2,0,P|324:80|360:73,1,72.5,2|0,0:0|0:0,0:0:0:0:
428,206,87820,1,10,0:0:0:0:
215,345,88171,6,0,P|196:276|234:216,1,145,4|8,0:0|0:0,0:0:0:0:
303,293,88697,2,0,L|140:268,1,145
64,303,89223,1,8,0:0:0:0:
24,164,89399,6,0,P|49:92|107:48,1,145
175,119,89925,1,8,0:0:0:0:
175,119,90100,2,0,P|248:138|318:113,1,145
405,75,90627,2,0,L|411:156,1,72.5,8|0,0:0|0:0,0:0:0:0:
379,277,90978,6,0,P|424:290|446:307,2,72.5,12|0|0,0:0|0:0|0:0,0:0:0:0:
288,323,91504,1,12,0:0:0:0:
139,184,91855,1,12,0:0:0:0:
333,125,92206,1,12,0:0:0:0:
256,192,92293,12,0,93434,0:0:0:0:
