osu file format v14

[General]
AudioFilename: Meteor Impact.mp3
AudioLeadIn: 0
PreviewTime: 55714
Countdown: 0
SampleSet: Soft
StackLeniency: 0.7
Mode: 0
LetterboxInBreaks: 0
WidescreenStoryboard: 0

[Editor]
DistanceSpacing: 1.4
BeatDivisor: 4
GridSize: 8
TimelineZoom: 1

[Metadata]
Title:Meteor*Impact
TitleUnicode:めてお☆いんぱくと
Artist:MERURU (Tamura Yukari)
ArtistUnicode:メルル(田村ゆかり)
Creator:Doyak
Version:Insane
Source:俺の妹がこんなに可愛いわけがない
Tags:Oreimo Ore no Imouto ga Konna ni Kawaii Wake Nai My Little Sister Can't Be This Cute ED ending Stardust Witch Kurusu Kanako
BeatmapID:813093
BeatmapSetID:362996

[Difficulty]
HPDrainRate:6.5
CircleSize:4
OverallDifficulty:8
ApproachRate:8.7
SliderMultiplier:1.7
SliderTickRate:1

[Events]
//Background and Video events
0,0,"endcard.jpg",0,0
//Break Periods
//Storyboard Layer 0 (Background)
//Storyboard Layer 1 (Fail)
//Storyboard Layer 2 (Pass)
//Storyboard Layer 3 (Foreground)
//Storyboard Sound Samples

[TimingPoints]
5364,350.877192982456,4,2,1,50,1,0
5364,-111.111111111111,4,2,1,50,0,0
10627,-111.111111111111,4,2,1,70,0,0
10978,-90.9090909090909,4,2,1,70,0,0
22206,-100,4,2,1,60,0,0
32732,-100,4,2,1,70,0,0
33434,-100,4,2,1,60,0,0
47469,-125,4,2,1,50,0,0
53609,-111.111111111111,4,2,1,55,0,0
54135,-100,4,2,1,60,0,0
54662,-90.9090909090909,4,2,1,65,0,0
55890,-90.9090909090909,4,2,1,80,0,1
61679,-90.9090909090909,4,2,2,80,0,1
62206,-90.9090909090909,4,2,1,80,0,1
72732,-111.111111111111,4,2,1,65,0,0
75539,-90.9090909090909,4,2,1,80,0,1
81153,-90.9090909090909,4,2,2,80,0,1
82206,-90.9090909090909,4,2,1,80,0,0
82556,-111.111111111111,4,2,1,50,0,0
87820,-90.9090909090909,4,2,1,70,0,0

[Colours]
Combo1 : 21,223,72
Combo2 : 255,81,255
Combo3 : 234,228,21
Combo4 : 21,194,232

[HitObjects]
336,131,5363,5,0,0:0:0:0:
390,37,5539,2,0,P|439:103|434:175,1,152.999995330811,2|0,0:0|0:0,0:0:0:0:
336,285,6065,5,2,0:0:0:0:
235,320,6241,1,0,0:0:0:0:
256,182,6416,1,2,0:0:0:0:
155,217,6592,1,0,0:0:0:0:
87,36,6767,5,2,0:0:0:0:
52,137,6943,1,0,0:0:0:0:
190,116,7118,1,2,0:0:0:0:
155,217,7294,1,0,0:0:0:0:
293,196,7469,6,0,P|316:153|319:115,1,76.4999976654053,2|0,0:0|0:0,0:0:0:0:
421,159,7820,1,2,0:0:0:0:
176,253,8171,5,0,0:0:0:0:
122,347,8347,2,0,P|73:281|78:209,1,152.999995330811,2|0,0:0|0:0,0:0:0:0:
176,99,8873,5,2,0:0:0:0:
277,64,9049,1,0,0:0:0:0:
256,202,9224,1,2,0:0:0:0:
357,167,9400,1,0,0:0:0:0:
425,348,9575,5,2,0:0:0:0:
460,247,9749,1,0,0:0:0:0:
322,268,9925,1,2,0:0:0:0:
357,167,10100,1,0,0:0:0:0:
219,188,10277,6,0,P|196:231|193:269,1,76.4999976654053,2|0,0:0|0:0,0:0:0:0:
270,24,10628,1,10,0:0:0:0:
316,359,10978,6,0,P|399:315|398:220,1,187.000005706787,4|8,0:0|0:0,0:0:0:0:
314,134,11504,1,0,0:0:0:0:
236,240,11679,2,0,P|275:264|321:267,1,93.5000028533936
119,283,12030,1,8,0:0:0:0:
266,64,12206,6,0,P|346:57|395:154,1,187.000005706787
463,301,12732,1,8,0:0:0:0:
463,301,12907,2,0,P|374:339|282:328,1,187.000005706787
207,201,13434,2,0,P|253:190|306:193,1,93.5000028533936,8|0,0:0|0:0,0:0:0:0:
59,276,13785,6,0,P|41:186|75:100,1,187.000005706787,0|8,0:0|0:0,0:0:0:0:
156,340,14311,1,0,0:0:0:0:
259,288,14486,2,0,P|269:337|262:385,1,93.5000028533936
156,340,14837,1,8,0:0:0:0:
195,172,15013,6,0,P|289:159|373:223,1,187.000005706787
454,339,15539,1,8,0:0:0:0:
454,339,15714,2,0,L|469:142,1,187.000005706787
411,33,16241,1,8,0:0:0:0:
291,84,16416,1,0,0:0:0:0:
291,84,16504,1,0,0:0:0:0:
291,84,16592,6,0,P|239:95|191:86,1,93.5000028533936,4|0,0:0|0:0,0:0:0:0:
124,196,16942,2,0,P|176:185|224:194,1,93.5000028533936,8|0,0:0|0:0,0:0:0:0:
365,335,17293,1,0,0:0:0:0:
405,210,17469,1,0,0:0:0:0:
268,293,17644,2,0,P|216:304|168:295,1,93.5000028533936,8|0,0:0|0:0,0:0:0:0:
214,116,17995,6,0,P|225:168|216:216,1,93.5000028533936
93,170,18346,1,8,0:0:0:0:
181,359,18521,2,0,P|271:356|341:293,1,187.000005706787
316,89,19048,1,8,0:0:0:0:
219,207,19223,1,0,0:0:0:0:
436,291,19399,5,4,0:0:0:0:
436,291,19574,1,0,0:0:0:0:
76,291,19925,5,4,0:0:0:0:
76,291,20100,1,0,0:0:0:0:
260,38,20451,5,4,0:0:0:0:
260,38,20626,1,0,0:0:0:0:
256,333,20978,5,4,0:0:0:0:
134,122,21153,1,0,0:0:0:0:
377,122,21328,1,0,0:0:0:0:
256,192,21504,1,4,0:0:0:0:
256,192,21592,1,0,0:0:0:0:
256,192,21679,2,0,L|256:139,1,46.7500014266968
256,70,21855,1,8,0:0:0:0:
86,229,22206,6,0,P|160:284|173:358,1,170,4|8,0:0|0:0,0:0:0:0:
60,343,22732,1,0,0:0:0:0:
14,185,22907,2,0,P|32:132|58:107,1,85
16,269,23258,1,8,0:0:0:0:
51,111,23434,1,0,0:0:0:0:
216,186,23609,6,0,P|269:204|294:230,1,85
296,376,23960,1,8,0:0:0:0:
202,305,24135,1,0,0:0:0:0:
385,296,24311,1,0,0:0:0:0:
385,296,24399,1,0,0:0:0:0:
385,296,24486,2,0,P|428:296|468:316,2,85,0|8|0,0:0|0:0|0:0,0:0:0:0:
165,349,25013,6,0,L|154:258,1,85
253,140,25363,2,0,L|263:224,1,85,8|0,0:0|0:0,0:0:0:0:
80,171,25714,1,0,0:0:0:0:
123,59,25890,2,0,P|167:34|216:33,1,85,0|8,0:0|0:0,0:0:0:0:
253,140,26241,1,0,0:0:0:0:
187,261,26416,6,0,L|103:252,1,85
333,207,26767,1,8,0:0:0:0:
441,252,26942,1,0,0:0:0:0:
438,281,27030,1,0,0:0:0:0:
435,310,27118,1,0,0:0:0:0:
432,339,27205,1,0,0:0:0:0:
429,368,27293,2,0,L|335:379,1,85,0|8,0:0|0:0,0:0:0:0:
228,147,27644,1,0,0:0:0:0:
187,261,27820,6,0,P|270:261|332:206,1,170,0|8,0:0|0:0,0:0:0:0:
381,97,28346,1,0,0:0:0:0:
235,64,28521,2,0,P|222:108|233:159,1,85
143,305,28872,2,0,P|148:263|135:222,1,85,8|0,0:0|0:0,0:0:0:0:
332,273,29223,6,0,P|382:284|423:277,1,85
481,126,29574,1,8,0:0:0:0:
378,66,29749,2,0,P|328:55|287:62,1,85
266,69,30013,1,0,0:0:0:0:
242,86,30100,1,0,0:0:0:0:
190,193,30276,2,0,P|240:204|281:197,1,85,8|0,0:0|0:0,0:0:0:0:
89,132,30627,6,0,P|76:221|134:296,2,170,0|8|0,0:0|0:0|0:0,0:0:0:0:
228,55,31504,1,0,0:0:0:0:
190,193,31679,1,8,0:0:0:0:
143,25,31855,1,0,0:0:0:0:
289,121,32030,6,0,L|384:121,1,85
479,65,32381,1,8,0:0:0:0:
438,248,32556,1,0,0:0:0:0:
438,248,32644,1,0,0:0:0:0:
438,248,32732,5,12,0:0:0:0:
117,285,33083,1,12,0:0:0:0:
117,285,33434,6,0,P|186:278|260:346,1,170,4|8,0:0|0:0,0:0:0:0:
322,240,33960,1,0,0:0:0:0:
426,296,34135,2,0,P|440:243|436:210,1,85
374,111,34486,1,8,0:0:0:0:
436,213,34662,1,0,0:0:0:0:
326,360,34837,6,0,P|277:353|243:329,1,85
203,223,35188,1,8,0:0:0:0:
101,283,35363,1,0,0:0:0:0:
103,163,35539,1,0,0:0:0:0:
103,163,35627,1,0,0:0:0:0:
103,163,35714,2,0,P|132:129|174:111,2,85,0|8|0,0:0|0:0|0:0,0:0:0:0:
206,342,36241,6,0,P|257:352|302:349,1,85
369,213,36592,2,0,P|318:203|273:206,1,85,8|0,0:0|0:0,0:0:0:0:
437,297,36942,1,0,0:0:0:0:
477,184,37118,2,0,P|467:132|450:106,1,85,0|8,0:0|0:0,0:0:0:0:
353,35,37469,5,4,0:0:0:0:
253,331,37820,1,4,0:0:0:0:
153,75,38171,2,0,P|70:61|1:107,1,170,4|0,0:0|0:0,0:0:0:0:
137,190,38697,2,0,P|179:189|218:172,1,85,8|0,0:0|0:0,0:0:0:0:
90,298,39048,6,0,P|173:308|267:270,1,170,4|8,0:0|0:0,0:0:0:0:
344,203,39574,1,0,0:0:0:0:
453,253,39749,2,0,P|464:303|459:346,1,85
344,203,40100,2,0,P|333:153|338:110,1,85,8|0,0:0|0:0,0:0:0:0:
353,324,40451,6,0,P|303:335|260:330,1,85,4|0,0:0|0:0,0:0:0:0:
199,235,40802,1,8,0:0:0:0:
335,119,40978,2,0,P|385:108|428:113,1,85,4|0,0:0|0:0,0:0:0:0:
442,128,41241,1,0,0:0:0:0:
464,147,41328,1,0,0:0:0:0:
436,326,41504,2,0,P|425:276|430:233,1,85,8|0,0:0|0:0,0:0:0:0:
303,84,41855,6,0,P|314:134|309:177,1,85,4|0,0:0|0:0,0:0:0:0:
239,262,42206,1,8,0:0:0:0:
131,212,42381,2,0,B|40:227,1,85
124,357,42732,2,0,B|207:343,1,85,0|8,0:0|0:0,0:0:0:0:
131,212,43083,1,0,0:0:0:0:
9,324,43258,5,4,0:0:0:0:
44,131,43434,1,0,0:0:0:0:
131,212,43609,2,0,P|174:226|222:220,1,85,8|0,0:0|0:0,0:0:0:0:
443,170,43960,1,0,0:0:0:0:
363,306,44135,2,0,P|349:263|355:215,1,85,0|8,0:0|0:0,0:0:0:0:
385,74,44486,1,0,0:0:0:0:
276,142,44662,6,0,P|196:148|124:87,1,170,4|8,0:0|0:0,0:0:0:0:
228,30,45188,1,0,0:0:0:0:
345,45,45363,2,0,P|374:75|389:114,1,85
484,187,45714,2,0,P|453:216|414:231,1,85,8|0,0:0|0:0,0:0:0:0:
287,343,46065,6,0,P|272:301|269:249,1,85
399,192,46416,2,0,P|414:234|417:286,1,85,8|0,0:0|0:0,0:0:0:0:
360,378,46767,1,0,0:0:0:0:
330,380,46855,1,0,0:0:0:0:
300,382,46942,1,8,0:0:0:0:
133,328,47118,1,8,0:0:0:0:
204,149,47293,1,0,0:0:0:0:
270,277,47469,6,0,P|342:299|452:235,1,204,4|0,0:0|0:0,0:0:0:0:
381,57,48171,2,0,P|336:106|342:172,1,136,0|8,0:0|0:0,0:0:0:0:
342,172,48697,1,0,0:0:0:0:
242,255,48872,6,0,P|150:231|58:285,1,204
216,356,49574,2,0,L|353:328,1,136,0|8,0:0|0:0,0:0:0:0:
453,101,50276,6,0,P|367:152|270:129,1,204
184,15,50978,2,0,L|318:42,1,136,0|8,0:0|0:0,0:0:0:0:
318,42,51504,1,0,0:0:0:0:
382,216,51679,6,0,P|337:289|216:284,1,204
177,176,52381,2,0,P|109:156|46:189,1,136,0|8,0:0|0:0,0:0:0:0:
336,371,53083,6,0,P|374:376|409:368,1,68,12|0,0:0|0:0,0:0:0:0:
473,304,53434,1,0,0:0:0:0:
272,289,53609,6,0,P|310:283|343:262,1,76.4999976654053,12|0,0:0|0:0,0:0:0:0:
394,169,53960,1,0,0:0:0:0:
190,230,54135,6,0,P|226:215|255:179,1,85,12|0,0:0|0:0,0:0:0:0:
268,61,54486,1,0,0:0:0:0:
84,210,54662,6,0,P|115:186|137:137,1,93.5000028533936,12|0,0:0|0:0,0:0:0:0:
113,8,55013,1,0,0:0:0:0:
333,124,55188,5,12,0:0:0:0:
190,220,55363,1,0,0:0:0:0:
190,220,55451,1,0,0:0:0:0:
190,220,55539,1,12,0:0:0:0:
429,348,55890,6,0,P|477:270|462:179,1,187.000005706787,4|8,0:0|0:0,0:0:0:0:
355,103,56416,1,0,0:0:0:0:
269,202,56592,2,0,P|322:236|366:240,1,93.5000028533936
265,339,56942,2,0,P|212:305|168:301,1,93.5000028533936,8|0,0:0|0:0,0:0:0:0:
59,186,57293,6,0,L|77:290,1,93.5000028533936
264,117,57644,1,8,0:0:0:0:
185,223,57820,2,0,P|259:288|342:246,1,187.000005706787
435,177,58346,1,8,0:0:0:0:
495,292,58521,1,0,0:0:0:0:
311,358,58697,6,0,P|260:366|209:351,1,93.5000028533936
93,221,59048,2,0,P|144:213|195:228,1,93.5000028533936,8|0,0:0|0:0,0:0:0:0:
264,117,59399,1,0,0:0:0:0:
182,313,59574,2,0,P|173:267|184:222,1,93.5000028533936,0|8,0:0|0:0,0:0:0:0:
344,160,59925,6,0,P|413:143|406:240,1,187.000005706787
336,337,60451,2,0,P|291:309|268:261,1,93.5000028533936,8|0,0:0|0:0,0:0:0:0:
229,150,60802,1,0,0:0:0:0:
204,127,60890,1,0,0:0:0:0:
173,115,60978,1,0,0:0:0:0:
140,110,61065,1,0,0:0:0:0:
107,116,61153,2,0,L|113:21,1,93.5000028533936,8|0,0:0|0:0,0:0:0:0:
146,264,61504,5,4,0:0:0:0:
319,209,61679,2,0,B|462:203|462:203|422:234,1,187.000005706787,2|2,0:0|0:0,0:0:0:0:
357,353,62206,1,0,0:0:0:0:
252,173,62381,1,0,0:0:0:0:
211,336,62556,1,8,0:0:0:0:
375,278,62732,1,0,0:0:0:0:
146,264,62907,6,0,P|98:279|59:311,1,93.5000028533936
77,153,63258,2,0,P|71:106|82:61,1,93.5000028533936,8|0,0:0|0:0,0:0:0:0:
120,45,63521,1,0,0:0:0:0:
158,61,63609,2,0,P|168:107|162:153,1,93.5000028533936
120,277,63960,1,8,0:0:0:0:
384,41,64311,5,4,0:0:0:0:
432,217,64486,1,0,0:0:0:0:
290,102,64662,1,8,0:0:0:0:
471,112,64837,1,0,0:0:0:0:
319,209,65013,2,0,P|307:254|319:299,1,93.5000028533936
383,137,65363,1,8,0:0:0:0:
203,73,65539,6,0,P|104:88|42:168,1,187.000005706787,4|0,0:0|0:0,0:0:0:0:
97,319,66065,1,8,0:0:0:0:
189,226,66241,1,0,0:0:0:0:
189,226,66328,1,0,0:0:0:0:
189,226,66416,1,12,0:0:0:0:
470,309,66767,1,12,0:0:0:0:
470,309,67118,6,0,P|485:215|469:119,1,187.000005706787,4|8,0:0|0:0,0:0:0:0:
384,26,67644,1,0,0:0:0:0:
339,149,67820,2,0,P|290:155|248:146,1,93.5000028533936
144,30,68171,2,0,P|193:24|235:33,1,93.5000028533936,8|0,0:0|0:0,0:0:0:0:
187,290,68521,6,0,P|172:196|188:100,1,187.000005706787,0|8,0:0|0:0,0:0:0:0:
64,156,69048,1,0,0:0:0:0:
29,282,69223,2,0,L|62:377,1,93.5000028533936
187,290,69574,2,0,P|238:273|281:278,1,93.5000028533936,8|0,0:0|0:0,0:0:0:0:
459,331,69925,6,0,L|471:233,1,93.5000028533936,4|0,0:0|0:0,0:0:0:0:
374,119,70276,2,0,L|362:211,1,93.5000028533936,8|0,0:0|0:0,0:0:0:0:
187,290,70627,1,4,0:0:0:0:
86,338,70802,2,0,P|76:289|87:243,1,93.5000028533936,0|8,0:0|0:0,0:0:0:0:
344,154,71153,6,0,P|430:173|380:235,1,187.000005706787,4|0,0:0|0:0,0:0:0:0:
340,353,71679,1,8,0:0:0:0:
221,296,71855,1,0,0:0:0:0:
221,296,71942,1,0,0:0:0:0:
221,296,72030,1,12,0:0:0:0:
312,23,72381,1,12,0:0:0:0:
482,187,72732,6,0,P|389:159|288:233,1,229.499992996216,4|0,0:0|0:0,0:0:0:0:
198,312,73434,2,0,L|114:303,1,76.4999976654053
75,190,73785,2,0,L|151:198,1,76.4999976654053,8|0,0:0|0:0,0:0:0:0:
354,262,74135,6,0,P|421:206|436:134,1,152.999995330811
390,30,74662,1,0,0:0:0:0:
318,129,74837,1,0,0:0:0:0:
222,51,75013,2,0,P|184:47|146:53,1,76.4999976654053,0|8,0:0|0:0,0:0:0:0:
99,237,75363,1,0,0:0:0:0:
266,325,75539,6,0,L|363:316,1,93.5000028533936,12|0,0:0|0:0,0:0:0:0:
314,153,75890,2,0,L|411:144,1,93.5000028533936,8|0,0:0|0:0,0:0:0:0:
246,232,76241,2,0,L|149:223,1,93.5000028533936,8|0,0:0|0:0,0:0:0:0:
198,60,76592,2,0,L|101:51,1,93.5000028533936,8|0,0:0|0:0,0:0:0:0:
53,285,76942,5,12,0:0:0:0:
134,137,77118,1,0,0:0:0:0:
273,238,77293,1,8,0:0:0:0:
196,368,77469,2,0,P|171:320|172:273,1,93.5000028533936,0|8,0:0|0:0,0:0:0:0:
278,80,77820,2,0,P|301:120|303:166,1,93.5000028533936,0|8,0:0|0:0,0:0:0:0:
200,209,78171,1,0,0:0:0:0:
339,309,78346,6,0,L|436:318,1,93.5000028533936,12|0,0:0|0:0,0:0:0:0:
404,151,78697,2,0,L|501:160,1,93.5000028533936,8|0,0:0|0:0,0:0:0:0:
339,309,79048,1,8,0:0:0:0:
307,78,79223,1,0,0:0:0:0:
242,236,79399,1,8,0:0:0:0:
404,151,79574,1,0,0:0:0:0:
206,100,79749,6,0,P|148:96|114:108,1,93.5000028533936,4|0,0:0|0:0,0:0:0:0:
306,284,80100,2,0,P|364:288|398:276,1,93.5000028533936,8|0,0:0|0:0,0:0:0:0:
184,286,80451,1,0,0:0:0:0:
328,98,80627,1,0,0:0:0:0:
306,284,80802,1,8,0:0:0:0:
206,100,80978,1,0,0:0:0:0:
381,192,81153,6,0,L|474:192,1,93.5000028533936,2|2,0:0|0:0,0:0:0:0:
131,192,81504,2,0,L|38:192,1,93.5000028533936,2|2,0:0|0:0,0:0:0:0:
187,313,81855,1,0,0:0:0:0:
216,343,81942,1,0,0:0:0:0:
256,355,82030,1,0,0:0:0:0:
296,343,82119,1,0,0:0:0:0:
325,313,82206,1,8,0:0:0:0:
176,131,82556,5,4,0:0:0:0:
122,37,82732,2,0,P|73:103|78:175,1,152.999995330811,2|0,0:0|0:0,0:0:0:0:
176,285,83258,5,2,0:0:0:0:
277,320,83434,1,0,0:0:0:0:
256,182,83609,1,2,0:0:0:0:
357,217,83785,1,0,0:0:0:0:
425,36,83960,5,2,0:0:0:0:
460,137,84136,1,0,0:0:0:0:
322,116,84311,1,2,0:0:0:0:
357,217,84487,1,0,0:0:0:0:
219,196,84662,6,0,P|196:153|193:115,1,76.4999976654053,2|0,0:0|0:0,0:0:0:0:
91,159,85013,1,2,0:0:0:0:
336,253,85364,5,0,0:0:0:0:
390,347,85540,2,0,P|439:281|434:209,1,152.999995330811,2|0,0:0|0:0,0:0:0:0:
336,99,86066,5,2,0:0:0:0:
235,64,86242,1,0,0:0:0:0:
256,202,86416,1,2,0:0:0:0:
155,167,86593,1,0,0:0:0:0:
87,348,86768,5,2,0:0:0:0:
52,247,86942,1,0,0:0:0:0:
190,268,87118,1,2,0:0:0:0:
155,167,87293,1,0,0:0:0:0:
293,188,87470,6,0,P|316:231|319:269,1,76.4999976654053,2|0,0:0|0:0,0:0:0:0:
242,24,87821,1,10,0:0:0:0:
101,263,88171,6,0,P|201:275|239:352,1,187.000005706787,4|8,0:0|0:0,0:0:0:0:
141,355,88697,1,0,0:0:0:0:
237,184,88872,2,0,P|281:163|347:160,1,93.5000028533936
430,235,89223,1,8,0:0:0:0:
229,280,89399,6,0,P|147:221|157:133,1,187.000005706787
227,36,89925,1,8,0:0:0:0:
400,137,90100,2,0,P|309:127|237:184,1,187.000005706787
389,241,90627,2,0,P|440:232|480:200,1,93.5000028533936,8|0,0:0|0:0,0:0:0:0:
315,354,90978,5,4,0:0:0:0:
264,233,91153,1,0,0:0:0:0:
185,337,91328,1,0,0:0:0:0:
73,179,91504,5,12,0:0:0:0:
346,57,91855,1,12,0:0:0:0:
416,214,92030,1,0,0:0:0:0:
315,354,92206,1,12,0:0:0:0:
256,192,92293,12,0,93434,0:0:0:0:
