osu file format v14

[General]
AudioFilename: Meteor Impact.mp3
AudioLeadIn: 0
PreviewTime: 55714
Countdown: 0
SampleSet: Soft
StackLeniency: 0.7
Mode: 0
LetterboxInBreaks: 0
WidescreenStoryboard: 0

[Editor]
DistanceSpacing: 1.4
BeatDivisor: 4
GridSize: 8
TimelineZoom: 1

[Metadata]
Title:Meteor*Impact
TitleUnicode:めてお☆いんぱくと
Artist:MERURU (Tamura Yukari)
ArtistUnicode:メルル(田村ゆかり)
Creator:Doyak
Version:Hard
Source:俺の妹がこんなに可愛いわけがない
Tags:Oreimo Ore no Imouto ga Konna ni Kawaii Wake Nai My Little Sister Can't Be This Cute ED ending Stardust Witch Kurusu Kanako
BeatmapID:797314
BeatmapSetID:362996

[Difficulty]
HPDrainRate:5
CircleSize:4
OverallDifficulty:5.5
ApproachRate:6.5
SliderMultiplier:1.25
SliderTickRate:1

[Events]
//Background and Video events
0,0,"endcard.jpg",0,0
//Break Periods
//Storyboard Layer 0 (Background)
//Storyboard Layer 1 (Fail)
//Storyboard Layer 2 (Pass)
//Storyboard Layer 3 (Foreground)
//Storyboard Sound Samples

[TimingPoints]
5364,350.877192982456,4,2,1,50,1,0
10627,-100,4,2,1,70,0,0
22206,-100,4,2,1,60,0,0
32732,-100,4,2,1,70,0,0
33434,-100,4,2,1,60,0,0
44135,-100,4,2,2,60,0,0
44662,-100,4,2,1,60,0,0
47469,-100,4,2,1,50,0,0
53609,-100,4,2,1,55,0,0
54135,-100,4,2,1,60,0,0
54662,-100,4,2,1,65,0,0
55890,-100,4,2,1,80,0,1
61679,-100,4,2,2,80,0,1
62206,-100,4,2,1,80,0,1
72732,-100,4,2,1,65,0,0
75539,-100,4,2,1,80,0,1
77469,-100,4,2,2,80,0,1
78346,-100,4,2,1,80,0,1
81153,-100,4,2,2,80,0,1
82206,-100,4,2,1,70,0,0
82556,-100,4,2,1,50,0,0
87820,-100,4,2,1,70,0,0

[Colours]
Combo1 : 21,223,72
Combo2 : 255,81,255
Combo3 : 234,228,21
Combo4 : 21,194,232

[HitObjects]
194,184,5363,5,0,0:0:0:0:
164,266,5539,2,0,P|225:280|271:327,1,125,2|0,0:0|0:0,0:0:0:0:
347,360,6065,2,0,L|417:373,2,62.5,2|0|2,0:0|0:0|0:0,0:0:0:0:
339,272,6592,1,0,0:0:0:0:
411,223,6767,6,0,P|417:192|417:161,2,62.5,2|0|2,0:0|0:0|0:0,0:0:0:0:
339,272,7293,1,0,0:0:0:0:
326,185,7469,2,0,P|327:142|337:112,2,62.5,2|0|2,0:0|0:0|0:0,0:0:0:0:
183,286,8171,5,0,0:0:0:0:
117,227,8346,2,0,P|109:157|128:102,1,125,2|0,0:0|0:0,0:0:0:0:
176,34,8872,2,0,P|204:27|247:34,2,62.5,2|0|2,0:0|0:0|0:0,0:0:0:0:
212,114,9399,1,0,0:0:0:0:
278,170,9574,6,0,P|284:214|278:247,2,62.5,2|0|2,0:0|0:0|0:0,0:0:0:0:
212,114,10100,1,0,0:0:0:0:
198,200,10276,2,0,P|196:231|201:261,1,62.5,2|0,0:0|0:0,0:0:0:0:
230,344,10627,1,10,0:0:0:0:
383,262,10978,6,0,P|443:221|462:171,1,125,4|8,0:0|0:0,0:0:0:0:
494,93,11504,2,0,P|431:93|372:65,1,125
302,19,12030,1,8,0:0:0:0:
302,19,12206,6,0,L|294:149,1,125
234,308,12907,2,0,P|174:268|122:283,1,125
49,322,13434,2,0,P|39:279|46:246,1,62.5,8|0,0:0|0:0,0:0:0:0:
100,196,13785,6,0,P|121:138|122:70,1,125,0|8,0:0|0:0,0:0:0:0:
75,16,14311,2,0,P|128:45|189:37,1,125
266,60,14837,1,8,0:0:0:0:
266,60,15013,6,0,L|251:194,1,125
293,261,15539,1,8,0:0:0:0:
380,261,15714,2,0,P|432:217|444:99,1,187.5,0|8,0:0|0:0,0:0:0:0:
397,30,16416,6,0,P|438:16|470:18,2,62.5,0|4|0,0:0|0:0|0:0,0:0:0:0:
310,28,16942,2,0,P|296:69|298:101,1,62.5,8|0,0:0|0:0,0:0:0:0:
308,174,17293,2,0,L|237:189,1,62.5
161,205,17644,1,8,0:0:0:0:
281,332,17995,6,0,L|333:366,2,62.5,0|0|8,0:0|0:0|0:0,0:0:0:0:
254,248,18521,2,0,P|203:290|197:356,1,125
112,379,19048,2,0,P|69:369|50:355,1,62.5,8|0,0:0|0:0,0:0:0:0:
31,274,19399,6,0,L|40:211,1,62.5,4|0,0:0|0:0,0:0:0:0:
214,226,19925,2,0,L|223:163,1,62.5,4|0,0:0|0:0,0:0:0:0:
397,178,20451,2,0,L|406:115,1,62.5,4|0,0:0|0:0,0:0:0:0:
322,270,20978,6,0,P|352:290|386:296,2,62.5,4|0|0,0:0|0:0|0:0,0:0:0:0:
298,185,21504,2,0,P|244:229|236:288,1,125,4|8,0:0|0:0,0:0:0:0:
66,329,22206,6,0,L|89:194,1,125,4|8,0:0|0:0,0:0:0:0:
156,152,22732,1,0,0:0:0:0:
156,152,22907,2,0,P|125:128|88:118,2,62.5,0|0|8,0:0|0:0|0:0,0:0:0:0:
181,236,23434,1,0,0:0:0:0:
249,290,23609,6,0,P|314:286|368:322,1,125,0|8,0:0|0:0,0:0:0:0:
430,372,24135,2,0,L|446:239,1,125
456,160,24662,1,8,0:0:0:0:
281,142,25013,6,0,P|227:123|179:68,2,125,0|8|0,0:0|0:0|0:0,0:0:0:0:
367,124,25890,2,0,L|357:197,1,62.5,0|8,0:0|0:0,0:0:0:0:
393,266,26241,6,0,P|321:269|291:376,1,187.5,0|8,0:0|0:0,0:0:0:0:
272,191,27118,1,0,0:0:0:0:
363,340,27469,2,0,L|438:350,1,62.5,8|0,0:0|0:0,0:0:0:0:
483,282,27820,6,0,P|494:214|483:155,2,125,0|8|0,0:0|0:0|0:0,0:0:0:0:
320,216,28872,1,8,0:0:0:0:
163,137,29223,6,0,P|231:114|266:71,1,125,0|8,0:0|0:0,0:0:0:0:
333,20,29749,2,0,L|367:146,1,125
320,216,30276,1,8,0:0:0:0:
146,237,30627,6,0,P|84:202|62:146,2,125,0|8|0,0:0|0:0|0:0,0:0:0:0:
227,204,31504,1,0,0:0:0:0:
304,163,31679,2,0,P|341:164|375:183,1,62.5,8|0,0:0|0:0,0:0:0:0:
433,227,32030,6,0,P|420:294|386:340,1,125,0|8,0:0|0:0,0:0:0:0:
306,372,32556,1,0,0:0:0:0:
245,308,32732,5,12,0:0:0:0:
277,136,33083,1,12,0:0:0:0:
277,136,33434,6,0,P|212:159|154:144,1,125,4|8,0:0|0:0,0:0:0:0:
89,92,33960,1,0,0:0:0:0:
89,92,34135,2,0,P|45:81|23:85,2,62.5,0|0|8,0:0|0:0|0:0,0:0:0:0:
71,178,34662,1,0,0:0:0:0:
98,261,34837,6,0,P|135:319|188:347,1,125,0|8,0:0|0:0,0:0:0:0:
256,297,35363,2,0,P|317:283|388:303,1,125
448,348,35890,1,8,0:0:0:0:
494,179,36241,6,0,L|501:50,2,125,0|8|0,0:0|0:0|0:0,0:0:0:0:
449,254,37118,2,0,P|411:252|383:246,1,62.5,0|8,0:0|0:0,0:0:0:0:
315,195,37469,5,4,0:0:0:0:
217,340,37820,1,4,0:0:0:0:
224,165,38171,1,4,0:0:0:0:
366,267,38521,2,0,P|403:273|441:266,2,62.5,0|8|0,0:0|0:0|0:0,0:0:0:0:
287,306,39048,6,0,P|281:242|322:190,1,125,4|8,0:0|0:0,0:0:0:0:
393,38,39749,2,0,P|321:45|258:30,1,125,0|8,0:0|0:0,0:0:0:0:
95,18,40451,6,0,L|84:148,1,125,4|8,0:0|0:0,0:0:0:0:
42,220,40978,2,0,P|109:236|143:285,1,125,4|0,0:0|0:0,0:0:0:0:
162,363,41504,1,8,0:0:0:0:
335,339,41855,6,0,P|391:303|417:243,1,125,4|8,0:0|0:0,0:0:0:0:
464,178,42381,2,0,P|403:157|349:115,1,125
331,36,42907,1,8,0:0:0:0:
168,101,43258,5,4,0:0:0:0:
84,129,43434,2,0,P|79:93|90:59,2,62.5,0|8|0,0:0|0:0|0:0,0:0:0:0:
111,212,43960,1,0,0:0:0:0:
172,274,44135,2,0,P|224:268|269:324,1,125,2|2,0:0|0:0,0:0:0:0:
354,341,44662,6,0,L|341:217,1,125,4|8,0:0|0:0,0:0:0:0:
403,154,45188,2,0,P|455:211|466:263,1,125
445,341,45714,1,8,0:0:0:0:
273,306,46065,6,0,P|203:301|145:327,2,125,0|8|0,0:0|0:0|0:0,0:0:0:0:
346,257,46942,1,8,0:0:0:0:
376,174,47118,1,8,0:0:0:0:
248,54,47469,6,0,P|211:128|112:154,1,187.5,4|0,0:0|0:0,0:0:0:0:
32,124,48171,2,0,L|44:251,1,125,0|8,0:0|0:0,0:0:0:0:
106,309,48697,1,0,0:0:0:0:
106,309,48872,6,0,P|192:270|283:290,1,187.5
354,334,49574,2,0,L|367:210,1,125,0|8,0:0|0:0,0:0:0:0:
476,72,50276,6,0,L|455:258,1,187.5
370,277,50978,2,0,P|310:271|255:312,1,125,0|8,0:0|0:0,0:0:0:0:
178,341,51504,1,0,0:0:0:0:
178,341,51679,6,0,P|134:259|142:160,1,187.5
225,150,52381,2,0,P|294:132|342:93,1,125,0|8,0:0|0:0,0:0:0:0:
467,216,53083,6,0,L|484:289,2,62.5,12|0|0,0:0|0:0|0:0,0:0:0:0:
392,169,53609,2,0,L|377:108,2,62.5,12|0|0,0:0|0:0|0:0,0:0:0:0:
345,243,54135,2,0,L|362:316,2,62.5,12|0|0,0:0|0:0|0:0,0:0:0:0:
270,197,54662,2,0,L|255:136,2,62.5,12|0|0,0:0|0:0|0:0,0:0:0:0:
232,276,55188,5,12,0:0:0:0:
146,259,55363,2,0,L|104:252,2,31.25,0|0|12,0:0|0:0|0:0,0:0:0:0:
212,96,55890,6,0,P|277:125|341:113,1,125,4|8,0:0|0:0,0:0:0:0:
399,65,56416,1,0,0:0:0:0:
456,131,56592,2,0,P|472:195|466:254,1,125,0|8,0:0|0:0,0:0:0:0:
303,318,57293,6,0,P|245:304|178:314,1,125,0|8,0:0|0:0,0:0:0:0:
95,291,57820,2,0,P|75:238|92:155,1,125
130,96,58346,1,8,0:0:0:0:
202,47,58521,1,0,0:0:0:0:
278,89,58697,6,0,P|340:82|390:47,2,125,0|8|0,0:0|0:0|0:0,0:0:0:0:
228,161,59574,2,0,P|228:201|238:235,1,62.5,0|8,0:0|0:0,0:0:0:0:
304,273,59925,6,0,P|389:263|420:359,1,187.5,0|8,0:0|0:0,0:0:0:0:
252,373,60802,2,0,P|215:365|182:352,2,62.5,0|0|8,0:0|0:0|0:0,0:0:0:0:
269,198,61504,5,4,0:0:0:0:
350,226,61679,2,0,P|349:165|308:120,1,125,2|2,0:0|0:0,0:0:0:0:
234,72,62206,2,0,P|268:43|308:33,2,62.5,0|0|8,0:0|0:0|0:0,0:0:0:0:
152,105,62732,1,0,0:0:0:0:
68,80,62907,6,0,P|51:149|60:207,1,125,0|8,0:0|0:0,0:0:0:0:
83,286,63434,2,0,L|68:324,2,31.25
168,307,63785,2,0,P|202:321|229:353,1,62.5,0|8,0:0|0:0,0:0:0:0:
368,248,64311,6,0,P|410:238|439:224,1,62.5,4|0,0:0|0:0,0:0:0:0:
444,144,64662,2,0,P|402:154|373:168,1,62.5,8|0,0:0|0:0,0:0:0:0:
307,119,65013,1,0,0:0:0:0:
234,69,65188,2,0,P|204:57|174:51,1,62.5,0|8,0:0|0:0,0:0:0:0:
120,120,65539,6,0,P|104:184|124:248,1,125,4|0,0:0|0:0,0:0:0:0:
178,304,66065,2,0,P|215:307|244:322,1,62.5,8|0,0:0|0:0,0:0:0:0:
310,367,66416,1,12,0:0:0:0:
372,203,66767,1,12,0:0:0:0:
372,203,67118,6,0,P|309:197|245:165,1,125,4|8,0:0|0:0,0:0:0:0:
214,92,67644,1,0,0:0:0:0:
138,47,67820,2,0,P|133:114|103:165,1,125,0|8,0:0|0:0,0:0:0:0:
48,328,68521,6,0,P|106:324|174:357,1,125,0|8,0:0|0:0,0:0:0:0:
250,375,69048,2,0,L|263:249,1,125
313,178,69574,1,8,0:0:0:0:
460,273,69925,6,0,P|485:210|484:154,2,125,4|8|4,0:0|0:0|0:0,0:0:0:0:
396,333,70802,2,0,P|362:350|331:354,1,62.5,0|8,0:0|0:0,0:0:0:0:
270,297,71153,6,0,P|209:273|148:287,1,125,4|0,0:0|0:0,0:0:0:0:
76,328,71679,1,8,0:0:0:0:
13,164,72030,1,12,0:0:0:0:
128,32,72381,1,12,0:0:0:0:
260,145,72732,6,0,P|344:178|415:124,1,187.5,4|0,0:0|0:0,0:0:0:0:
333,91,73434,2,0,L|271:68,2,62.5,0|0|8,0:0|0:0|0:0,0:0:0:0:
415,124,73960,1,0,0:0:0:0:
468,194,74135,6,0,P|471:257|450:315,1,125
361,316,74662,2,0,P|339:257|342:195,1,125
280,132,75188,2,0,L|289:62,2,62.5,8|0|12,0:0|0:0|0:0,0:0:0:0:
185,280,75890,5,8,0:0:0:0:
105,124,76241,1,8,0:0:0:0:
280,132,76592,1,8,0:0:0:0:
373,279,76942,6,0,P|410:302|437:309,2,62.5,12|0|8,0:0|0:0|0:0,0:0:0:0:
355,192,77469,2,0,P|297:230|287:305,2,125,2|2|2,0:0|0:0|0:0,0:0:0:0:
425,139,78346,6,0,P|449:61|445:11,2,125,12|8|8,0:0|0:0|0:0,0:0:0:0:
344,104,79223,1,0,0:0:0:0:
268,59,79399,2,0,P|230:56|200:61,1,62.5,8|0,0:0|0:0,0:0:0:0:
139,115,79749,6,0,P|110:184|114:235,1,125,4|8,0:0|0:0,0:0:0:0:
163,305,80276,1,0,0:0:0:0:
163,305,80451,2,0,P|161:343|150:378,2,62.5,0|0|8,0:0|0:0|0:0,0:0:0:0:
235,254,80978,1,0,0:0:0:0:
317,225,81153,6,0,L|390:211,1,62.5,2|2,0:0|0:0,0:0:0:0:
430,283,81504,2,0,L|368:294,1,62.5,2|2,0:0|0:0,0:0:0:0:
295,343,81855,2,0,L|303:378,4,31.25,0|0|0|0|8,0:0|0:0|0:0|0:0|0:0,0:0:0:0:
194,200,82556,5,4,0:0:0:0:
164,118,82732,2,0,P|225:104|271:57,1,125,2|0,0:0|0:0,0:0:0:0:
347,24,83258,2,0,L|417:11,2,62.5,2|0|2,0:0|0:0|0:0,0:0:0:0:
339,112,83785,1,0,0:0:0:0:
411,161,83960,6,0,P|417:192|417:223,2,62.5,2|0|2,0:0|0:0|0:0,0:0:0:0:
339,112,84486,1,0,0:0:0:0:
326,199,84662,2,0,P|327:242|337:272,2,62.5,2|0|2,0:0|0:0|0:0,0:0:0:0:
183,98,85364,5,0,0:0:0:0:
117,157,85539,2,0,P|109:227|128:282,1,125,2|0,0:0|0:0,0:0:0:0:
176,350,86065,2,0,P|204:357|247:350,2,62.5,2|0|2,0:0|0:0|0:0,0:0:0:0:
212,270,86592,1,0,0:0:0:0:
278,214,86767,6,0,P|284:170|278:137,2,62.5,2|0|2,0:0|0:0|0:0,0:0:0:0:
212,270,87293,1,0,0:0:0:0:
198,184,87469,2,0,P|196:153|201:123,1,62.5,2|0,0:0|0:0,0:0:0:0:
235,41,87820,1,10,0:0:0:0:
334,185,88171,6,0,P|396:186|449:154,1,125,4|8,0:0|0:0,0:0:0:0:
450,66,88697,2,0,P|397:34|335:34,1,125
289,109,89223,1,8,0:0:0:0:
289,109,89399,6,0,L|280:238,1,125
130,323,90100,2,0,P|108:264|115:188,1,125
140,119,90627,2,0,P|159:88|183:64,1,62.5,8|0,0:0|0:0,0:0:0:0:
262,48,90978,5,12,0:0:0:0:
359,192,91328,1,0,0:0:0:0:
359,192,91504,1,12,0:0:0:0:
252,330,91855,1,12,0:0:0:0:
186,167,92206,1,12,0:0:0:0:
256,192,92293,12,0,93434,0:0:0:0:
