osu file format v14

[General]
AudioFilename: Meteor Impact.mp3
AudioLeadIn: 0
PreviewTime: 55714
Countdown: 0
SampleSet: Soft
StackLeniency: 0.7
Mode: 0
LetterboxInBreaks: 0
WidescreenStoryboard: 0

[Editor]
DistanceSpacing: 1.4
BeatDivisor: 4
GridSize: 8
TimelineZoom: 1

[Metadata]
Title:Meteor*Impact
TitleUnicode:めてお☆いんぱくと
Artist:MERURU (Tamura Yukari)
ArtistUnicode:メルル(田村ゆかり)
Creator:Doyak
Version:Easy
Source:俺の妹がこんなに可愛いわけがない
Tags:Oreimo Ore no Imouto ga Konna ni Kawaii Wake Nai My Little Sister Can't Be This Cute ED ending Stardust Witch Kurusu Kanako
BeatmapID:797775
BeatmapSetID:362996

[Difficulty]
HPDrainRate:3
CircleSize:3
OverallDifficulty:2
ApproachRate:2.5
SliderMultiplier:0.9
SliderTickRate:1

[Events]
//Background and Video events
0,0,"endcard.jpg",0,0
//Break Periods
//Storyboard Layer 0 (Background)
//Storyboard Layer 1 (Fail)
//Storyboard Layer 2 (Pass)
//Storyboard Layer 3 (Foreground)
//Storyboard Sound Samples

[TimingPoints]
5364,350.877192982456,4,2,1,50,1,0
10627,-100,4,2,1,70,0,0
22206,-100,4,2,1,60,0,0
32732,-100,4,2,1,70,0,0
33434,-100,4,2,1,60,0,0
47469,-100,4,2,1,50,0,0
53609,-100,4,2,1,55,0,0
54135,-100,4,2,1,60,0,0
54662,-100,4,2,1,65,0,0
55890,-100,4,2,1,80,0,1
72732,-100,4,2,1,65,0,0
75539,-100,4,2,1,80,0,1
81153,-100,4,2,2,80,0,1
82206,-100,4,2,1,70,0,0
82556,-100,4,2,1,50,0,0
87820,-100,4,2,1,70,0,0

[Colours]
Combo1 : 21,223,72
Combo2 : 255,81,255
Combo3 : 234,228,21
Combo4 : 21,194,232

[HitObjects]
388,238,5363,6,0,P|312:305|238:302,1,180,2|2,0:0|0:0,0:0:0:0:
182,230,6416,1,0,0:0:0:0:
126,158,6767,2,0,P|86:162|38:147,2,90,2|0|2,0:0|0:0|0:0,0:0:0:0:
195,99,7820,1,0,0:0:0:0:
273,54,8171,6,0,L|288:234,1,180,2|2,0:0|0:0,0:0:0:0:
363,281,9223,1,0,0:0:0:0:
446,246,9574,2,0,P|468:196|469:158,1,90,2|0,0:0|0:0,0:0:0:0:
406,97,10276,2,0,P|383:146|382:184,1,90,2|8,0:0|0:0,0:0:0:0:
327,253,10978,6,0,P|263:298|161:280,1,180,4|0,0:0|0:0,0:0:0:0:
82,252,12030,1,8,0:0:0:0:
35,174,12381,2,0,P|25:115|45:32,2,135,0|2|8,0:0|0:0|0:0,0:0:0:0:
82,252,13785,6,0,L|97:346,1,90,0|8,0:0|0:0,0:0:0:0:
178,301,14486,2,0,P|225:281|272:287,1,90,0|8,0:0|0:0,0:0:0:0:
315,210,15188,2,0,P|338:158|321:80,2,135,0|2|8,0:0|0:0|0:0,0:0:0:0:
225,200,16592,6,0,P|185:230|172:284,1,90,4|8,0:0|0:0,0:0:0:0:
262,283,17293,2,0,P|308:302|361:286,1,90,0|8,0:0|0:0,0:0:0:0:
415,237,17995,2,0,L|444:376,2,135,0|2|8,0:0|0:0|0:0,0:0:0:0:
364,162,19399,6,0,P|383:89|429:49,2,135,12|12|12,0:0|0:0|0:0,0:0:0:0:
314,287,20978,2,0,L|174:266,1,135,12|12,0:0|0:0,0:0:0:0:
142,185,21855,1,8,0:0:0:0:
189,108,22206,6,0,P|258:42|350:36,2,180,4|0|0,0:0|0:0|0:0,0:0:0:0:
142,185,23960,1,8,0:0:0:0:
199,254,24311,2,0,P|207:301|202:342,1,90,0|8,0:0|0:0,0:0:0:0:
113,361,25013,6,0,P|63:288|64:192,2,180
201,342,26767,1,8,0:0:0:0:
243,262,27118,2,0,P|267:224|305:199,1,90,0|8,0:0|0:0,0:0:0:0:
365,133,27820,6,0,P|392:218|333:285,2,180
337,47,29574,2,0,P|385:48|428:31,2,90,8|0|8,0:0|0:0|0:0,0:0:0:0:
250,22,30627,6,0,L|233:209,1,180
193,282,31679,1,8,0:0:0:0:
275,318,32030,2,0,P|321:324|368:359,2,90,0|8|12,0:0|0:0|0:0,0:0:0:0:
202,372,33083,1,12,0:0:0:0:
121,331,33434,6,0,P|99:243|130:147,2,180,4|0|0,0:0|0:0|0:0,0:0:0:0:
202,372,35188,2,0,L|225:279,1,90,8|0,0:0|0:0,0:0:0:0:
302,122,36241,6,0,P|365:189|458:197,1,180
424,66,37469,2,0,P|460:35|506:22,2,90,4|4|4,0:0|0:0|0:0,0:0:0:0:
302,122,38697,2,0,P|255:118|210:94,1,90,0|4,0:0|0:0,0:0:0:0:
65,196,39749,6,0,L|80:289,1,90,0|8,0:0|0:0,0:0:0:0:
155,332,40451,2,0,P|236:346|295:325,2,135,4|6|8,0:0|0:0|0:0,0:0:0:0:
201,254,41855,6,0,P|235:183|225:83,2,180,4|0|4,0:0|0:0|0:0,0:0:0:0:
146,325,43609,1,8,0:0:0:0:
69,279,43960,2,0,L|83:179,1,90,0|8,0:0|0:0,0:0:0:0:
151,132,44662,6,0,P|248:169|321:153,2,180,4|0|0,0:0|0:0|0:0,0:0:0:0:
66,101,46416,2,0,P|53:54|29:18,2,90,8|0|8,0:0|0:0|0:0,0:0:0:0:
81,190,47469,5,4,0:0:0:0:
258,221,48171,2,0,P|346:191|407:257,2,180,8|0|8,0:0|0:0|0:0,0:0:0:0:
403,115,50276,5,0,0:0:0:0:
326,277,50978,2,0,P|391:329|478:283,2,180,8|0|8,0:0|0:0|0:0,0:0:0:0:
173,179,53083,6,0,P|163:108|123:51,2,135,12|12|12,0:0|0:0|0:0,0:0:0:0:
225,303,54662,2,0,P|296:293|353:253,1,135,12|12,0:0|0:0,0:0:0:0:
394,181,55539,1,12,0:0:0:0:
414,93,55890,6,0,P|465:102|505:99,2,90,4|8|0,0:0|0:0|0:0,0:0:0:0:
339,43,56942,1,8,0:0:0:0:
272,104,57293,2,0,P|258:178|218:235,2,135,0|2|8,0:0|0:0|0:0,0:0:0:0:
197,53,58697,6,0,P|147:75|99:80,1,90,0|8,0:0|0:0,0:0:0:0:
75,162,59399,2,0,P|86:210|111:254,1,90,0|8,0:0|0:0,0:0:0:0:
187,280,60100,2,0,P|282:267|364:304,1,180,0|8,0:0|0:0,0:0:0:0:
193,374,61504,6,0,P|141:352|112:316,1,90,4|8,0:0|0:0,0:0:0:0:
104,245,62206,2,0,P|116:191|147:156,1,90,0|8,0:0|0:0,0:0:0:0:
212,116,62907,2,0,P|306:122|371:71,1,180,0|8,0:0|0:0,0:0:0:0:
466,224,64311,6,0,L|458:322,2,90,4|8|0,0:0|0:0|0:0,0:0:0:0:
409,101,65539,2,0,P|350:154|332:210,1,135,4|8,0:0|0:0,0:0:0:0:
288,282,66416,2,0,P|240:286|195:268,1,90,12|12,0:0|0:0,0:0:0:0:
125,223,67118,6,0,L|106:324,2,90,4|8|0,0:0|0:0|0:0,0:0:0:0:
165,142,68171,1,8,0:0:0:0:
243,97,68521,2,0,P|319:77|363:29,2,135,0|2|8,0:0|0:0|0:0,0:0:0:0:
163,52,69925,6,0,P|120:61|81:83,1,90,4|8,0:0|0:0,0:0:0:0:
116,166,70627,2,0,P|102:208|102:253,1,90,4|8,0:0|0:0,0:0:0:0:
179,299,71328,2,0,P|246:288|330:358,1,180,4|12,0:0|0:0,0:0:0:0:
409,314,72381,1,12,0:0:0:0:
464,243,72732,6,0,L|427:60,1,180,4|0,0:0|0:0,0:0:0:0:
342,37,73785,1,8,0:0:0:0:
273,94,74135,2,0,P|203:95|144:58,2,135,0|2|8,0:0|0:0|0:0,0:0:0:0:
325,167,75539,6,0,L|315:270,1,90,12|8,0:0|0:0,0:0:0:0:
230,284,76241,2,0,L|238:194,1,90,8|8,0:0|0:0,0:0:0:0:
177,128,76942,6,0,P|133:134|86:120,2,90,12|8|8,0:0|0:0|0:0,0:0:0:0:
237,61,77995,1,8,0:0:0:0:
315,105,78346,2,0,P|358:117|402:111,1,90,12|8,0:0|0:0,0:0:0:0:
487,82,79048,2,0,L|480:171,1,90,8|8,0:0|0:0,0:0:0:0:
394,200,79749,6,0,P|340:298|471:307,1,270,12|8,0:0|0:0,0:0:0:0:
510,250,81153,1,2,0:0:0:0:
490,162,81504,1,2,0:0:0:0:
425,98,81855,2,0,L|335:107,1,90,0|8,0:0|0:0,0:0:0:0:
279,36,82556,6,0,P|245:112|296:189,1,180,6|2,0:0|0:0,0:0:0:0:
367,238,83609,1,0,0:0:0:0:
455,252,83960,2,0,L|465:160,2,90,2|0|2,0:0|0:0|0:0,0:0:0:0:
398,322,85013,1,0,0:0:0:0:
309,305,85363,6,0,P|221:289|155:345,1,180,2|2,0:0|0:0,0:0:0:0:
65,346,86416,1,0,0:0:0:0:
30,263,86767,2,0,P|22:216|26:169,1,90,2|0,0:0|0:0,0:0:0:0:
100,124,87469,2,0,P|108:171|104:218,1,90,2|8,0:0|0:0,0:0:0:0:
175,268,88171,6,0,P|253:260|320:336,2,180,4|0|0,0:0|0:0|0:0,0:0:0:0:
104,212,89925,1,8,0:0:0:0:
128,125,90276,2,0,P|158:85|197:67,1,90,0|8,0:0|0:0,0:0:0:0:
274,29,90978,6,0,L|308:173,1,135,12|12,0:0|0:0,0:0:0:0:
325,247,91855,1,12,0:0:0:0:
257,306,92206,2,0,P|139:289|234:170,1,315,12|0,0:0|0:0,0:0:0:0:
