osu file format v14

[General]
AudioFilename: audio.mp3
AudioLeadIn: 0
PreviewTime: 48336
Countdown: 0
SampleSet: Soft
StackLeniency: 0.5
Mode: 0
LetterboxInBreaks: 0
WidescreenStoryboard: 1

[Editor]
Bookmarks: 10724,20324,29924,39524,49124,58724,66974,68324,73124,77924,79124,81374,82724,87524,97124,99524,101924,105524,106724,116324,125924,132974,135524,140324,143024,145124,148724,149924,154724,157124,159524,164324,169124,178724,183524,185924,188174,189374
DistanceSpacing: 0.6
BeatDivisor: 4
GridSize: 32
TimelineZoom: 1.9

[Metadata]
Title:Nijimu Sabiiro
TitleUnicode:滲む錆色
Artist:MEMAI SIREN
ArtistUnicode:眩暈SIREN
Creator:Lasse
Version:Resolve
Source:spinoid
Tags:japanese pop rock
BeatmapID:2196372
BeatmapSetID:1050914

[Difficulty]
HPDrainRate:6
CircleSize:4.2
OverallDifficulty:8.7
ApproachRate:9.2
SliderMultiplier:1.76
SliderTickRate:1

[Events]
//Background and Video events
0,0,"d.jpg",0,0
//Break Periods
2,125974,132404
//Storyboard Layer 0 (Background)
//Storyboard Layer 1 (Fail)
//Storyboard Layer 2 (Pass)
//Storyboard Layer 3 (Foreground)
//Storyboard Layer 4 (Overlay)
//Storyboard Sound Samples

[TimingPoints]
1124,300,4,2,23,45,1,0
1124,-100,4,2,23,45,0,0
5924,-100,4,2,23,50,0,0
8924,-100,4,2,1,50,0,0
9224,-100,4,2,23,50,0,0
9374,-100,4,2,1,50,0,0
10574,-166.666666666667,4,2,23,55,0,0
10724,-100,4,2,1,64,0,0
16424,-100,4,2,23,60,0,0
16574,-83.3333333333333,4,2,1,64,0,0
16799,-83.3333333333333,4,2,1,44,0,0
16874,-100,4,2,1,64,0,0
18974,-83.3333333333333,4,2,1,64,0,0
19274,-83.3333333333333,4,2,1,58,0,0
19424,-100,4,2,1,60,0,0
19574,-100,4,2,23,58,0,0
19724,-100,4,2,1,60,0,0
19874,-100,4,2,1,58,0,0
20024,-100,4,2,1,56,0,0
20174,-100,4,2,1,54,0,0
20324,-133.333333333333,4,2,23,58,0,0
20474,-133.333333333333,4,2,23,54,0,0
20624,-133.333333333333,4,2,1,54,0,0
20661,-133.333333333333,4,2,1,5,0,0
21224,-133.333333333333,4,2,1,54,0,0
21261,-133.333333333333,4,2,1,5,0,0
21824,-133.333333333333,4,2,1,54,0,0
21861,-133.333333333333,4,2,1,5,0,0
22424,-133.333333333333,4,2,1,54,0,0
22461,-133.333333333333,4,2,1,5,0,0
22724,-133.333333333333,4,2,23,54,0,0
23024,-133.333333333333,4,2,1,54,0,0
23061,-133.333333333333,4,2,1,5,0,0
23624,-133.333333333333,4,2,1,54,0,0
23661,-133.333333333333,4,2,1,5,0,0
24224,-133.333333333333,4,2,1,54,0,0
24261,-133.333333333333,4,2,1,5,0,0
24824,-133.333333333333,4,2,1,54,0,0
24861,-133.333333333333,4,2,1,5,0,0
25124,-133.333333333333,4,2,23,54,0,0
25424,-133.333333333333,4,2,1,54,0,0
25461,-133.333333333333,4,2,1,5,0,0
26024,-133.333333333333,4,2,1,54,0,0
26061,-133.333333333333,4,2,1,5,0,0
26324,-133.333333333333,4,2,23,54,0,0
26624,-133.333333333333,4,2,1,54,0,0
26661,-133.333333333333,4,2,1,5,0,0
27224,-133.333333333333,4,2,1,54,0,0
27261,-133.333333333333,4,2,1,5,0,0
27374,-133.333333333333,4,2,23,54,0,0
27824,-133.333333333333,4,2,1,54,0,0
27861,-133.333333333333,4,2,1,5,0,0
28424,-133.333333333333,4,2,1,54,0,0
28461,-133.333333333333,4,2,1,5,0,0
28724,-166.666666666667,4,2,1,40,0,0
28874,-166.666666666667,4,2,1,35,0,0
29024,-133.333333333333,4,2,1,64,0,0
29061,-133.333333333333,4,2,1,5,0,0
29474,-133.333333333333,4,2,23,50,0,0
29624,-117.647058823529,4,2,1,44,0,0
29924,-117.647058823529,4,2,1,56,0,0
34649,-117.647058823529,4,2,1,20,0,0
34724,-117.647058823529,4,2,1,56,0,0
36974,-117.647058823529,4,2,1,46,0,0
37124,-100,4,2,1,58,0,0
37349,-100,4,2,1,20,0,0
37424,-100,4,2,1,58,0,0
38549,-100,4,2,1,20,0,0
38624,-100,4,2,1,58,0,0
39524,-100,4,2,1,56,0,0
42974,-166.666666666667,4,2,1,56,0,0
43274,-166.666666666667,4,2,23,50,0,0
43424,-166.666666666667,4,2,1,50,0,0
43724,-100,4,2,23,56,0,0
43874,-100,4,2,1,56,0,0
44024,-100,4,2,23,56,0,0
44174,-100,4,2,1,56,0,0
44324,-100,4,2,1,58,0,0
45749,-100,4,2,1,20,0,0
45824,-100,4,2,1,58,0,0
46724,-100,4,2,1,60,0,0
47024,-100,4,2,1,62,0,0
47324,-100,4,2,1,64,0,0
47624,-100,4,2,1,66,0,0
48974,-133.333333333333,4,2,1,58,0,0
49124,-83.3333333333333,4,2,1,74,0,1
49349,-83.3333333333333,4,2,1,45,0,1
49424,-83.3333333333333,4,2,1,74,0,1
54149,-83.3333333333333,4,2,1,45,0,1
54224,-83.3333333333333,4,2,1,74,0,1
56549,-83.3333333333333,4,2,1,45,0,1
56624,-83.3333333333333,4,2,1,74,0,1
57674,-83.3333333333333,4,2,1,60,0,1
58124,-83.3333333333333,4,2,1,65,0,1
58424,-83.3333333333333,4,2,1,68,0,0
58724,-83.3333333333333,4,2,1,70,0,1
58949,-83.3333333333333,4,2,1,45,0,1
59024,-83.3333333333333,4,2,1,70,0,1
62924,-100,4,2,1,64,0,0
63224,-100,4,2,1,62,0,0
63524,-100,4,2,1,60,0,1
63824,-100,4,2,1,60,0,0
65924,-66.6666666666667,4,2,1,65,0,1
66074,-66.6666666666667,4,2,1,40,0,0
66224,-76.9230769230769,4,2,1,65,0,1
66374,-76.9230769230769,4,2,1,40,0,0
66524,-83.3333333333333,4,2,1,65,0,1
66674,-83.3333333333333,4,2,1,40,0,0
66824,-90.9090909090909,4,2,1,65,0,1
66974,-90.9090909090909,4,2,1,40,0,0
67724,-153.846153846154,4,2,1,50,0,0
67874,-153.846153846154,4,2,1,30,0,0
68174,-153.846153846154,4,2,1,36,0,0
68324,-125,4,2,1,54,0,0
72674,-125,4,2,1,56,0,0
72824,-125,4,2,1,58,0,0
73124,-100,4,2,1,60,0,0
76574,-100,4,2,1,58,0,0
76724,-100,4,2,1,56,0,0
77024,-100,4,2,1,54,0,0
77324,-100,4,2,1,52,0,0
77624,-100,4,2,1,50,0,0
79124,-333.333333333333,4,2,23,54,0,0
80624,-333.333333333333,4,2,1,48,0,0
81374,-166.666666666667,4,2,1,54,0,0
81524,-166.666666666667,4,2,1,50,0,0
81674,-166.666666666667,4,2,1,56,0,0
82124,-142.857142857143,4,2,1,50,0,0
82274,-142.857142857143,4,2,1,54,0,0
82574,-142.857142857143,4,2,1,46,0,0
82724,-125,4,2,23,52,0,0
86924,-125,4,2,23,54,0,0
87524,-111.111111111111,4,2,23,56,0,0
87824,-111.111111111111,4,2,1,56,0,0
89474,-111.111111111111,4,2,23,56,0,0
89624,-111.111111111111,4,2,1,56,0,0
89924,-111.111111111111,4,2,23,56,0,0
90224,-111.111111111111,4,2,1,56,0,0
90374,-111.111111111111,4,2,23,56,0,0
90524,-111.111111111111,4,2,1,56,0,0
90674,-111.111111111111,4,2,23,56,0,0
90824,-111.111111111111,4,2,1,56,0,0
91874,-111.111111111111,4,2,23,56,0,0
92024,-111.111111111111,4,2,1,56,0,0
92324,-111.111111111111,4,2,23,56,0,0
92624,-111.111111111111,4,2,1,56,0,0
92774,-111.111111111111,4,2,23,56,0,0
92924,-111.111111111111,4,2,1,56,0,0
94274,-111.111111111111,4,2,23,56,0,0
94424,-111.111111111111,4,2,1,56,0,0
94724,-111.111111111111,4,2,23,56,0,0
95024,-111.111111111111,4,2,1,56,0,0
95174,-111.111111111111,4,2,23,56,0,0
95324,-111.111111111111,4,2,1,56,0,0
96674,-111.111111111111,4,2,23,58,0,0
96824,-111.111111111111,4,2,1,60,0,0
97124,-100,4,2,1,58,0,0
99524,-200,4,2,1,50,0,0
99824,-200,4,2,1,40,0,0
100424,-200,4,2,1,50,0,0
100724,-200,4,2,1,40,0,0
100874,-111.111111111111,4,2,1,54,0,0
101024,-111.111111111111,4,2,1,58,0,0
101174,-111.111111111111,4,2,1,50,0,0
101249,-111.111111111111,4,2,1,54,0,0
101324,-111.111111111111,4,2,1,58,0,0
101474,-111.111111111111,4,2,1,50,0,0
101624,-111.111111111111,4,2,1,56,0,0
101924,-93.4579439252336,4,2,1,58,0,0
104324,-93.4579439252336,4,2,1,60,0,0
104549,-93.4579439252336,4,2,1,20,0,0
104624,-93.4579439252336,4,2,1,58,0,0
104774,-93.4579439252336,4,2,1,54,0,0
104924,-93.4579439252336,4,2,1,56,0,0
105224,-93.4579439252336,4,2,1,58,0,0
105524,-200,4,2,1,46,0,0
106124,-200,4,2,1,38,0,0
106274,-200,4,2,1,44,0,0
106574,-200,4,2,1,36,0,0
106724,-166.666666666667,4,2,1,60,0,1
115724,-166.666666666667,4,2,1,60,0,0
116324,-142.857142857143,4,2,1,62,0,1
123449,-142.857142857143,4,2,1,62,0,0
123524,-200,4,2,1,64,0,1
123674,-200,4,2,23,64,0,1
123824,-200,4,2,23,64,0,0
123974,-166.666666666666,4,2,1,66,0,1
124274,-166.666666666666,4,2,1,66,0,0
124424,-142.857142857143,4,2,1,68,0,1
124724,-142.857142857143,4,2,23,68,0,0
124874,-125,4,2,1,70,0,1
125024,-125,4,2,23,70,0,1
125174,-125,4,2,23,70,0,0
125324,-125,4,2,1,70,0,1
125924,-200,4,2,1,50,0,0
132974,-166.666666666667,4,2,1,46,0,0
133124,-166.666666666667,4,2,1,10,0,0
134024,-166.666666666667,4,2,1,42,0,0
134174,-166.666666666667,4,2,1,46,0,0
134324,-166.666666666667,4,2,1,42,0,0
134924,-166.666666666667,4,2,1,46,0,0
135224,-166.666666666667,4,2,1,44,0,0
135524,-111.111111111111,4,2,23,60,0,0
135749,-111.111111111111,4,2,23,5,0,0
135824,-111.111111111111,4,2,23,60,0,0
136049,-111.111111111111,4,2,23,5,0,0
136124,-111.111111111111,4,2,23,60,0,0
136349,-111.111111111111,4,2,23,5,0,0
136424,-111.111111111111,4,2,23,60,0,0
136649,-111.111111111111,4,2,23,5,0,0
136724,-111.111111111111,4,2,23,60,0,0
136949,-111.111111111111,4,2,23,5,0,0
137024,-111.111111111111,4,2,23,60,0,0
137174,-111.111111111111,4,2,1,60,0,0
137324,-111.111111111111,4,2,23,60,0,0
137549,-111.111111111111,4,2,23,5,0,0
137624,-111.111111111111,4,2,23,60,0,0
137849,-111.111111111111,4,2,23,5,0,0
137924,-111.111111111111,4,2,23,60,0,0
138149,-111.111111111111,4,2,23,5,0,0
138224,-111.111111111111,4,2,23,60,0,0
138449,-111.111111111111,4,2,23,5,0,0
138524,-111.111111111111,4,2,23,60,0,0
138749,-111.111111111111,4,2,23,5,0,0
138824,-111.111111111111,4,2,23,60,0,0
139049,-111.111111111111,4,2,23,5,0,0
139124,-111.111111111111,4,2,23,60,0,0
139349,-111.111111111111,4,2,23,5,0,0
139424,-111.111111111111,4,2,23,60,0,0
139649,-111.111111111111,4,2,23,5,0,0
139724,-111.111111111111,4,2,23,60,0,0
139949,-111.111111111111,4,2,23,5,0,0
140024,-111.111111111111,4,2,23,60,0,0
140174,-111.111111111111,4,2,23,56,0,0
140249,-111.111111111111,4,2,23,58,0,0
140324,-100,4,2,23,60,0,0
140549,-100,4,2,23,5,0,0
140624,-100,4,2,23,60,0,0
140849,-100,4,2,23,5,0,0
140924,-100,4,2,23,60,0,0
141149,-100,4,2,23,5,0,0
141224,-100,4,2,23,60,0,0
141449,-100,4,2,23,5,0,0
141524,-100,4,2,23,60,0,0
141749,-100,4,2,23,5,0,0
141824,-100,4,2,23,60,0,0
142049,-100,4,2,23,5,0,0
142124,-100,4,2,23,60,0,0
142424,-100,4,2,1,60,0,0
142574,-100,4,2,23,60,0,0
142724,-100,4,2,1,62,0,0
142874,-100,4,2,1,58,0,0
143024,-100,4,2,1,62,0,0
143174,-100,4,2,1,58,0,0
143324,-100,4,2,23,60,0,0
143624,-100,4,2,23,62,0,0
143924,-100,4,2,1,64,0,0
144224,-100,4,2,1,66,0,0
144524,-100,4,2,1,68,0,0
144824,-100,4,2,1,70,0,0
145124,-142.857142857143,4,2,1,64,0,0
147074,-142.857142857143,4,2,1,60,0,0
147224,-142.857142857143,4,2,1,66,0,0
147524,-142.857142857143,4,2,23,64,0,0
147674,-142.857142857143,4,2,1,62,0,0
147974,-142.857142857143,4,2,1,60,0,0
149924,-166.666666666667,4,2,1,64,0,0
151724,-166.666666666667,4,2,1,62,0,0
151874,-166.666666666667,4,2,1,66,0,0
152174,-166.666666666667,4,2,1,56,0,0
152324,-142.857142857143,4,2,1,64,0,0
152624,-142.857142857143,4,2,1,60,0,0
152924,-142.857142857143,4,2,1,64,0,0
153224,-142.857142857143,4,2,1,60,0,0
153524,-125,4,2,1,66,0,0
153674,-125,4,2,1,60,0,0
154724,-222.222222222222,4,2,1,40,0,0
154874,-222.222222222222,4,2,1,5,0,0
155624,-222.222222222222,4,2,1,32,0,0
155924,-181.818181818182,4,2,1,42,0,0
156074,-181.818181818182,4,2,1,5,0,0
156524,-181.818181818182,4,2,1,30,0,0
156824,-181.818181818182,4,2,1,32,0,0
157124,-166.666666666667,4,2,1,44,0,0
157424,-166.666666666667,4,2,1,20,0,0
157724,-166.666666666667,4,2,1,25,0,0
158024,-166.666666666667,4,2,1,30,0,0
158324,-166.666666666667,4,2,23,60,0,0
158624,-166.666666666667,4,2,23,62,0,0
158924,-166.666666666667,4,2,23,64,0,0
159224,-166.666666666667,4,2,23,68,0,0
159524,-76.9230769230769,4,2,1,76,0,1
159749,-76.9230769230769,4,2,1,45,0,1
159824,-76.9230769230769,4,2,1,76,0,1
163874,-76.9230769230769,4,2,1,74,0,1
164024,-76.9230769230769,4,2,1,72,0,0
164324,-125,4,2,1,70,0,1
164624,-125,4,2,1,20,0,1
164774,-125,4,2,1,64,0,0
165224,-125,4,2,1,60,0,0
165524,-125,4,2,1,62,0,0
166424,-125,4,2,1,60,0,0
166724,-125,4,2,1,64,0,0
167024,-125,4,2,1,20,0,0
167174,-125,4,2,1,62,0,0
167624,-200,4,2,1,62,0,0
167924,-200,4,2,23,50,0,0
168224,-200,4,2,23,45,0,0
168524,-200,4,2,23,60,0,0
168599,-200,4,2,23,61,0,0
168674,-200,4,2,23,62,0,0
168749,-200,4,2,23,63,0,0
168824,-200,4,2,23,64,0,0
168974,-200,4,2,23,68,0,0
169124,-71.4285714285714,4,2,1,76,0,1
174599,-71.4285714285714,4,2,1,45,0,1
174674,-71.4285714285714,4,2,1,76,0,1
178274,-71.4285714285714,4,2,1,74,0,1
178349,-71.4285714285714,4,2,1,72,0,1
178424,-71.4285714285714,4,2,1,70,0,0
178499,-71.4285714285714,4,2,1,68,0,0
178574,-71.4285714285714,4,2,1,66,0,0
178649,-71.4285714285714,4,2,1,64,0,0
178724,-125,4,2,1,66,0,0
183224,-100,4,2,1,68,0,0
183524,-83.3333333333333,4,2,1,74,0,1
185624,-83.3333333333333,4,2,1,74,0,0
185924,-71.4285714285714,4,2,1,76,0,1
186074,-71.4285714285714,4,2,1,74,0,0
186374,-71.4285714285714,4,2,1,78,0,1
186524,-71.4285714285714,4,2,1,76,0,0
186824,-71.4285714285714,4,2,1,80,0,1
186974,-71.4285714285714,4,2,1,78,0,0
187124,-71.4285714285714,4,2,1,76,0,1
187574,-71.4285714285714,4,2,1,74,0,1
187724,-71.4285714285714,4,2,1,74,0,0
187874,-71.4285714285714,4,2,1,72,0,0
188024,-71.4285714285714,4,2,1,70,0,0
188174,-250,4,2,1,76,0,1
188249,-250,4,2,1,76,0,0

[Colours]
Combo1 : 250,190,230
Combo2 : 130,200,230
Combo3 : 255,230,140
Combo4 : 170,245,170

[HitObjects]
139,47,1124,5,14,0:1:0:0:
226,253,1424,1,8,0:0:0:0:
226,253,1874,1,8,0:0:0:0:
320,65,2324,5,10,0:1:0:0:
268,324,2624,1,8,0:0:0:0:
324,379,2924,1,10,0:1:0:0:
268,324,3074,1,8,0:0:0:0:
432,175,3524,5,10,0:1:0:0:
226,253,3824,1,10,0:0:0:0:
155,239,4124,1,2,0:0:0:0:
226,253,4274,1,8,0:2:0:0:
187,268,4424,1,2,0:0:0:0:
134,55,4724,5,10,0:1:0:0:
187,268,5024,1,8,0:0:0:0:
165,309,5174,1,2,0:0:0:0:
187,268,5474,1,8,0:0:0:0:
187,357,5624,1,2,0:0:0:0:
1,175,5924,5,14,0:1:0:0:
187,268,6224,1,10,0:0:0:0:
350,121,6524,1,10,0:1:0:0:
271,107,6674,1,8,0:0:0:0:
356,137,6824,1,10,0:1:0:0:
224,3,7124,5,10,0:1:0:0:
176,246,7424,1,10,0:0:0:0:
116,115,7724,1,10,0:1:0:0:
187,132,7874,1,8,0:0:0:0:
112,99,8024,1,10,0:1:0:0:
35,4,8249,1,8,0:0:0:0:
35,4,8324,5,14,0:1:0:0:
23,210,8624,1,10,0:1:0:0:
182,309,8924,1,10,0:3:0:0:
251,279,9074,1,4,0:3:0:0:
163,231,9224,1,10,0:1:0:0:
136,382,9374,1,8,0:0:0:0:
508,58,10574,2,0,L|465:50,1,26.399999194336,8|8,0:1|0:1,0:0:0:0:
421,1,10724,6,0,P|433:41|410:77,1,88,14|0,0:0|0:0,0:0:0:0:
254,202,11024,2,0,P|230:166|243:125,1,88,10|0,0:0|0:0,0:0:0:0:
424,196,11324,1,10,0:0:0:0:
352,260,11474,1,8,0:1:0:0:
483,319,11624,1,10,0:0:0:0:
400,353,11774,1,8,0:1:0:0:
397,361,11849,1,8,0:1:0:0:
393,369,11924,6,0,B|360:363|360:363|342:367|342:367|298:359,1,88,10|8,0:0|0:1,0:0:0:0:
212,178,12224,2,0,B|245:172|245:172|263:176|263:176|307:168,1,88,10|8,0:0|0:1,0:0:0:0:
206,360,12524,1,10,0:0:0:0:
167,269,12674,1,8,0:1:0:0:
45,367,12824,1,10,0:0:0:0:
76,270,12974,1,8,2:0:0:0:
74,261,13049,1,8,2:0:0:0:
72,252,13124,5,10,0:0:0:0:
213,192,13274,1,8,0:1:0:0:
37,133,13424,5,14,0:0:0:0:
201,184,13574,1,8,0:1:0:0:
92,27,13724,5,10,0:0:0:0:
186,176,13874,1,8,0:1:0:0:
279,27,14024,1,8,0:0:0:0:
355,215,14174,6,0,P|333:164|354:101,1,88,10|8,0:1|0:0,0:0:0:0:
512,28,14474,1,10,0:1:0:0:
398,0,14624,1,10,0:0:0:0:
468,160,14774,5,8,0:0:0:0:
478,152,14849,1,8,0:0:0:0:
485,141,14924,1,10,0:1:0:0:
329,45,15074,5,8,0:0:0:0:
322,57,15149,1,8,0:0:0:0:
313,63,15224,1,8,0:0:0:0:
292,46,15299,1,8,0:3:0:0:
266,40,15374,1,8,0:3:0:0:
241,49,15449,1,8,0:3:0:0:
222,67,15524,6,0,B|188:54|188:54|180:38|180:38|141:24,1,88,14|0,0:1|0:0,0:0:0:0:
0,142,15824,1,10,0:0:0:0:
67,17,15974,1,8,0:3:0:0:
67,17,16049,1,8,0:3:0:0:
67,17,16124,1,6,0:3:0:0:
166,178,16274,2,0,P|196:182|257:143,1,88,10|8,0:3|0:1,0:0:0:0:
410,33,16574,6,0,B|397:18|375:18|375:18|365:87|410:145,1,158.399995166016,14|0,0:0|0:0,0:0:0:0:
459,180,16874,2,0,P|475:217|461:266,1,88,10|8,0:1|0:0,0:0:0:0:
345,384,17174,2,0,L|312:277,1,88,2|8,0:0|0:1,0:0:0:0:
228,180,17474,1,10,0:1:0:0:
103,384,17624,1,14,0:0:0:0:
103,384,17924,5,14,0:1:0:0:
207,322,18074,1,8,0:1:0:0:
20,257,18224,5,10,0:0:0:0:
149,251,18374,1,8,0:1:0:0:
8,118,18524,5,10,0:0:0:0:
144,159,18674,1,8,0:1:0:0:
217,15,18824,1,8,0:1:0:0:
315,117,18974,6,0,B|373:191|455:128|455:128|445:102|420:92,1,211.199993554688,14|8,0:0|0:1,0:0:0:0:
292,220,19424,1,8,0:0:0:0:
345,338,19574,1,8,0:1:0:0:
345,338,19649,1,8,0:1:0:0:
345,338,19724,2,0,B|361:354|383:350|383:350|374:328|350:322,1,88,10|4,0:3|0:3,0:0:0:0:
206,261,20024,2,0,B|190:277|167:273|167:273|177:251|200:245,1,88,10|0,0:0|0:0,0:0:0:0:
296,224,20324,5,12,0:1:0:0:
296,224,20474,1,8,0:1:0:0:
201,245,20624,6,0,L|174:240,1,16.5000006294251,8|0,0:0|0:0,0:0:0:0:
279,22,21224,2,0,L|254:15,1,16.5000006294251,8|0,0:0|0:0,0:0:0:0:
378,243,21824,2,0,L|353:249,1,16.5000006294251,8|0,0:0|0:0,0:0:0:0:
449,30,22424,2,0,L|433:22,1,16.5000006294251,8|0,0:0|0:0,0:0:0:0:
494,234,22724,5,8,0:1:0:0:
494,234,22874,1,8,0:1:0:0:
423,140,23024,6,0,L|421:165,1,16.5000006294251,8|0,0:0|0:0,0:0:0:0:
326,366,23624,2,0,L|322:341,1,16.5000006294251,8|0,0:0|0:0,0:0:0:0:
199,45,24224,2,0,L|201:69,1,16.5000006294251,8|0,0:0|0:0,0:0:0:0:
141,372,24824,2,0,L|137:353,1,16.5000006294251,8|0,0:0|0:0,0:0:0:0:
0,182,25124,5,8,0:1:0:0:
0,182,25274,1,8,0:1:0:0:
75,108,25424,6,0,L|50:104,1,16.5000006294251,8|0,0:0|0:0,0:0:0:0:
209,285,26024,2,0,L|190:288,1,16.5000006294251,8|0,0:0|0:0,0:0:0:0:
368,70,26324,5,8,0:1:0:0:
368,70,26474,1,8,0:1:0:0:
293,19,26624,6,0,L|276:15,1,16.5000006294251,8|0,0:0|0:0,0:0:0:0:
396,263,27224,2,0,L|379:267,1,16.5000006294251,8|0,0:0|0:0,0:0:0:0:
448,199,27374,5,8,0:1:0:0:
448,199,27524,1,8,0:1:0:0:
276,15,27824,6,0,L|279:44,1,16.5000006294251,8|0,0:0|0:0,0:0:0:0:
186,305,28424,2,0,L|179:285,1,16.5000006294251,8|0,0:0|0:0,0:0:0:0:
255,143,28724,6,0,P|302:122|318:121,1,52.7999983886719,2|0,0:0|0:0,0:0:0:0:
379,152,29024,6,0,L|389:173,1,16.5000006294251,8|0,0:0|0:0,0:0:0:0:
512,0,29474,5,8,0:1:0:0:
458,56,29624,5,10,0:0:0:0:
451,59,29699,1,2,0:0:0:0:
443,60,29774,1,2,0:0:0:0:
435,59,29849,1,2,0:0:0:0:
428,55,29924,6,0,P|388:33|345:32,1,74.8000014266968,14|8,0:1|0:1,0:0:0:0:
257,128,30224,2,0,P|256:190|350:203,1,149.600002853394,10|0,0:0|0:0,0:0:0:0:
401,184,30674,1,8,0:1:0:0:
454,301,30824,2,0,P|432:274|388:269,1,74.8000014266968,10|0,0:0|0:0,0:0:0:0:
256,349,31124,6,0,B|224:376|224:376|112:361,2,149.600002853394,10|8|0,0:1|0:0|0:0,0:0:0:0:
313,295,31874,1,8,0:1:0:0:
243,198,32024,2,0,P|226:163|237:112,1,74.8000014266968,10|0,0:0|0:0,0:0:0:0:
409,19,32324,6,0,P|422:85|354:145,1,149.600002853394,10|8,0:1|0:0,0:0:0:0:
186,140,32774,2,0,P|168:189|246:191,1,149.600002853394,2|8,0:0|0:1,0:0:0:0:
280,105,33224,2,0,P|263:74|275:29,1,74.8000014266968,10|0,0:0|0:0,0:0:0:0:
374,0,33524,5,8,0:1:0:0:
374,0,33674,1,8,0:1:0:0:
280,105,33824,1,8,0:0:0:0:
375,301,34124,1,8,0:1:0:0:
375,301,34274,1,8,0:1:0:0:
280,250,34424,2,0,B|222:235|227:277|151:253,1,112.200002140045,10|0,0:0|0:0,0:0:0:0:
125,224,34724,6,0,P|119:184|8:148,2,149.600002853394,10|8|0,0:1|0:0|0:0,0:0:0:0:
98,320,35474,1,8,0:1:0:0:
230,373,35624,2,0,L|306:360,1,74.8000014266968,10|0,0:0|0:0,0:0:0:0:
495,288,35924,6,0,B|464:320|464:320|409:330|369:288,1,149.600002853394,10|8,0:1|0:0,0:0:0:0:
274,31,36524,1,2,0:0:0:0:
339,69,36674,1,8,0:1:0:0:
228,138,36824,2,0,P|214:83|198:47,1,74.8000014266968,10|0,0:0|0:0,0:0:0:0:
107,0,37124,6,0,P|86:57|82:136,1,132,14|0,0:1|0:0,0:0:0:0:
65,184,37424,2,0,P|64:219|43:189,1,88,10|0,0:0|0:0,0:0:0:0:
168,94,37724,1,10,0:1:0:0:
177,78,37874,1,8,0:1:0:0:
238,183,38024,1,10,0:0:0:0:
223,198,38174,1,8,0:1:0:0:
312,300,38324,6,0,B|384:312|356:366|443:369,1,132,10|0,0:1|0:0,0:0:0:0:
476,363,38624,2,0,P|492:328|474:267,1,88,10|8,0:0|0:1,0:0:0:0:
483,280,38849,1,8,0:0:0:0:
483,280,38924,1,8,0:0:0:0:
390,174,39074,1,8,0:1:0:0:
512,77,39224,1,14,0:0:0:0:
512,77,39524,5,10,0:0:0:0:
411,163,39674,1,8,0:0:0:0:
313,69,39824,2,0,P|272:51|209:46,1,88,10|8,0:0|0:1,0:0:0:0:
216,48,40049,1,8,0:1:0:0:
204,54,40124,1,10,0:0:0:0:
46,153,40274,1,8,0:0:0:0:
88,21,40424,1,8,0:0:0:0:
168,181,40574,1,8,0:0:0:0:
11,368,40874,5,6,0:3:0:0:
142,306,41024,2,0,P|98:301|65:273,1,88,10|8,0:0|0:3,0:0:0:0:
57,262,41249,1,8,0:3:0:0:
54,249,41324,1,6,0:3:0:0:
147,189,41474,1,4,0:3:0:0:
20,103,41624,1,10,0:0:0:0:
157,22,41774,1,8,0:0:0:0:
295,146,41924,6,0,P|305:104|293:62,1,88,10|8,0:0|0:1,0:0:0:0:
147,189,42224,2,0,P|136:231|148:273,1,88,10|8,0:0|0:0,0:0:0:0:
156,283,42449,1,8,0:0:0:0:
166,290,42524,1,10,0:0:0:0:
286,384,42674,1,8,0:0:0:0:
415,240,42824,1,8,0:0:0:0:
295,146,42974,1,8,0:0:0:0:
349,12,43274,5,8,0:1:0:0:
349,12,43349,1,8,0:1:0:0:
349,12,43424,1,12,0:0:0:0:
511,104,43724,6,0,B|465:91|466:111|406:90,1,88,10|8,0:1|0:0,0:0:0:0:
411,91,43949,1,8,0:0:0:0:
399,85,44024,1,8,0:1:0:0:
244,21,44174,1,8,0:0:0:0:
256,15,44249,1,8,0:0:0:0:
270,16,44324,5,14,0:1:0:0:
259,95,44474,1,0,0:0:0:0:
165,95,44624,1,10,0:0:0:0:
195,168,44774,1,0,0:0:0:0:
113,215,44924,1,10,0:1:0:0:
176,263,45074,1,0,0:0:0:0:
128,344,45224,1,10,0:0:0:0:
207,354,45374,1,0,0:0:0:0:
113,215,45524,6,0,P|118:272|32:297,1,132,10|0,0:1|0:0,0:0:0:0:
6,286,45824,2,0,L|-9:186,1,88,10|0,0:0|0:0,0:0:0:0:
195,168,46124,2,0,L|210:68,1,88,10|8,0:1|0:0,0:0:0:0:
206,67,46349,1,8,0:0:0:0:
204,53,46424,1,8,0:0:0:0:
361,34,46574,1,8,0:1:0:0:
365,21,46649,1,8,0:1:0:0:
370,9,46724,5,14,0:0:0:0:
474,192,46874,1,8,0:1:0:0:
418,109,47024,5,10,0:0:0:0:
282,300,47174,1,8,0:1:0:0:
276,209,47324,5,10,0:0:0:0:
465,364,47474,1,8,0:1:0:0:
512,109,47624,5,10,0:0:0:0:
44,11,48974,2,0,L|89:1,1,33.0000012588501,8|8,0:1|0:1,0:0:0:0:
152,28,49124,6,0,P|162:113|91:138,1,158.399995166016,14|0,0:0|0:0,0:0:0:0:
32,165,49424,2,0,B|2:172|-14:201|-14:201|-13:169|25:150,1,105.599996777344,10|0,0:0|0:0,0:0:0:0:
178,193,49724,1,10,0:0:0:0:
78,301,49874,1,8,0:1:0:0:
255,247,50024,1,10,0:0:0:0:
209,384,50174,1,8,0:1:0:0:
354,265,50324,6,0,P|357:314|411:345,1,105.599996777344,10|8,0:0|0:1,0:0:0:0:
471,348,50549,1,8,0:1:0:0:
512,289,50624,2,0,L|496:170,1,105.599996777344,10|8,0:0|0:1,0:0:0:0:
442,0,50924,1,10,0:0:0:0:
405,145,51074,1,8,0:1:0:0:
256,0,51224,1,10,0:0:0:0:
277,146,51374,1,8,0:1:0:0:
268,132,51449,1,8,0:1:0:0:
255,121,51524,6,0,P|208:90|120:110,1,105.599996777344,10|8,0:0|0:1,0:0:0:0:
37,213,51824,2,0,L|55:336,1,105.599996777344,10|8,0:0|0:1,0:0:0:0:
250,384,52124,2,0,B|271:365|271:365|256:332|263:289,1,105.599996777344,10|8,0:0|0:1,0:0:0:0:
416,157,52424,2,0,B|457:151|485:172|485:172|507:161|522:125,1,105.599996777344,10|8,0:0|0:1,0:0:0:0:
348,19,52724,5,10,0:2:0:0:
317,197,52874,1,8,0:1:0:0:
177,81,53024,1,8,0:0:0:0:
348,19,53174,1,8,0:0:0:0:
352,45,53249,1,8,0:0:0:0:
367,66,53324,1,10,0:1:0:0:
230,163,53474,5,8,0:0:0:0:
209,186,53549,1,8,0:0:0:0:
208,217,53624,1,8,0:0:0:0:
188,242,53699,1,8,0:3:0:0:
145,242,53774,1,8,0:3:0:0:
119,208,53849,1,8,0:3:0:0:
125,166,53924,6,0,P|130:90|46:51,1,158.399995166016,14|0,0:0|0:0,0:0:0:0:
0,92,54224,2,0,P|-8:150|29:181,1,105.599996777344,10|8,0:0|0:1,0:0:0:0:
208,217,54524,1,10,0:0:0:0:
125,166,54674,1,8,0:1:0:0:
191,340,54824,1,10,0:0:0:0:
94,380,54974,1,8,0:1:0:0:
87,365,55049,1,8,0:1:0:0:
78,351,55124,6,0,B|69:333|69:333|88:300|81:249,1,105.599996777344,10|8,0:0|0:1,0:0:0:0:
316,125,55424,2,0,B|309:175|328:208|328:208|319:226,1,105.599996777344,10|8,0:0|0:1,0:0:0:0:
136,47,55724,1,10,0:0:0:0:
245,0,55874,1,8,0:1:0:0:
161,168,56024,1,10,0:0:0:0:
43,129,56174,1,8,0:1:0:0:
169,275,56324,6,0,P|168:347|249:364,1,158.399995166016,10|0,0:0|0:0,0:0:0:0:
309,331,56624,2,0,L|320:213,1,105.599996777344,10|8,0:2|0:1,0:0:0:0:
503,74,56924,2,0,L|512:179,1,105.599996777344,10|8,0:0|0:1,0:0:0:0:
239,62,57224,1,10,0:0:0:0:
394,0,57374,1,10,0:1:0:0:
488,342,57674,5,10,3:1:0:0:
414,236,57824,1,12,3:2:0:0:
363,371,57974,1,10,3:1:0:0:
239,249,58124,5,10,3:1:0:0:
367,137,58274,1,2,3:2:0:0:
214,35,58424,5,0,1:0:0:0:
204,76,58499,1,0,1:0:0:0:
167,97,58574,1,0,1:0:0:0:
125,89,58649,1,0,1:0:0:0:
96,58,58724,6,0,B|71:39|71:39|-14:54|4:155,1,158.399995166016,14|0,0:1|0:0,0:0:0:0:
17,207,59024,2,0,L|130:232,1,105.599996777344,8|0,0:0|0:0,0:0:0:0:
117,367,59324,5,10,0:1:0:0:
202,305,59474,1,8,0:1:0:0:
294,356,59624,1,8,0:0:0:0:
382,299,59774,1,8,0:1:0:0:
512,376,59924,5,10,0:1:0:0:
512,376,60074,1,8,0:1:0:0:
500,270,60224,2,0,L|511:374,1,105.599996777344,10|0,0:0|0:0,0:0:0:0:
278,269,60524,5,10,0:1:0:0:
278,269,60674,1,8,0:1:0:0:
289,163,60824,2,0,L|277:267,1,105.599996777344,10|0,0:0|0:0,0:0:0:0:
118,165,61124,5,10,0:1:0:0:
118,165,61274,1,8,0:1:0:0:
107,59,61424,2,0,L|118:163,1,105.599996777344,10|0,0:0|0:0,0:0:0:0:
388,110,61724,5,10,0:1:0:0:
388,110,61874,1,8,0:1:0:0:
399,4,62024,2,0,L|387:108,1,105.599996777344,10|0,0:0|0:0,0:0:0:0:
118,164,62324,5,14,0:1:0:0:
244,81,62474,1,8,0:0:0:0:
54,0,62624,1,10,0:1:0:0:
29,303,62924,5,8,0:3:0:0:
75,276,63024,1,8,0:3:0:0:
126,286,63124,1,8,0:3:0:0:
159,326,63224,5,4,0:3:0:0:
203,364,63324,1,4,0:3:0:0:
260,353,63424,1,4,0:3:0:0:
294,307,63524,6,0,P|267:250|306:127,1,176,14|0,0:1|0:0,0:0:0:0:
385,15,63974,2,0,P|409:83|440:98,1,88,10|8,0:1|0:0,0:0:0:0:
165,384,64424,5,10,0:1:0:0:
382,326,64724,1,2,0:0:0:0:
324,109,65024,1,10,0:1:0:0:
107,167,65324,2,0,P|154:177|195:163,1,88,10|8,0:0|0:1,0:0:0:0:
324,109,65624,5,0,1:0:0:0:
303,86,65699,1,0,1:0:0:0:
299,55,65774,1,0,1:0:0:0:
317,30,65849,1,0,1:0:0:0:
353,20,65924,6,0,B|402:45|452:30|452:30|431:3,1,132.000005035401,14|0,0:1|0:0,0:0:0:0:
100,147,66224,6,0,B|55:124|5:136|5:136|16:148,1,114.399994763184,14|0,0:1|0:0,0:0:0:0:
246,363,66524,6,0,B|264:372|264:372|238:337|255:285,1,105.599996777344,14|0,0:1|0:0,0:0:0:0:
504,51,66824,6,0,B|518:92|491:130|491:130|509:122,1,96.8000029541017,14|0,0:1|0:0,0:0:0:0:
511,382,67724,6,2,P|471:295|392:289,1,171.599992144776,2|0,0:0|0:0,0:1:0:0:
298,338,68324,6,0,P|233:335|231:266,1,140.8,14|0,0:1|0:0,0:0:0:0:
283,173,68774,1,8,0:1:0:0:
331,232,68924,1,8,0:0:0:0:
391,181,69074,1,8,0:1:0:0:
341,120,69224,1,2,0:0:0:0:
341,120,69524,2,0,P|281:145|208:114,2,140.8,10|8|8,0:1|0:1|0:0,0:0:0:0:
390,60,70274,1,8,0:1:0:0:
462,85,70424,1,2,0:0:0:0:
364,242,70724,6,0,P|381:183|337:118,1,140.8,14|0,0:1|0:0,0:0:0:0:
210,45,71174,1,8,0:1:0:0:
106,76,71324,1,8,0:0:0:0:
142,4,71474,1,8,0:1:0:0:
174,112,71624,1,2,0:0:0:0:
174,112,71924,2,0,P|114:102|19:112,2,140.8,10|8|8,0:1|0:1|0:0,0:0:0:0:
255,180,72674,5,14,0:1:0:0:
320,122,72824,1,0,1:0:0:0:
304,94,72899,1,0,1:0:0:0:
303,62,72974,1,0,1:0:0:0:
323,37,73049,1,0,1:0:0:0:
352,25,73124,6,0,B|422:7|422:7|449:114,1,176,14|8,0:1|0:0,0:0:0:0:
303,247,73574,5,2,0:0:0:0:
422,368,73724,2,0,B|463:383|486:368|486:368|474:354|454:354,1,88,10|0,0:1|0:0,0:0:0:0:
308,221,74024,5,10,0:0:0:0:
191,364,74174,2,0,B|147:367|129:347|129:347|144:337|163:342,1,88,2|8,0:0|0:1,0:0:0:0:
298,196,74474,5,2,0:0:0:0:
464,288,74624,2,0,B|507:280|519:255|519:255|502:249|484:259,1,88,8|0,0:0|0:0,0:0:0:0:
312,0,74924,5,10,0:1:0:0:
277,178,75074,1,2,0:0:0:0:
118,59,75224,1,10,0:0:0:0:
0,351,75524,5,10,0:1:0:0:
159,316,75674,1,8,0:0:0:0:
317,241,75824,5,10,0:1:0:0:
121,153,75974,1,8,0:3:0:0:
11,12,76124,5,6,0:3:0:0:
109,172,76274,1,4,0:3:0:0:
212,6,76424,1,8,0:1:0:0:
326,150,76574,5,8,0:0:0:0:
309,164,76649,1,8,0:0:0:0:
287,169,76724,2,0,P|261:161|227:142,3,44,14|0|0|0,3:1|3:0|3:0|3:0,0:0:0:0:
400,114,77024,2,0,P|408:88|427:54,3,44,14|0|0|0,3:1|3:0|3:0|3:0,0:0:0:0:
455,227,77324,2,0,P|481:235|515:254,3,44,14|0|0|0,3:1|3:0|3:0|3:0,0:0:0:0:
342,282,77624,2,0,P|334:308|315:342,3,44,14|0|0|0,3:1|3:0|3:0|3:0,0:0:0:0:
27,7,79124,5,10,1:1:0:0:
28,15,79199,1,0,1:0:0:0:
30,24,79274,1,0,1:0:0:0:
32,32,79349,1,0,1:0:0:0:
62,44,79424,1,10,1:1:0:0:
60,52,79499,1,0,1:0:0:0:
58,61,79574,1,0,1:0:0:0:
56,69,79649,1,0,1:0:0:0:
29,103,79724,1,10,1:1:0:0:
33,110,79799,1,0,1:0:0:0:
37,118,79874,1,0,1:0:0:0:
41,125,79949,1,0,1:0:0:0:
70,147,80024,1,10,1:1:0:0:
66,154,80099,1,0,1:0:0:0:
62,162,80174,1,0,1:0:0:0:
58,169,80249,1,0,1:0:0:0:
36,186,80324,2,0,L|96:180,1,52.7999983886719,8|2,1:1|0:0,0:0:0:0:
377,107,81374,6,0,P|345:105|321:92,1,52.7999983886719,10|0,0:1|0:0,0:0:0:0:
439,14,81674,1,10,0:0:0:0:
471,171,81824,1,10,0:0:0:0:
471,171,82124,5,2,0:0:0:0:
357,236,82274,1,8,0:1:0:0:
359,241,82349,1,8,0:1:0:0:
361,246,82424,2,0,B|383:243|383:243|384:241|384:241|386:243|386:243|438:238,1,61.5999981201172,12|0,0:0|0:0,0:0:0:0:
311,166,82724,6,0,P|328:99|291:41,1,140.8,14|8,0:1|0:1,0:0:0:0:
291,41,83174,1,0,0:0:0:0:
181,5,83324,2,0,B|155:34|155:34|35:22,1,140.8,10|8,0:1|0:1,0:0:0:0:
135,114,83774,2,0,P|152:150|146:198,1,70.4,2|8,0:0|0:1,0:0:0:0:
77,237,84074,2,0,L|-3:253,1,70.4,2|8,0:0|0:1,0:0:0:0:
146,301,84374,1,2,0:0:0:0:
146,301,84524,2,0,P|138:335|147:368,1,70.4,8|0,0:1|0:0,0:0:0:0:
294,379,84824,2,0,P|302:345|295:311,1,70.4,10|0,0:1|0:0,0:0:0:0:
350,193,85124,6,0,P|411:162|498:170,1,140.8,10|8,0:1|0:1,0:0:0:0:
320,86,85574,1,2,1:0:0:0:
320,86,85724,2,0,P|308:55|312:14,1,70.4,8|0,0:1|0:0,0:0:0:0:
481,164,86024,2,0,P|483:198|471:231,1,70.4,10|0,0:1|0:0,0:0:0:0:
356,325,86324,2,0,P|295:294|208:302,1,140.8,10|8,0:1|0:1,0:0:0:0:
78,374,86774,1,0,1:0:0:0:
78,374,86849,1,0,1:0:0:0:
78,374,86924,1,10,1:1:0:0:
143,265,87074,1,0,1:0:0:0:
72,159,87224,1,8,1:1:0:0:
142,53,87374,1,0,1:0:0:0:
72,0,87524,5,14,0:1:0:0:
72,0,87674,1,8,0:1:0:0:
220,91,87824,2,0,P|241:91|263:37,1,79.1999975830079,8|8,0:0|0:1,0:0:0:0:
148,195,88124,2,0,B|128:218|128:218|146:281,1,79.1999975830079,10|8,0:3|0:3,0:0:0:0:
181,384,88424,1,10,0:0:0:0:
330,256,88574,5,10,0:3:0:0:
330,256,88649,1,8,0:3:0:0:
330,256,88724,1,4,0:3:0:0:
396,376,88874,2,0,P|358:366|303:362,1,79.1999975830079,6|8,0:3|0:3,0:0:0:0:
438,239,89174,1,10,0:3:0:0:
438,239,89324,2,0,P|448:276|472:326,1,79.1999975830079,4|8,0:3|0:1,0:0:0:0:
512,135,89624,1,10,0:0:0:0:
288,3,89924,5,10,0:1:0:0:
297,82,90074,2,0,L|289:4,1,79.1999975830079,8|8,0:1|0:0,0:0:0:0:
428,60,90374,1,10,0:1:0:0:
420,139,90524,2,0,L|428:60,1,79.1999975830079,8|8,0:3|0:1,0:0:0:0:
278,175,90824,2,0,L|269:96,1,79.1999975830079,10|8,0:0|0:3,0:0:0:0:
259,83,91049,1,8,0:3:0:0:
247,72,91124,6,0,B|206:56|208:83|163:70,1,79.1999975830079,6|4,0:3|0:3,0:0:0:0:
286,194,91424,2,0,B|329:189|320:214|367:213,1,79.1999975830079,10|8,0:3|0:3,0:0:0:0:
241,364,91724,1,6,0:3:0:0:
218,287,91874,1,8,0:1:0:0:
141,266,92024,2,0,B|97:261|106:286|59:285,1,79.1999975830079,10|8,0:0|0:3,0:0:0:0:
50,284,92249,1,8,0:3:0:0:
34,279,92324,5,14,0:1:0:0:
0,168,92474,2,0,L|82:135,1,79.1999975830079,8|8,0:1|0:0,0:0:0:0:
132,4,92774,1,10,0:1:0:0:
232,114,92924,1,10,0:3:0:0:
232,114,93074,2,0,L|145:87,1,79.1999975830079,8|8,0:3|0:0,0:0:0:0:
342,6,93374,5,10,0:3:0:0:
342,6,93449,1,8,0:3:0:0:
342,6,93524,1,4,0:3:0:0:
348,80,93674,2,0,P|334:39|343:3,1,79.1999975830079,4|8,0:3|0:3,0:0:0:0:
478,61,93974,1,10,0:3:0:0:
472,136,94124,2,0,P|486:95|477:59,1,79.1999975830079,4|8,0:3|0:1,0:0:0:0:
368,191,94424,1,10,0:0:0:0:
488,371,94724,5,10,0:1:0:0:
488,371,94874,1,8,0:1:0:0:
430,318,95024,1,10,0:0:0:0:
398,384,95174,1,8,0:1:0:0:
359,291,95324,1,10,0:3:0:0:
283,311,95474,1,8,0:3:0:0:
352,216,95624,1,10,0:0:0:0:
292,159,95774,5,10,0:3:0:0:
292,159,95849,1,8,0:3:0:0:
292,159,95924,2,0,P|253:148|214:140,1,79.1999975830079,4|4,0:3|0:3,0:0:0:0:
370,81,96224,1,8,0:3:0:0:
433,121,96374,2,0,P|471:113|510:102,1,79.1999975830079,4|8,0:3|0:0,0:0:0:0:
333,15,96674,1,10,0:1:0:0:
352,216,96824,1,14,0:0:0:0:
18,130,97124,5,10,0:0:0:0:
73,256,97274,1,8,0:0:0:0:
162,155,97424,2,0,P|152:112|163:69,1,88,10|8,0:0|0:1,0:0:0:0:
173,62,97649,1,8,0:1:0:0:
185,58,97724,1,10,0:0:0:0:
372,119,97874,1,8,0:0:0:0:
297,0,98024,1,8,0:0:0:0:
260,176,98174,1,8,0:0:0:0:
512,320,98474,5,6,0:3:0:0:
436,384,98624,2,0,B|429:350|429:350|433:336|433:336|425:298,1,88,10|8,0:0|0:3,0:0:0:0:
421,285,98849,1,8,0:3:0:0:
417,272,98924,1,6,0:3:0:0:
302,296,99074,1,4,0:3:0:0:
260,176,99224,1,10,0:1:0:0:
186,360,99374,1,8,0:0:0:0:
122,274,99524,6,0,B|160:269|160:269|168:271|168:271|214:266,1,88,2|0,0:0|0:0,0:0:0:0:
209,266,100424,2,0,B|171:261|171:261|163:263|163:263|117:258,1,88,2|0,0:0|0:0,0:0:0:0:
37,248,100874,5,8,0:1:0:0:
142,185,101024,2,0,P|156:148|150:110,1,79.1999975830079,14|0,0:0|0:0,0:0:0:0:
143,100,101249,1,8,0:0:0:0:
134,91,101324,2,0,L|41:76,1,79.1999975830079,14|0,0:1|0:0,0:0:0:0:
221,0,101624,5,0,1:0:0:0:
221,33,101699,1,0,1:0:0:0:
240,60,101774,1,0,1:0:0:0:
271,73,101849,1,0,1:0:0:0:
304,67,101924,5,14,0:1:0:0:
357,9,102074,1,0,0:0:0:0:
361,125,102224,1,10,0:1:0:0:
434,95,102374,1,0,0:0:0:0:
378,203,102524,1,10,0:1:0:0:
433,257,102674,2,0,B|464:265|464:265|478:199,1,94.1599971264649,2|8,0:0|0:1,0:0:0:0:
350,109,102974,6,0,B|303:90|310:119|256:100,1,94.1599971264649,2|8,0:0|0:1,0:0:0:0:
124,9,103274,2,0,B|171:-10|164:19|218:0,1,94.1599971264649,2|8,0:0|0:1,0:0:0:0:
132,133,103574,2,0,P|151:175|144:221,1,94.1599971264649,2|8,0:0|0:1,0:0:0:0:
24,320,103874,2,0,P|4:277|11:231,1,94.1599971264649,2|8,0:0|0:2,0:0:0:0:
11,231,104174,1,2,0:0:0:0:
165,331,104324,6,0,B|215:326|215:326|245:341|245:341|303:337,1,141.239995689697,14|0,0:0|0:0,0:0:0:0:
370,300,104624,2,0,P|384:262|363:204,1,94.1599971264649,8|0,0:1|0:0,0:0:0:0:
252,81,104924,5,0,3:0:0:0:
247,104,104999,1,0,3:0:0:0:
243,127,105074,1,0,3:0:0:0:
239,150,105149,1,0,3:0:0:0:
234,172,105224,5,0,1:0:0:0:
225,137,105299,1,0,1:0:0:0:
217,103,105374,1,0,1:0:0:0:
209,68,105449,1,0,1:0:0:0:
201,34,105524,6,0,B|192:14|192:14|157:141|157:141|144:118,1,176,2|0,0:0|0:0,0:1:0:0:
47,83,106274,1,2,0:0:0:0:
47,83,106424,2,0,L|93:70,1,44,2|0,0:0|0:0,0:0:0:0:
201,34,106724,6,0,B|151:133|252:135|197:237,1,211.199993554688,14|8,0:1|0:0,0:1:0:0:
0,348,107624,1,2,0:0:0:0:
21,257,107774,1,8,0:1:0:0:
116,313,107924,2,0,L|99:198,2,105.599996777344,2|10|10,0:0|0:1|0:0,0:0:0:0:
254,384,108824,5,2,0:0:0:0:
257,359,108924,1,2,0:0:0:0:
262,334,109024,1,2,0:0:0:0:
262,309,109124,2,0,L|250:251,1,52.7999983886719,14|0,0:1|0:0,0:0:0:0:
162,141,109424,5,2,0:0:0:0:
145,167,109524,1,2,0:0:0:0:
118,183,109624,1,2,0:0:0:0:
86,188,109724,2,0,L|31:170,1,52.7999983886719,10|0,0:0|0:0,0:0:0:0:
168,25,110024,5,2,0:0:0:0:
190,51,110124,1,2,0:0:0:0:
222,65,110224,1,2,0:0:0:0:
257,66,110324,2,0,P|305:40|379:42,1,105.599996777344,2|10,0:0|0:1,0:0:0:0:
184,217,110924,2,0,P|131:212|85:187,1,105.599996777344,10|8,0:0|0:1,0:0:0:0:
274,163,111524,6,0,B|321:175|327:224|327:224|301:286|334:331|334:331|345:301,1,211.199993554688,14|10,0:1|0:0,0:0:0:0:
512,148,112424,1,2,0:0:0:0:
463,205,112574,1,8,0:1:0:0:
390,112,112724,2,0,L|411:-4,1,105.599996777344,2|10,0:0|0:1,0:0:0:0:
240,184,113324,2,0,L|219:68,1,105.599996777344,10|10,0:0|0:1,0:0:0:0:
221,80,113774,1,8,0:0:0:0:
141,9,113924,5,14,0:1:0:0:
110,126,114074,1,8,0:3:0:0:
13,75,114224,5,6,0:3:0:0:
36,205,114374,1,8,0:1:0:0:
163,288,114524,5,10,0:0:0:0:
139,272,114624,1,2,0:0:0:0:
110,270,114724,1,2,0:0:0:0:
85,284,114824,2,0,P|63:300|29:301,1,52.7999983886719,10|8,0:1|0:0,0:0:0:0:
110,126,115124,5,10,0:1:0:0:
189,202,115274,1,8,0:0:0:0:
259,117,115424,2,0,L|266:59,1,52.7999983886719,10|8,0:1|0:0,0:0:0:0:
269,54,115649,1,8,0:0:0:0:
274,44,115724,5,10,0:0:0:0:
402,0,115874,1,8,0:0:0:0:
373,119,116024,1,8,0:0:0:0:
489,152,116174,1,8,0:0:0:0:
337,236,116324,6,0,L|262:245,1,61.5999981201172,14|0,0:1|0:0,0:0:0:0:
275,243,116624,1,2,0:0:0:0:
437,342,116774,5,10,0:1:0:0:
437,342,116849,1,10,0:1:0:0:
437,342,116924,2,0,L|498:349,1,61.5999981201172,4|0,0:0|0:0,0:0:0:0:
337,236,117224,5,2,0:0:0:0:
266,333,117374,1,10,0:1:0:0:
213,224,117524,1,2,0:0:0:0:
76,283,117674,5,2,0:0:0:0:
201,239,117824,1,8,0:1:0:0:
99,151,117974,1,2,0:0:0:0:
246,110,118124,5,10,0:0:0:0:
116,164,118274,1,2,0:0:0:0:
134,26,118424,1,10,0:1:0:0:
499,126,118724,5,14,0:1:0:0:
409,27,118874,1,2,0:0:0:0:
364,153,119024,1,2,0:0:0:0:
221,137,119174,5,2,0:0:0:0:
361,172,119324,1,10,0:0:0:0:
258,279,119474,1,2,0:0:0:0:
496,267,119624,5,2,0:0:0:0:
359,192,119774,1,10,0:1:0:0:
363,345,119924,1,2,0:0:0:0:
275,189,120074,5,2,0:0:0:0:
235,367,120224,1,10,0:1:0:0:
0,252,120524,5,10,0:0:0:0:
121,279,120674,1,2,0:0:0:0:
0,154,120824,1,10,0:1:0:0:
127,122,120974,1,2,0:0:0:0:
240,25,121124,6,0,B|197:17|197:17|164:28|164:28|105:19,1,123.199996240234,14|0,0:1|0:0,0:0:0:0:
120,21,121574,1,0,0:0:0:0:
222,102,121724,2,0,P|213:132|218:164,1,61.5999981201172,10|0,0:0|0:0,0:0:0:0:
323,254,122024,1,2,0:0:0:0:
342,178,122174,1,8,0:1:0:0:
479,243,122324,6,0,P|487:213|483:183,1,61.5999981201172,2|0,0:0|0:0,0:0:0:0:
399,76,122624,2,0,L|328:64,1,61.5999981201172,10|0,0:1|0:0,0:0:0:0:
218,119,122924,2,0,L|157:108,1,61.5999981201172,10|0,0:0|0:0,0:0:0:0:
71,24,123224,1,10,0:1:0:0:
8,158,123374,1,8,0:0:0:0:
211,269,123524,5,14,0:1:0:0:
75,370,123674,2,0,B|48:375|48:375|58:363,1,44,10|8,0:1|0:1,0:0:0:0:
250,201,123974,5,14,0:1:0:0:
389,373,124124,2,0,B|421:379|421:379|408:364,1,52.7999983886719,10|0,0:0|0:0,0:0:0:0:
219,129,124424,5,14,0:1:0:0:
74,329,124574,2,0,B|33:343|33:343|46:321,1,61.5999981201172,10|8,0:0|0:1,0:0:0:0:
251,59,124874,5,14,0:0:0:0:
391,335,125024,2,0,B|433:350|433:350|419:327,1,70.4,10|0,0:1|0:0,0:0:0:0:
205,0,125324,5,14,0:2:0:0:
76,290,125474,1,10,0:2:0:0:
60,31,125624,1,10,0:1:0:0:
210,320,125774,1,10,0:0:0:0:
479,322,132974,6,2,B|454:332|434:357|434:357|484:232|412:166|412:166|450:216|433:266,1,369.599988720703,2|0,0:0|0:0,0:2:0:0:
362,298,134174,2,0,L|301:310,1,52.7999983886719,2|2,0:0|0:0,0:0:0:0:
128,384,134924,2,2,L|137:257,1,105.599996777344,2|2,0:0|0:0,0:1:0:0:
51,76,135524,6,0,P|110:87|168:64,1,118.799996374512,14|0,0:1|0:0,0:0:0:0:
276,76,135824,2,0,P|216:87|159:63,1,118.799996374512,10|0,0:1|0:0,0:0:0:0:
57,105,136124,2,0,P|116:100|166:63,1,118.799996374512,10|0,0:1|0:0,0:0:0:0:
275,46,136424,2,0,P|220:71|158:64,1,118.799996374512,10|0,0:1|0:0,0:0:0:0:
352,14,136724,6,0,P|411:8|465:33,1,118.799996374512,14|0,0:1|0:0,0:0:0:0:
512,98,137024,1,10,0:1:0:0:
421,243,137174,1,8,0:0:0:0:
512,98,137324,2,0,P|516:157|493:211,1,118.799996374512,10|0,0:1|0:0,0:0:0:0:
464,32,137624,2,0,P|411:8|353:12,1,118.799996374512,10|0,0:1|0:0,0:0:0:0:
262,101,137924,6,0,L|244:226,1,118.799996374512,14|0,0:1|0:0,0:0:0:0:
186,115,138224,2,0,L|168:240,1,118.799996374512,10|0,0:1|0:0,0:0:0:0:
110,129,138524,2,0,L|92:254,1,118.799996374512,10|0,0:1|0:0,0:0:0:0:
34,143,138824,2,0,L|16:268,1,118.799996374512,10|0,0:1|0:0,0:0:0:0:
0,378,139124,6,0,L|18:253,1,118.799996374512,14|0,0:1|0:0,0:0:0:0:
76,364,139424,2,0,L|94:239,1,118.799996374512,10|0,0:1|0:0,0:0:0:0:
152,350,139724,2,0,L|170:225,1,118.799996374512,10|0,0:1|0:0,0:0:0:0:
228,336,140024,2,0,L|243:227,1,79.1999975830079,10|8,0:1|0:1,0:0:0:0:
245,218,140249,1,8,0:1:0:0:
257,175,140324,6,0,B|324:154|306:207|390:185,1,132,14|0,0:1|0:0,0:0:0:0:
233,137,140624,2,0,B|248:68|285:110|308:26,1,132,10|0,0:1|0:0,0:0:0:0:
188,138,140924,2,0,B|135:90|190:79|129:17,1,132,10|0,0:1|0:0,0:0:0:0:
166,177,141224,2,0,B|98:198|116:145|32:167,1,132,10|0,0:1|0:0,0:0:0:0:
131,264,141524,6,0,P|113:297|151:377,1,132,14|0,0:1|0:0,0:0:0:0:
285,355,141824,2,0,P|303:294|266:242,1,132,10|0,0:1|0:0,0:0:0:0:
166,177,142124,2,0,L|72:163,1,88,10|8,0:1|0:1,0:0:0:0:
78,164,142349,1,10,0:1:0:0:
78,164,142424,1,10,0:0:0:0:
192,20,142574,1,10,0:1:0:0:
343,135,142724,6,0,B|326:176|326:176|342:216,1,88,14|0,0:0|0:0,0:0:0:0:
500,320,143024,2,0,B|516:279|516:279|499:238,1,88,10|0,0:1|0:0,0:0:0:0:
343,135,143324,5,10,0:1:0:0:
277,259,143474,1,8,0:1:0:0:
209,207,143624,5,10,0:1:0:0:
238,366,143774,1,8,0:1:0:0:
118,350,143924,5,10,0:1:0:0:
50,383,144074,1,8,0:0:0:0:
101,274,144224,5,10,0:1:0:0:
19,257,144374,1,8,0:0:0:0:
125,198,144524,5,10,0:1:0:0:
32,144,144674,1,8,0:0:0:0:
176,134,144824,5,10,0:1:0:0:
97,18,144974,1,8,0:0:0:0:
252,103,145124,5,14,0:1:0:0:
252,103,145274,1,8,0:1:0:0:
32,144,145574,1,8,0:0:0:0:
209,285,145874,1,8,0:1:0:0:
209,285,145949,1,8,0:1:0:0:
209,285,146024,2,0,L|296:271,1,61.5999981201172,10|8,0:0|0:1,0:0:0:0:
145,355,146324,2,0,L|58:369,1,61.5999981201172,10|8,0:0|0:1,0:0:0:0:
157,198,146774,2,0,P|143:142|198:77,1,123.199996240234,10|8,0:0|0:1,0:0:0:0:
292,22,147224,5,8,0:0:0:0:
306,49,147299,1,8,0:0:0:0:
332,64,147374,1,8,0:0:0:0:
362,63,147449,1,8,0:0:0:0:
389,48,147524,5,8,0:3:0:0:
392,39,147599,1,8,0:3:0:0:
394,29,147674,5,8,0:0:0:0:
426,10,147749,1,8,0:0:0:0:
462,16,147824,1,8,0:0:0:0:
488,41,147899,1,8,0:0:0:0:
492,77,147974,5,8,0:3:0:0:
486,84,148049,1,8,0:3:0:0:
481,92,148124,1,8,0:3:0:0:
477,100,148199,1,8,0:3:0:0:
474,109,148274,1,8,0:3:0:0:
472,118,148349,1,8,0:3:0:0:
472,127,148424,1,8,0:3:0:0:
473,136,148499,1,8,0:3:0:0:
476,144,148574,1,8,0:3:0:0:
481,151,148649,1,8,0:3:0:0:
487,157,148724,1,8,0:2:0:0:
234,20,149924,5,14,0:1:0:0:
204,218,150074,1,14,0:1:0:0:
62,124,151724,1,2,0:3:0:0:
204,218,151874,2,0,P|239:229|282:164,1,105.599996777344,14|0,0:1|0:0,0:0:0:0:
244,76,152324,6,0,L|115:54,1,123.199996240234,14|0,0:1|0:0,0:0:0:0:
284,185,152924,2,0,L|413:207,1,123.199996240234,14|0,0:1|0:0,0:0:0:0:
222,371,153524,6,0,P|228:329|213:298,1,70.4,14|8,0:1|0:3,0:0:0:0:
210,295,153749,1,8,0:3:0:0:
200,291,153824,1,4,0:3:0:0:
133,338,153974,1,4,0:3:0:0:
140,195,154124,1,8,0:3:0:0:
77,275,154274,1,8,0:3:0:0:
34,128,154424,1,4,0:3:0:0:
13,230,154574,1,8,0:0:0:0:
140,195,154724,6,0,B|192:149|190:81|159:37|159:37|143:71|172:110,1,237.599992749024,2|0,0:0|0:0,0:0:0:0:
227,149,155924,6,0,B|272:141|321:158|291:185|364:198|410:171|410:171|346:164|323:201,1,290.400008862305,2|0,0:0|0:0,0:0:0:0:
372,277,157124,6,0,B|413:314|410:373|410:373|391:295|312:265|237:306,1,316.799990332032,2|0,0:0|0:0,0:0:0:0:
42,384,158324,5,8,1:1:0:0:
33,367,158399,1,0,1:0:0:0:
31,348,158474,1,0,1:0:0:0:
36,330,158549,1,0,1:0:0:0:
2,297,158624,5,8,1:1:0:0:
21,289,158699,1,0,1:0:0:0:
34,272,158774,1,0,1:0:0:0:
41,252,158849,1,0,1:0:0:0:
82,231,158924,5,8,1:1:0:0:
61,214,158999,1,0,1:0:0:0:
55,188,159074,1,0,1:0:0:0:
64,163,159149,1,0,1:0:0:0:
36,132,159224,5,8,1:1:0:0:
67,129,159299,1,0,1:0:0:0:
92,110,159374,1,0,1:0:0:0:
104,80,159449,1,0,1:0:0:0:
104,44,159524,6,0,B|46:21|46:21|67:129,1,171.599992144776,14|0,0:1|0:0,0:0:0:0:
82,231,159824,1,8,0:0:0:0:
192,80,159974,1,8,0:1:0:0:
214,271,160124,1,10,0:0:0:0:
313,101,160274,1,8,0:1:0:0:
357,304,160424,1,8,0:0:0:0:
434,126,160574,1,8,0:1:0:0:
436,137,160649,1,8,0:1:0:0:
439,147,160724,5,10,0:2:0:0:
369,12,160874,1,8,0:1:0:0:
311,188,161024,1,10,0:0:0:0:
227,4,161174,1,8,0:1:0:0:
175,201,161324,1,10,0:0:0:0:
79,0,161474,1,8,0:1:0:0:
36,217,161624,1,8,0:0:0:0:
223,93,161774,5,8,0:0:0:0:
195,85,161849,1,8,0:0:0:0:
167,78,161924,2,0,B|127:72|127:72|103:84|103:84|56:78,1,114.399994763184,10|8,0:2|0:1,0:0:0:0:
114,248,162224,2,0,P|101:322|155:377,1,114.399994763184,10|8,0:2|0:1,0:0:0:0:
330,383,162524,2,0,B|370:377|370:377|394:389|394:389|440:383,1,114.399994763184,10|0,0:2|0:0,0:0:0:0:
391,195,162824,2,0,P|407:141|386:89,1,114.399994763184,10|8,0:0|0:1,0:0:0:0:
105,0,163124,5,10,0:0:0:0:
176,203,163274,1,8,0:1:0:0:
206,11,163424,1,10,0:0:0:0:
78,179,163574,1,8,0:0:0:0:
69,157,163649,1,8,0:0:0:0:
66,134,163724,1,8,0:1:0:0:
225,24,163874,5,8,0:0:0:0:
237,44,163949,1,8,0:0:0:0:
235,69,164024,1,8,0:3:0:0:
225,104,164099,1,8,0:3:0:0:
243,139,164174,1,8,0:3:0:0:
282,147,164249,1,8,0:3:0:0:
324,129,164324,6,0,P|338:69|472:58,1,211.2,14|8,0:1|0:1,0:0:0:0:
477,65,164849,2,0,L|485:112,1,35.2,8|8,0:1|0:0,0:0:0:0:
480,377,165224,2,0,L|465:274,1,70.4,10|8,0:1|0:0,0:0:0:0:
397,215,165524,5,8,0:1:0:0:
394,227,165599,1,8,0:1:0:0:
391,240,165674,1,8,0:1:0:0:
388,253,165749,1,8,0:1:0:0:
385,265,165824,1,8,0:1:0:0:
382,278,165899,1,8,0:1:0:0:
379,291,165974,1,8,0:1:0:0:
376,304,166049,1,8,0:1:0:0:
373,317,166124,2,0,B|345:349|345:349|226:331,1,140.8,10|8,0:0|0:1,0:0:0:0:
189,384,166574,1,8,0:0:0:0:
125,281,166724,6,0,P|110:163|17:148,1,211.2,14|8,0:1|0:1,0:0:0:0:
29,152,167249,1,8,0:1:0:0:
24,161,167324,1,10,0:0:0:0:
89,47,167474,1,8,0:1:0:0:
166,188,167624,2,0,B|204:210|204:210|244:182,2,88,14|8|2,0:1|0:1|0:0,0:0:0:0:
0,44,168524,5,8,1:3:0:0:
27,53,168599,1,0,1:0:0:0:
52,42,168674,1,0,1:0:0:0:
76,25,168749,1,0,1:0:0:0:
104,28,168824,1,0,1:0:0:0:
225,83,168974,6,0,L|235:117,1,22,0|0,1:0|1:0,0:0:0:0:
240,184,169124,6,0,P|225:224|137:224,1,123.199996240234,14|0,0:1|0:0,0:0:0:0:
137,225,169349,1,8,0:1:0:0:
122,213,169424,1,10,0:0:0:0:
225,83,169574,1,8,0:1:0:0:
317,224,169724,1,2,0:0:0:0:
407,133,169874,1,8,0:1:0:0:
481,193,170024,1,8,0:0:0:0:
359,41,170174,6,0,B|318:20|270:16|270:16|291:3|311:5,1,123.199996240234,2|8,0:1|0:1,0:0:0:0:
407,133,170474,2,0,P|430:188|395:253,1,123.199996240234,2|8,0:0|0:0,0:0:0:0:
263,384,170774,2,0,L|239:257,1,123.199996240234,10|0,0:1|0:0,0:0:0:0:
102,148,171074,2,0,B|47:174|47:174|1:131,1,123.199996240234,10|8,0:1|0:0,0:0:0:0:
1,131,171374,1,2,0:0:0:0:
207,124,171524,6,0,P|192:58|226:4,1,123.199996240234,10|0,0:1|0:0,0:0:0:0:
234,6,171749,1,10,0:1:0:0:
252,4,171824,1,8,0:0:0:0:
328,146,171974,1,10,0:1:0:0:
456,154,172124,2,0,P|482:99|466:41,1,123.199996240234,2|8,0:0|0:1,0:0:0:0:
404,0,172349,1,10,0:1:0:0:
339,34,172424,2,0,P|312:88|328:146,1,123.199996240234,8|2,0:0|0:0,0:0:0:0:
479,281,172724,5,8,0:1:0:0:
479,281,172874,1,8,0:1:0:0:
404,329,173024,1,8,0:0:0:0:
483,369,173174,5,10,0:1:0:0:
399,245,173324,2,0,B|338:228|347:277|285:277,1,123.199996240234,2|8,0:0|0:1,0:0:0:0:
216,311,173549,2,0,L|207:247,1,61.5999981201172,10|8,0:1|0:0,0:0:0:0:
126,18,173774,1,8,0:0:0:0:
118,54,173849,1,8,0:0:0:0:
109,89,173924,6,0,P|76:138|18:127,1,123.199996240234,14|0,0:1|0:0,0:0:0:0:
6,115,174149,1,8,0:1:0:0:
0,97,174224,1,10,0:0:0:0:
137,0,174374,2,0,P|152:86|254:119,1,184.799994360352,10|0,0:1|0:0,0:0:0:0:
313,109,174674,2,0,P|365:77|425:75,1,123.199996240234,10|8,0:1|0:0,0:0:0:0:
497,273,174974,6,0,P|520:216|512:156,1,123.199996240234,2|8,0:0|0:1,0:0:0:0:
377,0,175274,1,10,0:1:0:0:
263,195,175424,1,10,0:0:0:0:
192,108,175574,2,0,B|238:104|238:104|266:114|266:114|328:107,1,123.199996240234,10|0,0:1|0:0,0:0:0:0:
497,273,175874,2,0,B|450:269|450:269|422:279|422:279|360:272,1,123.199996240234,10|8,0:1|0:0,0:0:0:0:
313,373,176174,1,2,0:0:0:0:
193,218,176324,6,0,P|216:162|192:107,1,123.199996240234,10|0,0:1|0:0,0:0:0:0:
175,92,176549,1,8,0:1:0:0:
157,85,176624,1,10,0:0:0:0:
46,237,176774,2,0,P|9:189|19:129,1,123.199996240234,10|0,0:1|0:0,0:0:0:0:
165,1,177074,1,10,0:1:0:0:
336,205,177224,2,0,P|359:150|335:95,1,123.199996240234,10|8,0:0|0:1,0:0:0:0:
165,1,177524,5,10,0:0:0:0:
95,169,177674,1,8,0:1:0:0:
192,107,177824,1,10,0:0:0:0:
153,278,177974,1,8,0:1:0:0:
247,212,178124,1,10,0:0:0:0:
320,384,178274,5,8,0:0:0:0:
299,339,178349,1,8,0:0:0:0:
322,288,178424,1,8,0:0:0:0:
370,281,178499,1,8,0:3:0:0:
404,306,178574,1,8,0:3:0:0:
406,342,178649,1,8,0:3:0:0:
393,356,178724,5,14,0:1:0:0:
370,281,178874,1,10,0:1:0:0:
347,206,179024,1,10,0:1:0:0:
324,131,179174,2,0,L|337:45,1,70.4,10|8,0:1|0:0,0:0:0:0:
185,233,179474,2,0,L|198:147,1,70.4,10|0,0:1|0:0,0:0:0:0:
359,350,179774,2,0,L|372:264,1,70.4,10|0,0:1|0:0,0:0:0:0:
427,76,180074,5,10,0:1:0:0:
472,147,180224,1,2,0:0:0:0:
511,73,180374,1,10,0:1:0:0:
379,0,180524,5,10,0:0:0:0:
356,111,180674,1,8,0:1:0:0:
252,54,180824,5,2,0:0:0:0:
291,189,180974,1,8,0:0:0:0:
188,145,181124,5,10,0:1:0:0:
173,220,181274,1,10,0:1:0:0:
158,295,181424,1,10,0:1:0:0:
143,370,181574,2,0,B|109:380|109:380|75:368,1,70.4,10|8,0:1|0:0,0:0:0:0:
264,284,181874,2,0,B|293:285|293:285|301:290|301:290|341:293,1,70.4,10|0,0:1|0:0,0:0:0:0:
188,145,182174,2,0,B|159:125|159:125|123:123,1,70.4,10|0,0:1|0:0,0:0:0:0:
259,1,182474,5,10,0:1:0:0:
328,89,182624,1,2,0:0:0:0:
415,18,182774,1,8,0:1:0:0:
482,131,182924,5,14,0:0:0:0:
422,38,183074,1,8,0:1:0:0:
276,164,183224,5,0,1:0:0:0:
260,205,183299,1,0,1:0:0:0:
218,218,183374,1,0,1:0:0:0:
180,195,183449,1,0,1:0:0:0:
168,152,183524,6,0,P|137:105|65:138,1,105.599996777344,14|0,0:1|0:0,0:0:0:0:
92,105,183749,1,8,0:1:0:0:
92,105,183824,1,8,0:0:0:0:
207,261,183974,2,0,P|242:372|330:368,1,211.199993554688,10|8,0:1|0:1,0:0:0:0:
486,281,184424,2,0,L|497:171,1,105.599996777344,10|0,0:0|0:0,0:0:0:0:
376,0,184724,5,10,0:1:0:0:
399,168,184874,1,8,0:1:0:0:
356,9,185024,5,10,0:0:0:0:
310,231,185174,1,8,0:1:0:0:
227,15,185324,5,10,0:1:0:0:
296,218,185474,1,8,0:1:0:0:
216,34,185624,5,10,0:0:0:0:
161,262,185774,1,8,0:1:0:0:
54,13,185924,5,14,2:0:0:0:
32,155,186074,1,8,0:1:0:0:
10,297,186224,1,8,0:1:0:0:
123,84,186374,5,14,2:0:0:0:
137,231,186524,1,8,0:1:0:0:
151,377,186674,1,8,0:1:0:0:
216,111,186824,5,14,0:0:0:0:
303,343,186974,1,10,0:1:0:0:
483,207,187124,5,0,1:0:0:0:
459,199,187199,1,0,1:0:0:0:
435,205,187274,1,0,1:0:0:0:
410,209,187349,1,0,1:0:0:0:
386,201,187424,1,0,1:0:0:0:
216,111,187574,5,0,1:0:0:0:
252,103,187649,1,0,1:0:0:0:
288,94,187724,1,10,0:1:0:0:
189,8,187874,5,8,0:3:0:0:
121,191,188024,5,4,0:3:0:0:
32,12,188174,5,14,0:0:0:0:
