osu file format v14

[General]
AudioFilename: audio.mp3
AudioLeadIn: 0
PreviewTime: 48336
Countdown: 0
SampleSet: Soft
StackLeniency: 0.5
Mode: 0
LetterboxInBreaks: 0
WidescreenStoryboard: 1

[Editor]
DistanceSpacing: 0.95
BeatDivisor: 4
GridSize: 32
TimelineZoom: 1.7

[Metadata]
Title:Nijimu Sabiiro
TitleUnicode:滲む錆色
Artist:MEMAI SIREN
ArtistUnicode:眩暈SIREN
Creator:Lasse
Version:Normal
Source:spinoid
Tags:japanese pop rock
BeatmapID:2196787
BeatmapSetID:1050914

[Difficulty]
HPDrainRate:4
CircleSize:3.4
OverallDifficulty:5
ApproachRate:6
SliderMultiplier:1.1
SliderTickRate:1

[Events]
//Background and Video events
0,0,"d.jpg",0,0
//Break Periods
2,125973,131924
//Storyboard Layer 0 (Background)
//Storyboard Layer 1 (Fail)
//Storyboard Layer 2 (Pass)
//Storyboard Layer 3 (Foreground)
//Storyboard Layer 4 (Overlay)
//Storyboard Sound Samples

[TimingPoints]
1124,300,4,2,23,45,1,0
1124,-142.857142857143,4,2,23,45,0,0
5924,-125,4,2,23,50,0,0
8924,-125,4,2,1,50,0,0
9224,-125,4,2,23,50,0,0
9374,-125,4,2,1,50,0,0
10574,-125,4,2,23,55,0,0
10724,-111.111111111111,4,2,1,64,0,0
16424,-111.111111111111,4,2,23,60,0,0
16574,-111.111111111111,4,2,1,64,0,0
16799,-111.111111111111,4,2,1,44,0,0
16874,-111.111111111111,4,2,1,64,0,0
19274,-111.111111111111,4,2,1,58,0,0
19424,-111.111111111111,4,2,1,60,0,0
19574,-111.111111111111,4,2,23,58,0,0
19724,-111.111111111111,4,2,1,60,0,0
19874,-111.111111111111,4,2,1,58,0,0
20024,-111.111111111111,4,2,1,56,0,0
20174,-111.111111111111,4,2,1,54,0,0
20324,-125,4,2,23,58,0,0
20474,-125,4,2,23,54,0,0
20624,-125,4,2,1,54,0,0
20661,-125,4,2,1,5,0,0
21224,-125,4,2,1,54,0,0
21261,-125,4,2,1,5,0,0
21824,-125,4,2,1,54,0,0
21861,-125,4,2,1,5,0,0
22424,-125,4,2,1,54,0,0
22461,-125,4,2,1,5,0,0
22724,-125,4,2,23,54,0,0
23024,-125,4,2,1,54,0,0
23061,-125,4,2,1,5,0,0
23624,-125,4,2,1,54,0,0
23661,-125,4,2,1,5,0,0
24224,-125,4,2,1,54,0,0
24261,-125,4,2,1,5,0,0
24824,-125,4,2,1,54,0,0
24861,-125,4,2,1,5,0,0
25124,-125,4,2,23,54,0,0
25424,-125,4,2,1,54,0,0
25461,-125,4,2,1,5,0,0
26024,-125,4,2,1,54,0,0
26061,-125,4,2,1,5,0,0
26324,-125,4,2,23,54,0,0
26624,-125,4,2,1,54,0,0
26661,-125,4,2,1,5,0,0
27224,-125,4,2,1,54,0,0
27261,-125,4,2,1,5,0,0
27374,-125,4,2,23,54,0,0
27824,-125,4,2,1,54,0,0
27861,-125,4,2,1,5,0,0
28424,-125,4,2,1,54,0,0
28461,-125,4,2,1,5,0,0
28724,-125,4,2,1,40,0,0
28874,-125,4,2,1,35,0,0
29024,-125,4,2,1,64,0,0
29061,-125,4,2,1,5,0,0
29474,-125,4,2,23,50,0,0
29624,-125,4,2,1,44,0,0
29924,-117.647058823529,4,2,1,56,0,0
34649,-117.647058823529,4,2,1,20,0,0
34724,-117.647058823529,4,2,1,56,0,0
36974,-117.647058823529,4,2,1,46,0,0
37124,-117.647058823529,4,2,1,58,0,0
37349,-117.647058823529,4,2,1,20,0,0
37424,-117.647058823529,4,2,1,58,0,0
38549,-117.647058823529,4,2,1,20,0,0
38624,-117.647058823529,4,2,1,58,0,0
39524,-111.111111111111,4,2,1,56,0,0
43274,-111.111111111111,4,2,23,50,0,0
43424,-111.111111111111,4,2,1,50,0,0
43724,-111.111111111111,4,2,23,56,0,0
43874,-111.111111111111,4,2,1,56,0,0
44024,-111.111111111111,4,2,23,56,0,0
44174,-111.111111111111,4,2,1,56,0,0
44324,-111.111111111111,4,2,1,58,0,0
45749,-111.111111111111,4,2,1,20,0,0
45824,-111.111111111111,4,2,1,58,0,0
46724,-111.111111111111,4,2,1,60,0,0
47024,-111.111111111111,4,2,1,62,0,0
47324,-111.111111111111,4,2,1,64,0,0
47624,-111.111111111111,4,2,1,66,0,0
48974,-111.111111111111,4,2,1,58,0,0
49124,-100,4,2,1,74,0,1
49349,-100,4,2,1,45,0,1
49424,-100,4,2,1,74,0,1
54149,-100,4,2,1,45,0,1
54224,-100,4,2,1,74,0,1
56549,-100,4,2,1,45,0,1
56624,-100,4,2,1,74,0,1
57674,-100,4,2,1,60,0,1
58124,-100,4,2,1,65,0,1
58424,-100,4,2,1,68,0,0
58724,-100,4,2,1,70,0,1
58949,-100,4,2,1,45,0,1
59024,-100,4,2,1,70,0,1
62924,-100,4,2,1,64,0,0
63224,-100,4,2,1,62,0,0
63524,-117.647058823529,4,2,1,60,0,1
63824,-117.647058823529,4,2,1,60,0,0
65924,-100,4,2,1,65,0,1
66074,-100,4,2,1,40,0,0
66224,-100,4,2,1,65,0,1
66374,-100,4,2,1,40,0,0
66524,-100,4,2,1,65,0,1
66674,-100,4,2,1,40,0,0
66824,-100,4,2,1,65,0,1
66974,-100,4,2,1,40,0,0
67724,-100,4,2,1,50,0,0
67874,-100,4,2,1,30,0,0
68174,-100,4,2,1,36,0,0
68324,-117.647058823529,4,2,1,54,0,0
72674,-117.647058823529,4,2,1,56,0,0
72824,-117.647058823529,4,2,1,58,0,0
73124,-111.111111111111,4,2,1,60,0,0
76574,-111.111111111111,4,2,1,58,0,0
76724,-111.111111111111,4,2,1,56,0,0
77024,-111.111111111111,4,2,1,54,0,0
77324,-111.111111111111,4,2,1,52,0,0
77624,-111.111111111111,4,2,1,50,0,0
79124,-111.111111111111,4,2,23,54,0,0
80624,-111.111111111111,4,2,1,48,0,0
81374,-125,4,2,1,54,0,0
81524,-125,4,2,1,50,0,0
81674,-125,4,2,1,56,0,0
82124,-125,4,2,1,50,0,0
82274,-125,4,2,1,54,0,0
82574,-125,4,2,1,46,0,0
82724,-125,4,2,23,52,0,0
86924,-125,4,2,23,54,0,0
87524,-111.111111111111,4,2,23,56,0,0
87824,-111.111111111111,4,2,1,56,0,0
89474,-111.111111111111,4,2,23,56,0,0
89624,-111.111111111111,4,2,1,56,0,0
89924,-111.111111111111,4,2,23,56,0,0
90224,-111.111111111111,4,2,1,56,0,0
90374,-111.111111111111,4,2,23,56,0,0
90524,-111.111111111111,4,2,1,56,0,0
90674,-111.111111111111,4,2,23,56,0,0
90824,-111.111111111111,4,2,1,56,0,0
91874,-111.111111111111,4,2,23,56,0,0
92024,-111.111111111111,4,2,1,56,0,0
92324,-111.111111111111,4,2,23,56,0,0
92624,-111.111111111111,4,2,1,56,0,0
92774,-111.111111111111,4,2,23,56,0,0
92924,-111.111111111111,4,2,1,56,0,0
94274,-111.111111111111,4,2,23,56,0,0
94424,-111.111111111111,4,2,1,56,0,0
94724,-111.111111111111,4,2,23,56,0,0
95024,-111.111111111111,4,2,1,56,0,0
95174,-111.111111111111,4,2,23,56,0,0
95324,-111.111111111111,4,2,1,56,0,0
96674,-111.111111111111,4,2,23,58,0,0
96824,-111.111111111111,4,2,1,60,0,0
97124,-111.111111111111,4,2,1,58,0,0
99524,-133.333333333333,4,2,1,50,0,0
99824,-133.333333333333,4,2,1,40,0,0
100424,-133.333333333333,4,2,1,50,0,0
100724,-133.333333333333,4,2,1,40,0,0
100874,-111.111111111111,4,2,1,54,0,0
101024,-111.111111111111,4,2,1,58,0,0
101174,-111.111111111111,4,2,1,50,0,0
101249,-111.111111111111,4,2,1,54,0,0
101324,-111.111111111111,4,2,1,58,0,0
101474,-111.111111111111,4,2,1,50,0,0
101624,-111.111111111111,4,2,1,56,0,0
101924,-111.111111111111,4,2,1,58,0,0
104324,-111.111111111111,4,2,1,60,0,0
104549,-111.111111111111,4,2,1,20,0,0
104624,-111.111111111111,4,2,1,58,0,0
104774,-111.111111111111,4,2,1,54,0,0
104924,-111.111111111111,4,2,1,56,0,0
105224,-111.111111111111,4,2,1,58,0,0
105524,-125,4,2,1,46,0,0
106124,-125,4,2,1,38,0,0
106274,-125,4,2,1,44,0,0
106574,-125,4,2,1,36,0,0
106724,-111.111111111111,4,2,1,60,0,1
115724,-111.111111111111,4,2,1,60,0,0
116324,-105.263157894737,4,2,1,62,0,1
123449,-142.857142857143,4,2,1,62,0,0
123524,-105.263157894737,4,2,1,64,0,1
123674,-105.263157894737,4,2,23,64,0,1
123824,-200,4,2,23,64,0,0
123974,-105.263157894737,4,2,1,66,0,1
124274,-166.666666666666,4,2,1,66,0,0
124424,-105.263157894737,4,2,1,68,0,1
124724,-105.263157894737,4,2,23,68,0,0
124874,-105.263157894737,4,2,1,70,0,1
125024,-105.263157894737,4,2,23,70,0,1
125174,-125,4,2,23,70,0,0
125324,-105.263157894737,4,2,1,70,0,1
125924,-142.857142857143,4,2,1,50,0,0
132974,-142.857142857143,4,2,1,46,0,0
133124,-142.857142857143,4,2,1,10,0,0
134024,-142.857142857143,4,2,1,42,0,0
134174,-142.857142857143,4,2,1,46,0,0
134324,-142.857142857143,4,2,1,42,0,0
134924,-142.857142857143,4,2,1,46,0,0
135224,-142.857142857143,4,2,1,44,0,0
135524,-121.951219512195,4,2,23,60,0,0
135749,-121.951219512195,4,2,23,5,0,0
135824,-121.951219512195,4,2,23,60,0,0
136049,-121.951219512195,4,2,23,5,0,0
136124,-121.951219512195,4,2,23,60,0,0
136349,-121.951219512195,4,2,23,5,0,0
136424,-121.951219512195,4,2,23,60,0,0
136649,-121.951219512195,4,2,23,5,0,0
136724,-121.951219512195,4,2,23,60,0,0
136949,-121.951219512195,4,2,23,5,0,0
137024,-121.951219512195,4,2,23,60,0,0
137174,-121.951219512195,4,2,1,60,0,0
137324,-121.951219512195,4,2,23,60,0,0
137549,-121.951219512195,4,2,23,5,0,0
137624,-121.951219512195,4,2,23,60,0,0
137849,-121.951219512195,4,2,23,5,0,0
137924,-121.951219512195,4,2,23,60,0,0
138149,-121.951219512195,4,2,23,5,0,0
138224,-121.951219512195,4,2,23,60,0,0
138449,-121.951219512195,4,2,23,5,0,0
138524,-121.951219512195,4,2,23,60,0,0
138749,-121.951219512195,4,2,23,5,0,0
138824,-121.951219512195,4,2,23,60,0,0
139049,-121.951219512195,4,2,23,5,0,0
139124,-121.951219512195,4,2,23,60,0,0
139349,-121.951219512195,4,2,23,5,0,0
139424,-121.951219512195,4,2,23,60,0,0
139649,-121.951219512195,4,2,23,5,0,0
139724,-121.951219512195,4,2,23,60,0,0
139949,-121.951219512195,4,2,23,5,0,0
140024,-121.951219512195,4,2,23,60,0,0
140174,-121.951219512195,4,2,23,56,0,0
140249,-121.951219512195,4,2,23,58,0,0
140324,-121.951219512195,4,2,23,60,0,0
140549,-121.951219512195,4,2,23,5,0,0
140624,-121.951219512195,4,2,23,60,0,0
140849,-121.951219512195,4,2,23,5,0,0
140924,-121.951219512195,4,2,23,60,0,0
141149,-121.951219512195,4,2,23,5,0,0
141224,-121.951219512195,4,2,23,60,0,0
141449,-121.951219512195,4,2,23,5,0,0
141524,-121.951219512195,4,2,23,60,0,0
141749,-121.951219512195,4,2,23,5,0,0
141824,-121.951219512195,4,2,23,60,0,0
142049,-121.951219512195,4,2,23,5,0,0
142124,-121.951219512195,4,2,23,60,0,0
142424,-121.951219512195,4,2,1,60,0,0
142574,-121.951219512195,4,2,23,60,0,0
142724,-121.951219512195,4,2,1,62,0,0
142874,-121.951219512195,4,2,1,58,0,0
143024,-121.951219512195,4,2,1,62,0,0
143174,-121.951219512195,4,2,1,58,0,0
143324,-121.951219512195,4,2,23,60,0,0
143624,-121.951219512195,4,2,23,62,0,0
143924,-121.951219512195,4,2,1,64,0,0
144224,-121.951219512195,4,2,1,66,0,0
144524,-121.951219512195,4,2,1,68,0,0
144824,-121.951219512195,4,2,1,70,0,0
145124,-117.647058823529,4,2,1,64,0,0
147074,-117.647058823529,4,2,1,60,0,0
147224,-117.647058823529,4,2,1,66,0,0
147524,-117.647058823529,4,2,23,64,0,0
147674,-117.647058823529,4,2,1,62,0,0
147974,-117.647058823529,4,2,1,60,0,0
149924,-117.647058823529,4,2,1,64,0,0
151724,-117.647058823529,4,2,1,62,0,0
151874,-117.647058823529,4,2,1,66,0,0
152174,-117.647058823529,4,2,1,56,0,0
152324,-117.647058823529,4,2,1,64,0,0
152624,-117.647058823529,4,2,1,60,0,0
152924,-117.647058823529,4,2,1,64,0,0
153224,-117.647058823529,4,2,1,60,0,0
153524,-117.647058823529,4,2,1,66,0,0
153674,-117.647058823529,4,2,1,60,0,0
154724,-133.333333333333,4,2,1,40,0,0
154874,-133.333333333333,4,2,1,5,0,0
155624,-133.333333333333,4,2,1,32,0,0
155924,-133.333333333333,4,2,1,42,0,0
156074,-133.333333333333,4,2,1,5,0,0
156524,-133.333333333333,4,2,1,30,0,0
156824,-133.333333333333,4,2,1,32,0,0
157124,-133.333333333333,4,2,1,44,0,0
157424,-133.333333333333,4,2,1,20,0,0
157724,-133.333333333333,4,2,1,25,0,0
158024,-133.333333333333,4,2,1,30,0,0
158324,-114.942528735632,4,2,23,60,0,0
158624,-114.942528735632,4,2,23,62,0,0
158924,-114.942528735632,4,2,23,64,0,0
159224,-114.942528735632,4,2,23,68,0,0
159524,-100,4,2,1,76,0,1
159749,-100,4,2,1,45,0,1
159824,-100,4,2,1,76,0,1
163874,-100,4,2,1,74,0,1
164024,-99.9999999999999,4,2,1,72,0,0
164324,-117.647058823529,4,2,1,70,0,1
164624,-117.647058823529,4,2,1,20,0,1
164774,-117.647058823529,4,2,1,64,0,0
165224,-117.647058823529,4,2,1,60,0,0
165524,-117.647058823529,4,2,1,62,0,0
166424,-117.647058823529,4,2,1,60,0,0
166724,-117.647058823529,4,2,1,64,0,0
167024,-117.647058823529,4,2,1,20,0,0
167174,-117.647058823529,4,2,1,62,0,0
167924,-117.647058823529,4,2,23,50,0,0
168224,-117.647058823529,4,2,23,45,0,0
168524,-117.647058823529,4,2,23,60,0,0
168599,-117.647058823529,4,2,23,61,0,0
168674,-117.647058823529,4,2,23,62,0,0
168749,-117.647058823529,4,2,23,63,0,0
168824,-117.647058823529,4,2,23,64,0,0
168974,-117.647058823529,4,2,23,68,0,0
169124,-90.9090909090909,4,2,1,76,0,1
174599,-90.9090909090909,4,2,1,45,0,1
174674,-90.9090909090909,4,2,1,76,0,1
178274,-90.9090909090909,4,2,1,74,0,1
178349,-90.9090909090909,4,2,1,72,0,1
178424,-111.111111111111,4,2,1,70,0,0
178499,-111.111111111111,4,2,1,68,0,0
178574,-111.111111111111,4,2,1,66,0,0
178649,-111.111111111111,4,2,1,64,0,0
178724,-111.111111111111,4,2,1,66,0,0
183224,-111.111111111111,4,2,1,68,0,0
183524,-95.2380952380952,4,2,1,74,0,1
185624,-95.2380952380952,4,2,1,74,0,0
185924,-90.0900900900901,4,2,1,76,0,1
186074,-90.0900900900901,4,2,1,74,0,0
186374,-90.0900900900901,4,2,1,78,0,1
186524,-90.0900900900901,4,2,1,76,0,0
186824,-90.0900900900901,4,2,1,80,0,1
186974,-90.0900900900901,4,2,1,78,0,0
187124,-90.0900900900901,4,2,1,76,0,1
187574,-90.0900900900901,4,2,1,74,0,1
187724,-90.0900900900901,4,2,1,74,0,0
187874,-90.0900900900901,4,2,1,72,0,0
188024,-90.0900900900901,4,2,1,70,0,0
188174,-90.0900900900901,4,2,1,76,0,1
188249,-90.0900900900901,4,2,1,76,0,0

[Colours]
Combo1 : 250,190,230
Combo2 : 130,200,230
Combo3 : 255,230,140
Combo4 : 170,245,170

[HitObjects]
0,104,1124,6,0,B|41:99|75:120|75:120|96:63|147:35,1,192.499994125366,14|8,0:1|0:0,0:0:0:0:
252,83,2324,2,0,B|262:154|262:154|268:160|268:160|276:233,1,153.999995300293,10|10,0:1|0:1,0:0:0:0:
374,352,3524,2,0,B|415:348|449:364|449:364|437:319|456:269|456:269|462:262|462:262|453:243|465:205,1,230.99999295044,10|2,0:1|0:0,0:0:0:0:
497,144,4724,2,0,B|477:106|485:67|485:67|478:66|478:66|448:26|403:23|403:23|399:18|399:18|386:38|364:50,1,230.99999295044,10|2,0:1|0:0,0:0:0:0:
281,84,5924,6,0,L|191:75,2,88,14|10|10,0:1|0:0|0:1,0:0:0:0:
352,136,6824,1,10,0:1:0:0:
282,190,7124,2,0,P|267:220|282:275,1,88,10|10,0:1|0:0,0:0:0:0:
342,333,7724,2,0,L|430:342,1,88,10|10,0:1|0:1,0:0:0:0:
500,288,8324,2,0,P|515:258|500:203,1,88,14|10,0:1|0:1,0:0:0:0:
445,140,8924,1,10,0:3:0:0:
360,162,9224,2,0,L|315:151,1,44,10|8,0:1|0:0,0:0:0:0:
0,354,10724,6,0,L|116:342,1,98.9999969787599,14|10,0:0|0:0,0:0:0:0:
191,376,11324,1,10,0:0:0:0:
228,284,11624,1,10,0:0:0:0:
135,251,11924,2,0,P|115:201|130:150,1,98.9999969787599,10|10,0:0|0:0,0:0:0:0:
155,119,12374,1,8,0:1:0:0:
155,119,12524,2,0,L|258:104,1,98.9999969787599,10|10,0:0|0:0,0:0:0:0:
365,101,13124,5,10,0:0:0:0:
382,3,13424,1,14,0:0:0:0:
460,63,13724,1,10,0:0:0:0:
447,161,14024,1,8,0:0:0:0:
447,161,14174,2,0,P|454:217|481:263,1,98.9999969787599,10|10,0:1|0:1,0:0:0:0:
512,294,14624,1,10,0:0:0:0:
512,294,14774,2,0,P|458:270|349:274,1,148.49999546814,8|8,0:0|0:0,0:0:0:0:
274,329,15524,6,0,P|238:337|172:312,1,98.9999969787599,14|10,0:1|0:0,0:0:0:0:
105,253,16124,1,6,0:3:0:0:
105,253,16274,1,10,0:3:0:0:
181,190,16574,2,0,P|200:150|172:88,1,98.9999969787599,14|10,0:0|0:1,0:0:0:0:
112,31,17174,1,2,0:0:0:0:
19,55,17474,1,10,0:1:0:0:
19,55,17624,1,14,0:0:0:0:
0,159,17924,6,0,L|16:267,1,98.9999969787599,14|10,0:1|0:0,0:0:0:0:
74,336,18524,2,0,P|118:321|181:327,1,98.9999969787599,10|8,0:0|0:1,0:0:0:0:
214,346,18974,2,0,P|260:361|309:358,1,98.9999969787599,14|8,0:0|0:1,0:0:0:0:
353,333,19424,1,8,0:0:0:0:
401,246,19724,2,0,L|386:148,1,98.9999969787599,10|10,0:3|0:0,0:0:0:0:
369,65,20324,5,12,0:1:0:0:
369,65,20474,1,8,0:1:0:0:
369,65,20624,1,8,0:0:0:0:
308,230,21224,1,8,0:0:0:0:
143,169,21824,1,8,0:0:0:0:
204,4,22424,1,8,0:0:0:0:
260,84,22724,5,8,0:1:0:0:
260,84,22874,1,8,0:1:0:0:
260,84,23024,1,8,0:0:0:0:
96,19,23624,1,8,0:0:0:0:
31,183,24224,1,8,0:0:0:0:
195,248,24824,1,8,0:0:0:0:
256,185,25124,5,8,0:1:0:0:
256,185,25274,1,8,0:1:0:0:
256,185,25424,2,0,P|228:103|268:25,1,176,8|8,0:0|0:0,0:0:0:0:
361,38,26324,1,8,0:1:0:0:
361,38,26474,1,8,0:1:0:0:
361,38,26624,2,0,P|384:121|340:197,1,176,8|8,0:0|0:0,0:0:0:0:
315,209,27374,1,8,0:1:0:0:
285,219,27524,6,0,L|187:204,1,88,8|8,0:1|0:0,0:0:0:0:
29,258,28424,1,8,0:0:0:0:
181,346,29024,2,0,B|311:325|311:325|341:360,1,176,8|10,0:0|0:0,0:0:0:0:
436,380,29924,6,0,P|453:341|439:288,1,93.500001783371,14|10,0:1|0:0,0:0:0:0:
387,216,30524,1,0,0:0:0:0:
437,137,30824,1,10,0:0:0:0:
379,62,31124,2,0,P|338:40|291:43,1,93.500001783371,10|8,0:1|0:0,0:0:0:0:
212,92,31724,1,0,0:0:0:0:
135,38,32024,1,10,0:0:0:0:
35,84,32324,6,0,P|17:123|28:179,1,93.500001783371,10|8,0:1|0:0,0:0:0:0:
54,207,32774,2,0,P|102:200|152:224,1,93.500001783371,2|8,0:0|0:1,0:0:0:0:
179,246,33224,2,0,B|338:251|242:115|405:112,1,280.500005350113,10|8,0:0|0:1,0:0:0:0:
495,112,34424,1,10,0:0:0:0:
512,213,34724,6,0,L|495:315,1,93.500001783371,10|8,0:1|0:0,0:0:0:0:
430,370,35324,1,0,0:0:0:0:
364,303,35624,1,10,0:0:0:0:
276,336,35924,2,0,L|178:327,1,93.500001783371,10|8,0:1|0:0,0:0:0:0:
110,384,36524,1,2,0:0:0:0:
33,329,36824,1,10,0:0:0:0:
70,233,37124,6,0,L|79:135,1,93.500001783371,14|10,0:1|0:0,0:0:0:0:
139,68,37724,2,0,P|190:80|234:65,1,93.500001783371,10|10,0:1|0:0,0:0:0:0:
271,47,38174,1,8,0:1:0:0:
271,47,38324,2,0,P|313:29|359:36,1,93.500001783371,10|10,0:1|0:0,0:0:0:0:
434,92,38924,2,0,L|443:190,1,93.500001783371,8|14,0:0|0:0,0:0:0:0:
395,278,39524,6,0,B|353:271|353:271|337:279|337:279|293:273,1,98.9999969787599,10|10,0:0|0:0,0:0:0:0:
252,292,39974,1,8,0:1:0:0:
252,292,40124,2,0,L|235:177,1,98.9999969787599,10|8,0:0|0:0,0:0:0:0:
227,145,40574,1,10,0:0:0:0:
136,105,40874,1,6,0:3:0:0:
136,105,41024,2,0,L|148:0,2,98.9999969787599,10|6|10,0:0|0:3|0:0,0:0:0:0:
44,162,41924,6,0,P|21:205|28:257,2,98.9999969787599,10|10|10,0:0|0:0|0:0,0:0:0:0:
134,118,42824,2,0,B|247:118|180:206|288:218,1,197.99999395752,8|12,0:0|0:0,0:0:0:0:
360,151,43724,2,0,P|355:103|372:52,1,98.9999969787599,10|8,0:1|0:1,0:0:0:0:
481,18,44324,6,0,P|498:63|496:113,1,98.9999969787599,14|10,0:1|0:0,0:0:0:0:
434,191,44924,1,10,0:1:0:0:
484,276,45224,1,10,0:0:0:0:
406,337,45524,2,0,P|366:323|307:322,1,98.9999969787599,10|10,0:1|0:0,0:0:0:0:
219,363,46124,2,0,P|169:362|122:347,1,98.9999969787599,10|8,0:1|0:0,0:0:0:0:
97,331,46574,1,8,0:1:0:0:
79,306,46724,6,0,L|74:194,1,98.9999969787599,14|10,0:0|0:0,0:0:0:0:
111,104,47324,1,10,0:0:0:0:
199,166,47624,1,10,0:0:0:0:
477,30,49124,6,0,L|365:21,1,110,14|10,0:0|0:0,0:0:0:0:
278,85,49724,1,10,0:0:0:0:
316,187,50024,1,10,0:0:0:0:
248,274,50324,2,0,L|138:282,1,110,10|10,0:0|0:0,0:0:0:0:
90,269,50774,1,8,0:1:0:0:
90,269,50924,2,0,P|71:217|87:161,1,110,10|10,0:0|0:0,0:0:0:0:
157,71,51524,5,10,0:0:0:0:
157,71,51674,1,8,0:1:0:0:
157,71,51824,2,0,L|284:60,1,110,10|10,0:0|0:0,0:0:0:0:
361,4,52424,1,10,0:0:0:0:
448,70,52724,2,0,P|467:122|451:178,1,110,10|8,0:2|0:0,0:0:0:0:
429,222,53174,1,8,0:0:0:0:
429,222,53324,2,0,B|366:210|383:247|308:235,1,110,10|8,0:1|0:0,0:0:0:0:
218,176,53924,6,0,P|173:145|118:143,1,110,14|10,0:0|0:0,0:0:0:0:
20,193,54524,1,10,0:0:0:0:
18,302,54824,1,10,0:0:0:0:
113,356,55124,2,0,P|167:354|212:323,1,110,10|10,0:0|0:0,0:0:0:0:
256,289,55574,1,8,0:1:0:0:
256,289,55724,2,0,L|266:174,1,110,10|10,0:0|0:0,0:0:0:0:
233,63,56324,5,10,0:0:0:0:
325,3,56624,1,10,0:2:0:0:
432,26,56924,1,10,0:0:0:0:
476,132,57224,1,10,0:0:0:0:
476,132,57374,2,0,L|452:250,1,110,10|10,0:1|3:1,0:0:0:0:
454,294,57824,1,12,3:2:0:0:
364,358,58124,2,0,P|334:346|293:349,1,55,10|2,3:1|3:2,0:0:0:0:
258,361,58424,2,0,P|232:371|205:373,1,55,0|0,1:0|1:0,0:0:0:0:
154,352,58724,6,0,L|140:227,1,110,14|8,0:1|0:0,0:0:0:0:
32,231,59324,2,0,L|46:106,1,110,10|8,0:1|0:0,0:0:0:0:
128,50,59924,1,10,0:1:0:0:
128,50,60074,1,8,0:1:0:0:
128,50,60224,2,0,B|184:37|180:75|235:63,2,110,10|10|10,0:0|0:1|0:0,0:0:0:0:
25,119,61124,5,10,0:1:0:0:
92,206,61424,1,10,0:0:0:0:
17,286,61724,1,10,0:1:0:0:
86,371,62024,1,10,0:0:0:0:
164,293,62324,2,0,P|212:270|264:282,1,110,14|10,0:1|0:1,0:0:0:0:
343,359,62924,2,0,P|395:371|443:347,1,110,8|4,0:3|0:3,0:0:0:0:
510,269,63524,6,0,L|482:80,1,187.000003566742,14|8,0:1|0:0,0:0:0:0:
410,24,64424,1,10,0:1:0:0:
350,96,64724,1,2,0:0:0:0:
279,34,65024,1,10,0:1:0:0:
217,104,65324,2,0,L|210:201,1,93.500001783371,10|0,0:0|1:0,0:0:0:0:
113,280,65924,5,14,0:1:0:0:
27,210,66224,5,14,0:1:0:0:
15,99,66524,5,14,0:1:0:0:
85,13,66824,5,14,0:1:0:0:
445,150,68324,6,0,P|459:106|444:62,1,93.500001783371,14|0,0:1|0:0,0:0:0:0:
407,37,68774,1,8,0:1:0:0:
407,37,68924,2,0,L|312:28,1,93.500001783371,8|2,0:0|0:0,0:0:0:0:
230,71,69524,2,0,P|215:114|230:158,1,93.500001783371,10|8,0:1|0:1,0:0:0:0:
295,225,70124,2,0,P|309:268|295:312,1,93.500001783371,8|2,0:0|0:0,0:0:0:0:
197,363,70724,6,0,L|97:356,1,93.500001783371,14|0,0:1|0:0,0:0:0:0:
60,341,71174,1,8,0:1:0:0:
60,341,71324,2,0,P|45:297|59:253,1,93.500001783371,8|2,0:0|0:0,0:0:0:0:
102,170,71924,2,0,B|95:137|95:137|97:120|97:120|87:64,2,93.500001783371,10|8|8,0:1|0:1|0:0,0:0:0:0:
133,204,72674,2,0,P|176:222|233:200,1,93.500001783371,14|0,0:1|1:0,0:0:0:0:
261,175,73124,6,0,L|274:73,1,98.9999969787599,14|8,0:1|0:0,0:0:0:0:
342,6,73724,1,10,0:1:0:0:
440,17,74024,1,10,0:0:0:0:
489,102,74324,2,0,L|476:200,1,98.9999969787599,8|8,0:1|0:0,0:0:0:0:
463,298,74924,1,10,0:1:0:0:
382,355,75224,1,10,0:0:0:0:
312,278,75524,5,10,0:1:0:0:
312,278,75674,2,0,L|299:179,1,98.9999969787599,8|8,0:0|0:3,0:0:0:0:
276,136,76124,2,0,P|235:114|178:116,1,98.9999969787599,6|8,0:3|0:1,0:0:0:0:
82,153,76724,1,14,3:1:0:0:
150,237,77024,1,14,3:1:0:0:
65,305,77324,1,14,3:1:0:0:
145,377,77624,1,14,3:1:0:0:
145,377,79124,5,10,1:1:0:0:
65,305,79424,1,10,1:1:0:0:
150,237,79724,1,10,1:1:0:0:
82,153,80024,1,10,1:1:0:0:
183,114,80324,1,8,1:1:0:0:
183,114,81374,5,10,0:1:0:0:
254,169,81674,1,10,0:0:0:0:
254,169,81824,1,10,0:0:0:0:
319,113,82124,2,0,P|309:68|320:26,1,88,2|12,0:0|0:0,0:0:0:0:
415,14,82724,6,0,B|465:64|421:164|421:164|364:182|339:246,1,264,14|8,0:1|0:1,0:0:0:0:
304,309,83924,2,0,B|288:356|244:373|244:373|174:313|216:214,1,264,10|10,0:1|0:1,0:0:0:0:
255,137,85124,2,0,P|277:85|256:4,2,132,10|2|10,0:1|1:0|0:1,0:0:0:0:
199,205,86324,2,0,L|105:218,1,88,10|8,0:1|0:1,0:0:0:0:
30,184,86924,1,10,1:1:0:0:
34,96,87224,1,8,1:1:0:0:
109,24,87524,6,0,B|162:20|150:61|216:59,1,98.9999969787599,14|8,0:1|0:0,0:0:0:0:
252,57,87974,1,8,0:1:0:0:
252,57,88124,2,0,P|286:35|361:27,1,98.9999969787599,10|10,0:3|0:0,0:0:0:0:
389,43,88574,2,0,L|410:153,1,98.9999969787599,10|6,0:3|0:3,0:0:0:0:
476,220,89174,1,10,0:3:0:0:
476,220,89324,2,0,L|459:336,1,98.9999969787599,4|10,0:3|0:0,0:0:0:0:
366,368,89924,6,0,P|323:341|258:331,1,98.9999969787599,10|8,0:1|0:0,0:0:0:0:
233,356,90374,2,0,P|188:376|136:379,1,98.9999969787599,10|8,0:1|0:1,0:0:0:0:
91,365,90824,2,0,L|73:163,1,197.99999395752,10|10,0:0|0:3,0:0:0:0:
174,0,92024,1,10,0:0:0:0:
219,90,92324,6,0,P|260:113|312:105,1,98.9999969787599,14|8,0:1|0:0,0:0:0:0:
348,74,92774,1,10,0:1:0:0:
348,74,92924,2,0,P|390:50|438:57,1,98.9999969787599,10|8,0:3|0:0,0:0:0:0:
483,89,93374,1,10,0:3:0:0:
483,89,93524,2,0,L|500:241,2,148.49999546814,4|10|10,0:3|0:3|0:0,0:0:0:0:
401,33,94724,6,0,B|371:23|371:23|352:56|316:58,1,98.9999969787599,10|10,0:1|0:0,0:0:0:0:
271,63,95174,1,8,0:1:0:0:
271,63,95324,2,0,P|234:40|164:44,1,98.9999969787599,10|10,0:3|0:0,0:0:0:0:
142,70,95774,2,0,B|128:94|128:94|121:194|181:238|181:238|186:269|168:302,1,247.4999924469,10|8,0:3|0:0,0:0:0:0:
146,338,96674,2,0,L|86:358,1,49.4999984893799,10|14,0:1|0:0,0:0:0:0:
0,306,97124,6,0,B|3:200,1,98.9999969787599,10|10,0:0|0:0,0:0:0:0:
34,170,97574,1,8,0:1:0:0:
34,170,97724,2,0,B|37:64,1,98.9999969787599,10|8,0:0|0:0,0:0:0:0:
66,31,98174,1,10,0:0:0:0:
164,43,98474,1,6,0:3:0:0:
164,43,98624,2,0,B|201:37|201:37|215:41|215:41|277:32,2,98.9999969787599,10|6|10,0:0|0:3|0:1,0:0:0:0:
77,59,99524,5,2,0:0:0:0:
109,297,100424,1,2,0:0:0:0:
255,270,100874,5,8,0:1:0:0:
255,270,101024,2,0,B|292:274|292:274|304:285|304:285|358:290,2,98.9999969787599,14|14|0,0:0|0:1|1:0,0:0:0:0:
176,209,101924,6,0,P|161:156|177:101,1,98.9999969787599,14|10,0:1|0:1,0:0:0:0:
222,29,102524,1,10,0:1:0:0:
222,29,102674,1,2,0:0:0:0:
304,83,102974,2,0,L|419:88,1,98.9999969787599,2|2,0:0|0:0,0:0:0:0:
482,146,103574,2,0,P|490:194|475:240,1,98.9999969787599,2|2,0:0|0:0,0:0:0:0:
415,319,104174,1,2,0:0:0:0:
415,319,104324,2,0,L|308:326,1,98.9999969787599,14|8,0:0|0:1,0:0:0:0:
230,375,104924,1,0,3:0:0:0:
196,281,105224,1,0,1:0:0:0:
90,307,105524,6,0,P|58:274|71:142,1,176,2|0,0:0|0:0,0:0:0:0:
94,120,106274,2,0,L|140:82,1,44,2|2,0:0|0:0,0:0:0:0:
217,35,106724,6,0,B|249:41|283:40|283:40|307:63|307:63|352:69|401:96,1,197.99999395752,14|8,0:1|0:0,0:0:0:0:
478,172,107624,1,2,0:0:0:0:
478,172,107774,1,8,0:1:0:0:
478,172,107924,2,0,L|464:280,1,98.9999969787599,2|10,0:0|0:1,0:0:0:0:
410,352,108524,2,0,P|369:329|298:336,1,98.9999969787599,10|2,0:0|0:0,0:0:0:0:
219,375,109124,5,14,0:1:0:0:
179,284,109424,1,2,0:0:0:0:
235,202,109724,1,10,0:0:0:0:
188,114,110024,1,2,0:0:0:0:
246,34,110324,2,0,L|352:18,1,98.9999969787599,2|10,0:0|0:1,0:0:0:0:
432,62,110924,2,0,P|456:114|450:166,1,98.9999969787599,10|8,0:0|0:1,0:0:0:0:
401,242,111524,6,0,B|339:230|339:230|289:266|289:266|196:254,1,197.99999395752,14|10,0:1|0:0,0:0:0:0:
126,214,112424,1,2,0:0:0:0:
186,135,112724,2,0,P|203:89|185:44,1,98.9999969787599,2|10,0:0|0:1,0:0:0:0:
89,21,113324,2,0,P|51:51|43:99,1,98.9999969787599,10|10,0:0|0:1,0:0:0:0:
53,131,113774,1,8,0:0:0:0:
65,163,113924,6,0,B|77:197|77:197|76:224|76:224|90:264,1,98.9999969787599,14|6,0:1|0:3,0:0:0:0:
149,336,114524,2,0,P|195:321|244:328,1,98.9999969787599,10|10,0:0|0:1,0:0:0:0:
338,358,115124,2,0,P|386:365|433:350,1,98.9999969787599,10|10,0:1|0:1,0:0:0:0:
472,319,115574,1,8,0:0:0:0:
472,319,115724,2,0,L|476:210,1,98.9999969787599,10|8,0:0|0:0,0:0:0:0:
464,105,116324,6,0,B|430:92|430:92|398:101|354:88,1,104.499997209549,14|2,0:1|0:0,0:0:0:0:
317,64,116774,1,10,0:1:0:0:
317,64,116924,1,4,0:0:0:0:
221,106,117224,2,0,P|203:145|218:211,1,104.499997209549,2|2,0:0|0:0,0:0:0:0:
249,241,117674,2,0,P|260:291|241:338,1,104.499997209549,2|2,0:0|0:0,0:0:0:0:
192,360,118124,2,0,L|85:376,1,104.499997209549,10|10,0:0|0:1,0:0:0:0:
0,300,118724,6,0,P|-10:249|8:202,1,104.499997209549,14|2,0:1|0:0,0:0:0:0:
51,172,119174,1,2,0:0:0:0:
51,172,119324,1,10,0:0:0:0:
141,223,119624,2,0,L|248:209,1,104.499997209549,2|2,0:0|0:0,0:0:0:0:
288,237,120074,2,0,L|395:223,1,104.499997209549,2|0,0:0|0:0,0:0:0:0:
441,239,120524,1,10,0:0:0:0:
491,147,120824,1,10,0:1:0:0:
409,63,121124,6,0,L|300:49,1,104.499997209549,14|0,0:1|0:0,0:0:0:0:
213,99,121724,2,0,P|191:145|204:194,1,104.499997209549,10|2,0:0|0:0,0:0:0:0:
236,243,122174,1,8,0:1:0:0:
236,243,122324,2,0,P|249:292|227:338,1,104.499997209549,2|10,0:0|0:1,0:0:0:0:
130,381,122924,1,10,0:0:0:0:
35,336,123224,1,10,0:1:0:0:
60,224,123524,6,0,B|65:190|65:190|62:174|62:174|69:120,1,104.499997209549,14|8,0:1|0:1,0:0:0:0:
83,73,123973,1,14,0:1:0:0:
83,73,124124,1,10,0:0:0:0:
176,26,124424,2,0,L|289:19,1,104.499997209549,14|8,0:1|0:1,0:0:0:0:
327,41,124874,1,14,0:0:0:0:
327,41,125024,1,10,0:1:0:0:
393,121,125324,2,0,P|394:146|377:184,1,52.2499986047745,14|10,0:2|0:2,0:0:0:0:
353,212,125624,2,0,P|352:237|360:262,1,52.2499986047745,10|10,0:1|0:0,0:0:0:0:
0,199,132974,6,2,B|47:173|47:173|133:224|85:295|176:370|176:370|236:336,1,346.49998942566,2|2,0:0|0:0,0:2:0:0:
270,198,134924,2,2,P|263:159|268:118,1,76.9999976501466,2|2,0:0|0:0,0:1:0:0:
331,45,135524,6,0,L|442:33,2,90.2000013763428,14|10|10,0:1|0:1|0:1,0:0:0:0:
269,111,136424,1,10,0:1:0:0:
315,188,136724,2,0,P|335:231|323:286,1,90.2000013763428,14|10,0:1|0:1,0:0:0:0:
303,310,137174,1,8,0:0:0:0:
303,310,137324,2,0,L|202:324,1,90.2000013763428,10|10,0:1|0:1,0:0:0:0:
119,355,137924,6,0,L|122:256,1,90.2000013763428,14|10,0:1|0:1,0:0:0:0:
82,183,138524,1,10,0:1:0:0:
146,120,138824,1,10,0:1:0:0:
109,37,139124,2,0,B|81:30|81:30|54:38|54:38|4:28,2,90.2000013763428,14|10|10,0:1|0:1|0:1,0:0:0:0:
193,5,140024,1,10,0:1:0:0:
259,75,140324,6,0,B|263:108|263:108|259:129|259:129|266:180,1,90.2000013763428,14|10,0:1|0:1,0:0:0:0:
315,238,140924,1,10,0:1:0:0:
256,306,141224,1,10,0:1:0:0:
319,369,141524,2,0,L|423:361,1,90.2000013763428,14|10,0:1|0:1,0:0:0:0:
487,316,142124,2,0,P|494:267|464:222,1,90.2000013763428,10|10,0:1|0:0,0:0:0:0:
455,208,142574,1,10,0:1:0:0:
431,186,142724,6,0,L|323:178,1,90.2000013763428,14|10,0:0|0:1,0:0:0:0:
263,225,143324,2,0,L|155:217,1,90.2000013763428,10|10,0:1|0:1,0:0:0:0:
136,244,143774,1,8,0:1:0:0:
136,244,143924,2,0,L|126:154,1,90.2000013763428,10|10,0:1|0:1,0:0:0:0:
61,91,144524,1,10,0:1:0:0:
112,17,144824,1,10,0:1:0:0:
207,67,145124,5,14,0:1:0:0:
207,67,145274,2,0,L|306:55,1,93.500001783371,8|8,0:1|0:0,0:0:0:0:
387,86,145874,1,8,0:1:0:0:
387,86,146024,2,0,L|450:79,1,46.7500008916855,10|8,0:0|0:1,0:0:0:0:
475,102,146324,2,0,P|490:127|489:194,1,93.500001783371,10|8,0:0|0:1,0:0:0:0:
453,229,146774,2,0,L|357:241,1,93.500001783371,10|8,0:0|0:1,0:0:0:0:
315,256,147224,6,0,B|277:283|266:328|266:328|201:315|159:359|159:359|121:295|180:256|134:202|134:202|140:189|140:189|114:160|123:112,1,467.500008916855,8|8,0:0|0:2,0:0:0:0:
202,9,149924,5,14,0:1:0:0:
202,9,150074,1,14,0:1:0:0:
17,174,151724,1,2,0:3:0:0:
17,174,151874,1,14,0:1:0:0:
116,272,152324,6,0,L|221:261,1,93.500001783371,14|0,0:1|0:0,0:0:0:0:
267,335,152924,2,0,L|372:324,1,93.500001783371,14|0,0:1|0:0,0:0:0:0:
440,276,153524,2,0,P|446:234|425:181,1,93.500001783371,14|4,0:1|0:3,0:0:0:0:
396,152,153974,1,4,0:3:0:0:
396,152,154124,2,0,L|283:142,1,93.500001783371,8|4,0:3|0:3,0:0:0:0:
248,67,154724,5,2,0:0:0:0:
183,322,155924,1,2,0:0:0:0:
3,128,157124,1,2,0:0:0:0:
270,16,158324,5,8,1:1:0:0:
217,95,158624,1,8,1:1:0:0:
279,167,158924,1,8,1:1:0:0:
233,251,159224,1,8,1:1:0:0:
304,334,159524,6,0,B|345:335|345:335|363:352|363:352|420:352,1,110,14|8,0:1|0:0,0:0:0:0:
461,344,159974,1,8,0:1:0:0:
461,344,160124,2,0,P|478:298|452:227,1,110,10|8,0:0|0:0,0:0:0:0:
427,198,160574,1,8,0:1:0:0:
427,198,160724,2,0,L|301:186,1,110,10|10,0:2|0:0,0:0:0:0:
223,244,161324,2,0,L|97:232,1,110,10|8,0:0|0:0,0:0:0:0:
75,229,161774,1,8,0:0:0:0:
36,225,161924,6,0,P|20:175|52:109,2,110,10|10|10,0:2|0:2|0:2,0:0:0:0:
95,318,162824,1,10,0:0:0:0:
192,266,163124,2,0,P|226:248|300:255,1,110,10|10,0:0|0:0,0:0:0:0:
340,293,163574,1,8,0:0:0:0:
340,293,163724,2,0,P|389:314|443:306,1,110,10|8,0:1|0:3,0:0:0:0:
506,213,164324,6,0,B|489:158|509:75|509:75|503:41|475:24,1,187.000003566742,14|8,0:1|0:0,0:0:0:0:
392,6,165224,1,10,0:1:0:0:
334,79,165524,2,0,B|330:95|330:95|331:105|331:105|327:114|327:114|329:124|329:124|326:131|326:131|328:140|328:140|323:151|323:151|325:158|325:158|323:172,1,93.500001783371,8|8,0:1|0:1,0:0:0:0:
303,260,166124,2,0,P|258:282|210:264,1,93.500001783371,10|8,0:0|0:1,0:0:0:0:
143,214,166724,6,0,L|130:115,1,93.500001783371,14|0,0:1|0:0,0:0:0:0:
106,80,167174,1,8,0:1:0:0:
106,80,167324,2,0,P|60:65|7:77,2,93.500001783371,10|14|8,0:0|0:1|0:1,0:0:0:0:
207,237,168524,2,0,P|199:293|218:327,1,93.500001783371,8|0,1:3|1:0,0:0:0:0:
249,339,168974,1,0,1:0:0:0:
290,350,169124,6,0,L|423:341,1,121.000003692627,14|10,0:1|0:0,0:0:0:0:
502,261,169724,1,2,0:0:0:0:
432,162,170024,1,8,0:0:0:0:
432,162,170174,2,0,L|301:149,1,121.000003692627,2|2,0:1|0:0,0:0:0:0:
194,119,170774,1,10,0:1:0:0:
112,208,171074,1,10,0:1:0:0:
0,177,171374,5,2,0:0:0:0:
0,177,171524,2,0,P|-20:112|6:61,1,121.000003692627,10|8,0:1|0:0,0:0:0:0:
46,26,171974,1,10,0:1:0:0:
46,26,172124,2,0,L|173:21,1,121.000003692627,2|8,0:0|0:0,0:0:0:0:
284,49,172724,2,0,P|304:114|278:165,1,121.000003692627,8|8,0:1|0:0,0:0:0:0:
255,182,173174,1,10,0:1:0:0:
225,202,173324,6,0,P|194:252|207:310,1,121.000003692627,2|8,0:0|0:0,0:0:0:0:
307,379,173924,2,0,B|356:372|356:372|373:382|373:382|435:372,1,121.000003692627,14|10,0:1|0:0,0:0:0:0:
484,380,174374,1,10,0:1:0:0:
508,261,174674,1,10,0:1:0:0:
470,146,174974,2,0,B|421:139|421:139|408:147|408:147|342:139,1,121.000003692627,2|10,0:0|0:1,0:0:0:0:
312,103,175424,1,10,0:0:0:0:
312,103,175574,2,0,P|292:50|224:37,1,121.000003692627,10|10,0:1|0:1,0:0:0:0:
47,68,176324,6,0,L|33:190,1,121.000003692627,10|10,0:1|0:0,0:0:0:0:
30,249,176774,1,10,0:1:0:0:
79,359,177074,1,10,0:1:0:0:
79,358,177224,2,0,P|133:332|192:334,1,121.000003692627,10|10,0:0|0:0,0:0:0:0:
310,363,177824,2,0,P|369:364|423:338,1,121.000003692627,10|10,0:0|0:0,0:0:0:0:
459,288,178274,2,0,L|472:167,1,121.000003692627,8|8,0:0|0:3,0:0:0:0:
465,107,178724,6,0,B|381:93|411:157|328:156,1,148.49999546814,14|10,0:1|0:1,0:0:0:0:
234,137,179474,1,10,0:1:0:0:
163,67,179774,1,10,0:1:0:0:
67,91,180074,1,10,0:1:0:0:
67,91,180224,2,0,P|37:135|46:200,1,98.9999969787599,2|10,0:0|0:0,0:0:0:0:
51,274,180824,1,2,0:0:0:0:
148,321,181124,6,0,B|199:319|199:319|223:344|223:344|293:362,1,148.49999546814,10|10,0:1|0:1,0:0:0:0:
378,329,181874,1,10,0:1:0:0:
344,235,182174,1,10,0:1:0:0:
417,169,182474,2,0,P|428:121|406:67,1,98.9999969787599,10|8,0:1|0:1,0:0:0:0:
379,37,182924,2,0,L|257:27,1,98.9999969787599,14|0,0:0|1:0,0:0:0:0:
168,73,183524,6,0,P|144:122|157:187,1,115.49999647522,14|8,0:1|0:0,0:0:0:0:
192,223,183974,2,0,P|201:279|177:330,1,115.49999647522,10|8,0:1|0:1,0:0:0:0:
126,359,184424,2,0,L|3:368,2,115.49999647522,10|10|10,0:0|0:1|0:0,0:0:0:0:
229,323,185324,1,10,0:1:0:0:
327,371,185624,1,10,0:0:0:0:
441,315,185924,6,0,P|460:257|431:181,1,122.100002980957,14|8,2:0|0:1,0:0:0:0:
404,157,186374,2,0,B|362:154|362:154|334:167|334:167|285:163,1,122.100002980957,14|8,2:0|0:1,0:0:0:0:
232,138,186824,2,0,P|243:80|197:31,1,122.100002980957,14|0,0:0|1:0,0:0:0:0:
151,13,187274,1,0,1:0:0:0:
151,13,187424,1,0,1:0:0:0:
40,77,187724,6,0,L|44:166,1,61.0500014904786,10|8,0:1|0:3,0:0:0:0:
64,192,188024,2,0,L|68:281,1,61.0500014904786,4|14,0:3|0:0,0:0:0:0:
