osu file format v14

[General]
AudioFilename: audio.mp3
AudioLeadIn: 0
PreviewTime: 48585
Countdown: 0
SampleSet: Soft
StackLeniency: 0.7
Mode: 0
LetterboxInBreaks: 0
WidescreenStoryboard: 0

[Editor]
DistanceSpacing: 0.6
BeatDivisor: 4
GridSize: 16
TimelineZoom: 3.399999

[Metadata]
Title:Nijimu Sabiiro (Anime Ver)
TitleUnicode:滲む錆色(アニメVer)
Artist:MEMAI SIREN
ArtistUnicode:眩暈SIREN
Creator:wafer
Version:Submerged
Source:spinoid
Tags:japanese pop rock hidu sidu しづ スピノイド paradogi sylvarus agatsu iwaifu
BeatmapID:2324783
BeatmapSetID:1112783

[Difficulty]
HPDrainRate:5
CircleSize:4
OverallDifficulty:8.6
ApproachRate:9
SliderMultiplier:1.9
SliderTickRate:1

[Events]
//Background and Video events
0,0,"tumblr_static_a29qnfe11rksowg48gwos4k4g.jpg",0,0
Video,0,"video.mp4"
//Break Periods
//Storyboard Layer 0 (Background)
//Storyboard Layer 1 (Fail)
//Storyboard Layer 2 (Pass)
//Storyboard Layer 3 (Foreground)
//Storyboard Layer 4 (Overlay)
//Storyboard Sound Samples

[TimingPoints]
1790,300,4,2,1,46,1,0
1790,-166.666666666667,4,2,1,46,0,0
6590,-125,4,2,1,50,0,0
11240,-125,4,2,1,40,0,0
11390,-100,4,2,1,60,0,0
16940,-76.9230769230769,4,2,1,60,0,0
17240,-100,4,2,1,60,0,0
20390,-111.111111111111,4,2,1,60,0,0
20990,-142.857142857143,4,2,1,50,0,0
30590,-125,4,2,1,55,0,0
39890,-142.857142857143,4,2,1,55,0,0
40190,-142.857142857143,4,2,1,52,0,0
44990,-111.111111111111,4,2,1,55,0,0
49790,-83.3333333333333,4,2,1,62,0,0
64190,-133.333333333333,4,2,1,55,0,0
66590,-100,4,2,1,55,0,0
68990,-181.818181818181,4,2,1,40,0,0
73040,-181.818181818181,4,2,1,37,0,0
73190,-181.818181818181,4,2,1,32,0,0
73340,-181.818181818181,4,2,1,27,0,0
73490,-181.818181818181,4,2,1,21,0,0
73640,-181.818181818181,4,2,1,14,0,0
73790,-181.818181818181,4,2,1,40,0,0
77690,-181.818181818181,4,2,1,37,0,0
77840,-181.818181818181,4,2,1,32,0,0
77990,-181.818181818181,4,2,1,27,0,0
78140,-181.818181818181,4,2,1,21,0,0
78290,-181.818181818181,4,2,1,14,0,0
78440,-181.818181818181,4,2,1,40,0,0
82490,-181.818181818181,4,2,1,37,0,0
82640,-181.818181818181,4,2,1,32,0,0
82790,-181.818181818181,4,2,1,27,0,0
82940,-181.818181818181,4,2,1,21,0,0
83090,-181.818181818181,4,2,1,14,0,0
83390,-181.818181818181,4,2,1,40,0,0
84740,-181.818181818181,4,2,1,30,0,0
85490,-181.818181818181,4,2,1,40,0,0
85790,-1000,4,2,1,40,0,0
86990,-1000,4,2,0,37,0,0
87140,-1000,4,2,1,32,0,0
87290,-1000,4,2,0,27,0,0
87440,-1000,4,2,1,21,0,0
87590,-1000,4,2,0,14,0,0
89990,-1000,4,2,1,10,0,0
90140,-1000,4,2,0,8,0,0
90290,-1000,4,2,1,7,0,0
90440,-1000,4,2,0,5,0,0

[Colours]
Combo1 : 236,83,87
Combo2 : 254,242,95
Combo3 : 212,212,212

[HitObjects]
47,113,1790,5,2,1:2:0:0:
73,240,2090,1,0,1:2:0:0:
73,240,2540,1,0,1:2:0:0:
155,36,2990,5,2,1:2:0:0:
129,163,3290,1,0,1:2:0:0:
302,120,3590,5,2,1:2:0:0:
319,207,3740,1,0,1:2:0:0:
491,60,4190,6,0,P|458:53|424:119,1,113.999996520996,2|0,1:2|1:2,0:0:0:0:
483,209,4940,1,0,1:2:0:0:
431,267,5090,2,0,P|385:268|346:295,1,85.4999973907472,2|0,0:2|0:0,0:0:0:0:
324,308,5390,6,0,P|338:342|419:330,1,113.999996520996,2|0,1:2|1:2,0:0:0:0:
254,222,5990,1,2,0:0:0:0:
224,243,6140,2,0,B|164:234|182:270|107:265,1,113.999996520996,0|0,1:2|0:0,0:0:0:0:
5,133,6590,6,0,L|22:286,1,152,6|2,3:2|3:2,0:0:0:0:
211,164,7190,1,0,3:1:0:0:
217,71,7340,1,0,1:2:0:0:
110,10,7490,6,0,P|125:76|131:139,1,114,2|0,3:2|0:0,0:0:0:0:
211,164,7790,2,0,P|227:124|324:124,1,152,2|0,3:2|3:1,0:0:0:0:
469,68,8390,1,0,3:1:0:0:
395,94,8540,1,0,1:2:0:0:
285,192,8690,2,0,P|275:249|327:288,1,114,2|0,3:2|1:2,0:0:0:0:
401,309,8990,6,0,P|405:274|380:233,1,76,6|0,3:2|0:0,0:0:0:0:
195,235,9290,2,0,P|191:270|216:311,1,76,2|0,3:2|0:0,0:0:0:0:
315,259,9590,1,0,3:1:0:0:
313,270,9740,1,0,3:1:0:0:
312,285,9890,1,0,3:1:0:0:
335,137,10040,5,8,0:2:0:0:
468,93,11240,1,0,3:1:0:0:
470,90,11315,1,0,3:1:0:0:
472,87,11390,6,0,L|483:190,1,95,12|0,0:2|0:0,0:0:0:0:
265,62,11690,1,8,0:2:0:0:
367,142,11840,1,0,0:0:0:0:
184,222,11990,1,10,0:2:0:0:
275,150,12140,1,2,3:2:0:0:
118,82,12290,1,8,0:2:0:0:
191,140,12440,1,0,3:2:0:0:
191,140,12515,1,0,3:2:0:0:
191,140,12590,5,10,0:2:0:0:
43,248,12740,1,2,3:2:0:0:
198,318,12890,1,8,0:2:0:0:
115,195,13040,1,0,3:2:0:0:
285,209,13190,1,10,0:2:0:0:
120,273,13340,1,2,3:2:0:0:
328,271,13490,1,8,0:2:0:0:
191,140,13640,1,0,3:2:0:0:
179,119,13715,1,0,3:2:0:0:
166,98,13790,5,2,3:2:0:0:
306,40,13940,1,0,3:2:0:0:
429,184,14090,1,14,3:2:0:0:
255,107,14240,1,2,3:2:0:0:
486,55,14390,1,10,0:2:0:0:
303,207,14540,1,2,3:2:0:0:
503,333,14690,1,10,0:2:0:0:
266,316,14840,6,0,B|335:306|335:306|359:285|359:285|464:270,1,190,2|2,3:2|3:2,0:0:0:0:
303,207,15290,1,8,0:2:0:0:
164,353,15440,1,0,3:2:0:0:
149,351,15515,1,0,3:2:0:0:
138,341,15590,1,2,3:2:0:0:
26,249,15740,1,8,0:2:0:0:
24,230,15815,1,8,0:2:0:0:
22,211,15890,1,8,0:2:0:0:
31,189,15965,1,0,3:2:0:0:
32,178,16040,1,0,3:2:0:0:
34,167,16115,1,0,3:2:0:0:
38,143,16190,5,6,3:2:0:0:
10,23,16340,1,2,0:2:0:0:
146,153,16490,1,8,0:2:0:0:
212,0,16640,1,0,3:2:0:0:
356,163,16790,1,10,0:2:0:0:
423,86,16940,2,0,B|376:78|376:78|351:85|351:85|287:74,1,123.499994346619,2|0,3:2|3:2,0:0:0:0:
162,66,17240,6,0,B|219:75|219:75|250:66|250:66|310:77,1,142.5,6|0,3:1|0:0,0:0:0:0:
422,85,17540,2,0,P|453:119|450:166,1,95,2|8,3:1|0:2,0:0:0:0:
286,237,17840,2,0,P|255:202|257:156,1,95,2|0,3:2|3:1,0:0:0:0:
396,244,18140,1,2,3:2:0:0:
303,338,18290,2,0,B|228:308|235:360|158:334,1,142.5,8|0,0:2|0:0,0:0:0:0:
41,239,18590,5,6,3:2:0:0:
201,269,18740,1,0,3:2:0:0:
8,155,18890,5,10,0:2:0:0:
199,119,19040,1,0,3:2:0:0:
78,28,19190,5,10,0:2:0:0:
112,276,19340,1,0,3:2:0:0:
263,70,19490,1,2,3:2:0:0:
438,115,19640,6,0,P|369:120|274:161,1,142.5,12|0,0:2|0:0,0:0:0:0:
381,207,19940,1,0,3:2:0:0:
209,241,20090,1,2,3:2:0:0:
47,333,20240,1,2,1:2:0:0:
55,344,20315,1,0,1:0:0:0:
68,340,20390,6,0,L|72:232,1,85.4999973907472,2|0,3:2|3:0,0:0:0:0:
202,118,20690,2,0,B|224:180|224:180|206:247,1,128.249996086121,2|0,3:2|0:0,0:0:0:0:
196,252,20990,5,6,3:2:0:0:
262,306,21140,1,0,3:2:0:0:
340,270,21290,1,8,0:2:0:0:
340,270,21590,2,0,B|405:234|403:281|473:250,1,132.999995941162,2|8,0:2|0:2,0:0:0:0:
305,195,22190,2,0,B|349:135|366:178|417:121,1,132.999995941162,2|8,0:2|0:2,0:0:0:0:
242,142,22790,2,0,B|257:69|290:100|313:27,1,132.999995941162,2|8,0:2|0:2,0:0:0:0:
153,28,23390,5,2,3:2:0:0:
161,112,23540,1,0,3:2:0:0:
242,142,23690,1,8,0:2:0:0:
242,142,24290,1,8,0:2:0:0:
242,142,24590,2,0,P|194:142|142:222,1,132.999995941162,2|8,0:2|0:2,0:0:0:0:
56,204,25040,2,0,P|72:244|96:340,1,132.999995941162,2|0,0:2|0:0,0:0:0:0:
168,376,25490,2,0,P|180:344|224:332,1,66.4999979705811,8|2,0:2|0:2,0:0:0:0:
296,248,25790,5,2,3:2:0:0:
380,260,25940,1,0,3:2:0:0:
443,201,26090,1,8,0:2:0:0:
443,201,26390,2,0,B|405:187|405:187|380:186|380:186|360:170|360:170|307:151,1,132.999995941162,2|8,0:2|0:2,0:0:0:0:
173,109,26990,5,2,3:2:0:0:
257,97,27140,1,0,3:2:0:0:
320,156,27290,1,8,0:2:0:0:
320,156,27590,1,2,0:2:0:0:
173,109,27890,1,8,0:2:0:0:
89,121,28040,1,0,3:2:0:0:
0,46,28190,6,0,B|16:97|16:97|12:125|12:125|31:195,1,132.999995941162,2|8,3:2|0:2,0:0:0:0:
107,201,28640,2,0,B|91:252|91:252|95:280|95:280|76:350,1,132.999995941162,2|0,0:2|0:0,0:0:0:0:
159,366,29090,2,0,P|177:332|266:344,1,132.999995941162,10|0,0:2|0:0,0:0:0:0:
359,292,29540,5,2,0:2:0:0:
275,229,29690,1,8,0:2:0:0:
209,195,29840,1,2,0:2:0:0:
134,158,29990,1,2,0:2:0:0:
144,166,30140,1,0,3:2:0:0:
210,112,30290,5,6,0:2:0:0:
229,96,30365,1,2,0:2:0:0:
239,73,30440,1,2,0:2:0:0:
239,49,30515,1,2,0:2:0:0:
229,25,30590,6,0,P|265:50|316:44,1,76,6|0,3:2|3:2,0:0:0:0:
471,53,30890,2,0,P|435:28|384:34,1,76,10|0,0:2|0:0,0:0:0:0:
369,166,31190,2,0,L|364:87,1,76,2|0,0:2|3:2,0:0:0:0:
373,241,31490,2,0,L|368:162,1,76,10|0,0:2|0:0,0:0:0:0:
316,340,31790,6,0,B|320:333|330:330|330:330|301:328|249:298,1,76,2|0,3:2|0:0,0:0:0:0:
97,319,32090,2,0,B|93:326|83:329|83:329|112:331|164:361,1,76,10|0,0:2|0:2,0:0:0:0:
189,184,32390,2,0,L|194:263,1,76,2|0,0:2|3:2,0:0:0:0:
185,109,32690,2,0,L|190:188,1,76,10|0,0:2|0:0,0:0:0:0:
7,38,32990,6,0,B|92:8|75:61|157:36,1,152,6|10,3:2|0:2,0:0:0:0:
404,44,33440,2,0,B|329:95|332:39|259:85,1,152,2|0,0:2|3:2,0:0:0:0:
257,200,33890,2,0,B|260:167|305:147|305:147|329:187|296:217,1,152,10|0,0:2|3:2,0:0:0:0:
416,188,34340,1,0,3:2:0:0:
405,287,34490,2,0,B|379:297|379:297|309:278,1,76,8|0,0:2|0:0,0:0:0:0:
208,313,34790,2,0,B|182:323|182:323|112:304,1,76,0|0,3:2|3:2,0:0:0:0:
0,202,35090,2,0,P|-8:244|55:273,1,114,10|0,0:2|0:0,0:0:0:0:
111,235,35390,6,0,L|107:155,1,76,2|0,3:2|0:0,0:0:0:0:
181,0,35690,2,0,L|177:80,1,76,10|0,0:2|0:0,0:0:0:0:
264,173,35990,2,0,P|226:178|192:163,1,76,2|0,0:2|3:2,0:0:0:0:
336,164,36290,2,0,P|298:158|264:173,1,76,10|0,0:2|0:0,0:0:0:0:
306,327,36590,6,0,P|373:312|384:232,1,152,2|8,3:2|0:2,0:0:0:0:
336,164,37040,1,0,0:0:0:0:
494,116,37190,2,0,L|419:158,1,76,2|0,0:2|3:2,0:0:0:0:
275,39,37490,2,0,L|395:106,1,114,10|0,2:2|0:0,0:0:0:0:
427,153,37790,5,6,3:2:0:0:
486,277,37940,1,2,0:2:0:0:
387,238,38090,5,10,0:2:0:0:
328,362,38240,1,2,0:2:0:0:
306,266,38390,5,2,3:2:0:0:
182,207,38540,1,0,3:2:0:0:
124,299,38690,5,10,0:2:0:0:
0,240,38840,1,0,3:2:0:0:
131,45,38990,6,0,L|129:123,1,76,2|2,3:2|0:2,0:0:0:0:
217,18,39290,2,0,L|215:96,1,76,10|0,0:2|0:0,0:0:0:0:
288,147,39515,1,8,0:2:0:0:
288,147,39590,1,10,0:2:0:0:
403,109,39740,1,0,3:2:0:0:
496,184,39890,2,0,P|451:197|433:250,1,99.7499969558717,10|0,0:2|0:0,0:0:0:0:
487,308,40190,5,8,0:2:0:0:
512,102,40340,1,8,0:2:0:0:
432,38,40490,1,10,0:2:0:0:
356,56,40640,1,2,1:2:0:0:
362,67,40715,1,2,1:2:0:0:
368,79,40790,1,10,0:2:0:0:
305,164,40940,1,8,0:2:0:0:
201,140,41090,1,10,0:2:0:0:
69,206,41240,5,10,0:2:0:0:
69,206,41540,1,0,3:2:0:0:
110,288,41690,1,10,0:2:0:0:
186,270,41840,1,0,1:2:0:0:
180,259,41915,1,0,1:2:0:0:
174,247,41990,1,2,3:2:0:0:
129,160,42140,1,0,3:2:0:0:
271,80,42290,2,0,P|234:96|223:123,1,66.4999979705811,10|8,0:2|0:2,0:0:0:0:
365,299,42590,5,10,0:2:0:0:
289,156,42740,1,0,3:2:0:0:
432,72,42890,5,10,0:2:0:0:
356,215,43040,1,8,0:2:0:0:
367,231,43115,1,8,0:2:0:0:
386,233,43190,1,8,0:2:0:0:
497,198,43340,1,8,0:2:0:0:
310,319,43490,1,10,0:2:0:0:
199,354,43640,6,0,B|161:360|161:360|149:369|149:369|75:381,1,99.7499969558717,8|0,0:2|0:0,0:0:0:0:
80,362,43940,1,0,3:2:0:0:
81,362,44015,1,0,3:2:0:0:
80,362,44090,2,0,L|73:258,1,99.7499969558717,10|0,0:0|0:0,0:0:0:0:
59,247,44390,2,0,L|53:163,1,66.4999979705811,2|8,3:2|0:2,0:0:0:0:
29,52,44690,1,0,3:2:0:0:
44,38,44765,1,0,3:2:0:0:
63,34,44840,1,10,0:2:0:0:
95,39,44915,1,10,0:2:0:0:
112,67,44990,5,6,3:2:0:0:
133,139,45140,1,2,0:2:0:0:
191,290,45290,5,10,0:2:0:0:
170,217,45440,1,2,0:2:0:0:
321,290,45590,5,2,3:2:0:0:
342,217,45740,1,2,0:2:0:0:
403,67,45890,5,10,0:2:0:0:
382,140,46040,1,2,0:2:0:0:
137,87,46190,6,0,B|224:74|178:123|290:123,1,128.249996086121,2|0,3:2|0:0,0:0:0:0:
304,43,46490,2,0,B|382:82|316:96|408:160,1,128.249996086121,10|0,0:2|0:0,0:0:0:0:
504,180,46790,1,2,3:2:0:0:
472,180,46865,1,2,0:0:0:0:
445,197,46940,1,8,0:2:0:0:
432,225,47015,1,8,0:2:0:0:
436,257,47090,2,0,L|444:322,1,42.7499986953736,10|0,0:2|0:0,0:0:0:0:
340,345,47240,1,0,3:2:0:0:
322,326,47315,1,0,3:2:0:0:
324,300,47390,5,12,0:2:0:0:
121,250,47540,1,0,0:0:0:0:
207,206,47690,5,8,0:2:0:0:
1,246,47840,1,0,0:0:0:0:
121,250,47990,5,8,0:2:0:0:
159,44,48140,1,0,0:0:0:0:
436,143,48290,5,10,0:2:0:0:
477,19,49640,2,0,P|455:37|450:53,1,42.7499986953736,0|0,3:1|3:1,0:0:0:0:
452,166,49790,6,0,B|466:142|489:136|489:136|433:116|443:175|363:142,1,170.999994781494,14|0,0:2|0:0,0:0:0:0:
280,113,50090,2,0,B|259:99|249:69|249:69|247:107|260:129,1,113.999996520996,10|0,0:2|0:0,0:0:0:0:
403,228,50390,5,10,0:2:0:0:
443,343,50540,1,0,3:2:0:0:
221,373,50690,1,10,0:2:0:0:
265,247,50840,1,0,3:2:0:0:
93,107,50990,6,0,B|33:121|53:153|-7:177,1,113.999996520996,10|0,0:2|3:2,0:0:0:0:
10,252,51215,1,0,3:2:0:0:
32,271,51290,2,0,L|50:396,1,113.999996520996,10|0,0:2|3:2,0:0:0:0:
153,225,51590,5,10,0:2:0:0:
279,181,51740,1,0,3:2:0:0:
431,67,51890,1,14,0:2:0:0:
279,14,52040,1,0,3:2:0:0:
248,29,52115,1,0,3:2:0:0:
218,46,52190,6,0,B|174:52|174:52|162:61|162:61|102:72,1,113.999996520996,10|0,0:2|3:2,0:0:0:0:
279,181,52490,2,0,B|323:187|323:187|335:196|335:196|395:207,1,113.999996520996,14|0,0:2|3:2,0:0:0:0:
130,317,52790,6,0,P|114:264|152:224,1,113.999996520996,10|0,0:2|3:2,0:0:0:0:
457,176,53090,2,0,P|472:228|434:268,1,113.999996520996,10|0,0:2|3:2,0:0:0:0:
198,283,53390,1,10,0:2:0:0:
388,205,53540,1,0,1:2:0:0:
218,46,53690,1,8,0:2:0:0:
372,101,53840,1,8,0:2:0:0:
396,98,53915,1,8,0:2:0:0:
410,79,53990,5,8,0:2:0:0:
203,168,54140,1,2,3:2:0:0:
197,355,54290,1,2,3:2:0:0:
230,360,54365,1,0,3:0:0:0:
250,350,54440,1,0,3:2:0:0:
263,334,54515,1,0,3:2:0:0:
263,312,54590,6,0,B|316:299|359:343|359:343|323:313|334:270,1,170.999994781494,14|0,0:2|0:0,0:0:0:0:
439,188,54890,2,0,B|460:174|470:144|470:144|472:182|459:204,1,113.999996520996,10|0,0:2|3:2,0:0:0:0:
229,164,55190,1,10,0:2:0:0:
394,124,55340,1,0,3:2:0:0:
173,60,55490,1,10,0:2:0:0:
113,229,55640,1,0,3:2:0:0:
99,247,55715,1,0,3:2:0:0:
76,247,55790,6,0,P|133:262|201:301,1,113.999996520996,10|0,0:2|3:0,0:0:0:0:
401,292,56090,2,0,P|344:307|276:346,1,113.999996520996,10|0,0:2|3:2,0:0:0:0:
212,141,56390,1,8,0:2:0:0:
314,232,56540,1,0,3:2:0:0:
443,71,56690,1,8,0:2:0:0:
411,204,56840,1,0,3:2:0:0:
228,59,56990,6,0,B|137:55|172:121|67:114,1,170.999994781494,10|0,0:2|0:0,0:0:0:0:
29,36,57290,2,0,B|8:22|-2:-8|-2:-8|-4:30|9:52,1,113.999996520996,10|0,0:2|3:2,0:0:0:0:
22,221,57590,6,0,P|60:225|93:299,1,113.999996520996,10|0,0:2|3:2,0:0:0:0:
227,376,57890,1,10,0:2:0:0:
26,296,58040,1,2,3:2:0:0:
26,296,58190,1,2,0:2:0:0:
144,196,58340,1,2,3:2:0:0:
242,138,58490,2,0,L|131:204,1,113.999996520996,12|2,0:2|0:2,0:0:0:0:
287,314,58790,6,0,B|345:300|345:300|377:319|377:319|451:302,1,170.999994781494,2|0,3:2|3:2,0:0:0:0:
482,216,59090,1,0,3:2:0:0:
476,193,59165,1,0,3:2:0:0:
496,165,59240,1,8,0:2:0:0:
503,143,59315,1,8,0:2:0:0:
477,120,59390,6,0,B|357:144|357:144|315:86|359:33,1,227.999993041992,2|8,3:2|0:2,0:0:0:0:
392,233,59840,1,2,0:2:0:0:
286,314,59990,2,0,P|236:293|230:238,1,113.999996520996,2|2,3:2|3:2,0:0:0:0:
52,139,60290,1,8,0:2:0:0:
95,285,60440,1,0,3:2:0:0:
162,177,60590,5,2,0:2:0:0:
162,177,60740,1,0,3:2:0:0:
140,66,60890,2,0,L|164:185,1,113.999996520996,8|0,0:2|0:0,0:0:0:0:
358,231,61190,5,2,3:2:0:0:
358,231,61340,1,0,3:2:0:0:
381,120,61490,2,0,L|357:239,1,113.999996520996,8|0,0:2|0:0,0:0:0:0:
162,177,61790,5,2,3:2:0:0:
95,285,61940,1,0,3:2:0:0:
203,260,62090,2,0,B|301:253|262:321|380:331,1,170.999994781494,10|0,0:2|0:0,0:0:0:0:
453,343,62390,6,0,P|453:286|469:223,1,113.999996520996,2|0,3:2|3:2,0:0:0:0:
462,37,62690,2,0,B|334:42|422:108|265:106,1,170.999994781494,10|0,0:2|0:0,0:0:0:0:
441,114,62990,1,6,3:2:0:0:
358,231,63140,1,8,0:2:0:0:
261,166,63290,2,0,P|236:107|257:38,1,113.999996520996,0|0,3:2|0:0,0:0:0:0:
38,0,63590,5,10,3:2:0:0:
57,7,63690,1,8,3:2:0:0:
74,22,63790,1,8,3:2:0:0:
78,45,63890,1,10,3:2:0:0:
74,83,63990,1,8,3:2:0:0:
54,121,64090,1,8,3:2:0:0:
0,152,64190,6,0,B|94:126|56:192|166:173,1,142.500005435944,6|2,3:2|0:2,0:0:0:0:
249,257,64640,1,2,3:2:0:0:
202,338,64790,2,0,P|164:322|122:318,1,71.2500027179719,8|0,0:2|0:0,0:0:0:0:
0,252,65090,2,0,P|32:233|17:169,1,106.875004076958,2|0,3:2|0:0,0:0:0:0:
28,151,65390,2,0,P|63:161|98:104,1,106.875004076958,2|0,0:2|0:0,0:0:0:0:
120,104,65690,2,0,P|138:136|202:121,1,106.875004076958,2|0,3:2|0:0,0:0:0:0:
279,75,65990,6,0,P|292:112|287:154,1,71.2500027179719,10|0,0:2|3:2,0:0:0:0:
401,278,66290,1,10,0:2:0:0:
389,253,66365,1,8,0:2:0:0:
390,227,66440,1,8,0:2:0:0:
402,203,66515,1,8,0:2:0:0:
423,187,66590,6,0,L|477:183,1,47.5,12|0,0:2|0:0,0:0:0:0:
471,177,66890,2,0,L|423:180,1,47.5,10|0,0:2|0:0,0:0:0:0:
88,187,67190,6,0,L|35:183,1,47.5,10|0,0:2|0:0,0:0:0:0:
41,177,67490,2,0,L|88:180,1,47.5,10|0,0:2|0:0,0:0:0:0:
400,44,68990,6,0,P|430:140|444:263,1,209.000006378174,2|0,3:2|1:0,0:0:0:0:
466,266,70190,2,0,B|360:247|392:325|260:320,1,209.000006378174,2|0,0:2|1:0,0:0:0:0:
6,257,71390,1,2,0:2:0:0:
28,277,71690,2,0,P|55:272|79:251,1,52.2500015945435,2|2,0:2|0:2,0:0:0:0:
89,140,71990,2,0,P|68:124|42:120,2,52.2500015945435,2|2|2,0:2|0:2|0:2,0:0:0:0:
170,241,72590,6,0,P|169:193|183:117,1,104.500003189087,2|2,0:2|0:2,0:0:0:0:
170,241,73790,2,0,P|169:193|183:117,2,104.500003189087,2|0|0,3:2|0:0|1:0,0:0:0:0:
332,328,74990,2,0,P|374:312|293:270,1,209.000006378174,2|0,0:2|1:0,0:0:0:0:
506,127,76190,5,2,0:2:0:0:
484,107,76490,2,0,P|458:111|437:126,1,52.2500015945435,2|2,0:2|0:2,0:0:0:0:
422,243,76791,2,0,P|443:259|469:263,2,52.2500015945435,2|2|2,0:2|0:2|0:2,0:0:0:0:
305,106,77390,6,0,P|257:105|181:119,1,104.500003189087,2|2,0:2|0:2,0:0:0:0:
305,106,78590,2,0,P|257:105|181:119,2,104.500003189087,2|0|0,3:2|0:0|1:0,0:0:0:0:
180,328,79790,2,0,P|138:312|219:270,1,209.000006378174,2|0,0:2|1:0,0:0:0:0:
188,48,80990,5,2,0:2:0:0:
168,69,81290,2,0,L|190:128,1,52.2500015945435,2|2,0:2|0:2,0:0:0:0:
276,183,81590,2,0,L|294:134,2,52.2500015945435,2|2|2,0:2|0:2|0:2,0:0:0:0:
376,269,82190,6,0,P|404:234|465:222,1,104.500003189087,2|2,0:2|0:2,0:0:0:0:
376,269,83390,2,0,P|404:234|465:222,1,104.500003189087,2|2,0:2|0:2,0:0:0:0:
477,236,83990,1,2,0:2:0:0:
472,254,84290,1,2,0:2:0:0:
257,252,84590,2,0,P|212:248|43:259,1,209.000006378174,2|0,0:2|1:2,0:0:0:0:
341,14,85790,6,0,P|348:46|373:364,1,351.5,2|0,0:2|0:0,0:0:0:0:
