osu file format v14

[General]
AudioFilename: audio.mp3
AudioLeadIn: 0
PreviewTime: 60548
Countdown: 0
SampleSet: Normal
StackLeniency: 0
Mode: 1
LetterboxInBreaks: 0
WidescreenStoryboard: 1

[Editor]
DistanceSpacing: 0.5
BeatDivisor: 1
GridSize: 8
TimelineZoom: 1.8

[Metadata]
Title:Vertigo Game (Sped Up Ver.)
TitleUnicode:Vertigo Game (Sped Up Ver.)
Artist:MELT-BANANA
ArtistUnicode:MELT-BANANA
Creator:liku
Version:Inner Oni
Source:
Tags:english rock noise fetch mxbx antti skolodojko inherentcross1 version a-zap records
BeatmapID:3901117
BeatmapSetID:1893137

[Difficulty]
HPDrainRate:7
CircleSize:5
OverallDifficulty:7
ApproachRate:5
SliderMultiplier:1.4
SliderTickRate:1

[Events]
//Background and Video events
0,0,"image (1).jpg",0,-60
//Break Periods
//Storyboard Layer 0 (Background)
//Storyboard Layer 1 (Fail)
//Storyboard Layer 2 (Pass)
//Storyboard Layer 3 (Foreground)
//Storyboard Layer 4 (Overlay)
//Storyboard Sound Samples

[TimingPoints]
679,250,4,1,0,40,1,0
679,-133.333333333333,4,1,0,40,0,0
2419,-133.333333333333,4,1,0,50,0,0
4669,-133.333333333333,4,1,0,50,0,0
6544,-111.111111111111,4,1,0,75,0,0
8738,-110.350915912602,4,1,0,75,0,0
8801,-109.58904109589,4,1,0,75,0,0
8863,-108.849461195167,4,1,0,75,0,0
8926,-108.108108108108,4,1,0,75,0,0
8988,-107.388316151203,4,1,0,75,0,0
9051,-106.666666666667,4,1,0,75,0,0
9113,-105.965878986966,4,1,0,75,0,0
9176,-105.263157894737,4,1,0,75,0,0
9238,-104.580631667015,4,1,0,75,0,0
9301,-103.896103896104,4,1,0,75,0,0
9363,-103.231134510168,4,1,0,75,0,0
9426,-102.564102564103,4,1,0,75,0,0
9488,-101.916021198532,4,1,0,75,0,0
9551,-101.26582278481,4,1,0,75,0,0
9613,-100.633994163228,4,1,0,75,0,0
9676,-100,4,1,0,75,0,0
9738,-99.3838203140529,4,1,0,75,0,0
9801,-98.7654320987654,4,1,0,75,0,0
9863,-98.1643270835378,4,1,0,75,0,0
9926,-97.5609756097561,4,1,0,75,0,0
9988,-96.9743987587277,4,1,0,75,0,0
10051,-96.3855421686747,4,1,0,75,0,0
10113,-95.8129730765546,4,1,0,75,0,0
10176,-95.2380952380952,4,1,0,75,0,0
10238,-94.6790380609733,4,1,0,75,0,0
10301,-94.1176470588235,4,1,0,75,0,0
10363,-93.5716290820623,4,1,0,75,0,0
10426,-93.0232558139535,4,1,0,75,0,0
10488,-92.4898261191269,4,1,0,75,0,0
10551,-91.9540229885057,4,1,0,75,0,0
10613,-91.4327512114839,4,1,0,75,0,0
10669,-100,4,1,0,80,0,0
10676,-90.9090909090909,4,1,0,80,0,0
14669,-76.9230769230769,4,1,0,60,0,0
15647,-166.666666666667,4,1,0,60,0,0
15710,-100,4,1,0,60,0,0
16426,-117.647058823529,4,1,0,60,0,0
16488,-114.311842706904,4,1,0,60,0,0
16551,-111.111111111111,4,1,0,60,0,0
16669,-90.9090909090909,4,1,0,80,0,0
16741,-100,4,1,0,80,0,0
18238,-98.7751876728566,4,1,0,80,0,0
18301,-97.5609756097561,4,1,0,80,0,0
18363,-96.3948332369385,4,1,0,80,0,0
18426,-95.2380952380952,4,1,0,80,0,0
18488,-94.1265060240964,4,1,0,80,0,0
18551,-93.0232558139535,4,1,0,80,0,0
18613,-91.9624793084421,4,1,0,80,0,0
18676,-90.9090909090909,4,1,0,80,0,0
18741,-100,4,1,0,80,0,0
20225,-98.7751876728566,4,1,0,80,0,0
20288,-97.5609756097561,4,1,0,80,0,0
20350,-96.3948332369385,4,1,0,80,0,0
20413,-95.2380952380952,4,1,0,80,0,0
20475,-94.1265060240964,4,1,0,80,0,0
20538,-93.0232558139535,4,1,0,80,0,0
20600,-91.9624793084421,4,1,0,80,0,0
20663,-90.9090909090909,4,1,0,80,0,0
20728,-100,4,1,0,80,0,0
22669,-100,4,1,0,80,0,0
22738,-99.6909580301067,4,1,0,80,0,0
22801,-99.3788819875776,4,1,0,80,0,0
22863,-99.0736612671521,4,1,0,80,0,0
22926,-98.7654320987654,4,1,0,80,0,0
22988,-98.4639621898385,4,1,0,80,0,0
23051,-98.159509202454,4,1,0,80,0,0
23113,-97.8617213876792,4,1,0,80,0,0
23176,-97.5609756097561,4,1,0,80,0,0
23238,-97.2668028401906,4,1,0,80,0,0
23301,-96.969696969697,4,1,0,80,0,0
23363,-96.6790738144728,4,1,0,80,0,0
23426,-96.3855421686747,4,1,0,80,0,0
23488,-96.0984047664809,4,1,0,80,0,0
23551,-95.8083832335329,4,1,0,80,0,0
23613,-95.5246692458327,4,1,0,80,0,0
23676,-95.2380952380952,4,1,0,80,0,0
23738,-94.9577438040072,4,1,0,80,0,0
23801,-94.6745562130177,4,1,0,80,0,0
23863,-94.3975079057913,4,1,0,80,0,0
23926,-94.1176470588235,4,1,0,80,0,0
23988,-93.8438438438438,4,1,0,80,0,0
24051,-93.5672514619883,4,1,0,80,0,0
24113,-93.2966366562486,4,1,0,80,0,0
24176,-93.0232558139535,4,1,0,80,0,0
24238,-92.7557740469344,4,1,0,80,0,0
24301,-92.485549132948,4,1,0,80,0,0
24363,-92.2211463088486,4,1,0,80,0,0
24426,-91.9540229885057,4,1,0,80,0,0
24488,-91.6926462497708,4,1,0,80,0,0
24551,-91.4285714285714,4,1,0,80,0,0
24613,-91.1701691206637,4,1,0,80,0,0
24669,-100,4,1,0,80,0,0
24676,-90.9090909090909,4,1,0,80,0,0
28669,-83.3333333333333,4,1,0,60,0,0
29647,-166.666666666667,4,1,0,60,0,0
29710,-100,4,1,0,60,0,0
30413,-117.647058823529,4,1,0,60,0,0
30475,-114.311842706904,4,1,0,60,0,0
30538,-111.111111111111,4,1,0,60,0,0
30656,-90.9090909090909,4,1,0,80,0,0
30741,-100,4,1,0,80,0,0
32225,-98.7751876728566,4,1,0,80,0,0
32288,-97.5609756097561,4,1,0,80,0,0
32350,-96.3948332369385,4,1,0,80,0,0
32413,-95.2380952380952,4,1,0,80,0,0
32475,-94.1265060240964,4,1,0,80,0,0
32538,-93.0232558139535,4,1,0,80,0,0
32600,-91.9624793084421,4,1,0,80,0,0
32663,-90.9090909090909,4,1,0,80,0,0
32728,-100,4,1,0,80,0,0
34225,-98.7751876728566,4,1,0,80,0,0
34288,-97.5609756097561,4,1,0,80,0,0
34350,-96.3948332369385,4,1,0,80,0,0
34413,-95.2380952380952,4,1,0,80,0,0
34475,-94.1265060240964,4,1,0,80,0,0
34538,-93.0232558139535,4,1,0,80,0,0
34600,-91.9624793084421,4,1,0,80,0,0
34663,-90.9090909090909,4,1,0,80,0,0
34728,-100,4,1,0,80,0,0
36669,-100,4,1,0,80,0,0
36738,-99.5678754206743,4,1,0,80,0,0
36801,-99.1325898389095,4,1,0,80,0,0
36863,-98.7079134134184,4,1,0,80,0,0
36926,-98.2800982800983,4,1,0,80,0,0
36988,-97.8626790887027,4,1,0,80,0,0
37051,-97.442143727162,4,1,0,80,0,0
37113,-97.0317973199817,4,1,0,80,0,0
37176,-96.6183574879227,4,1,0,80,0,0
37238,-96.2149056131776,4,1,0,80,0,0
37301,-95.8083832335329,4,1,0,80,0,0
37363,-95.4116535793682,4,1,0,80,0,0
37426,-95.0118764845606,4,1,0,80,0,0
37488,-94.6217024336702,4,1,0,80,0,0
37551,-94.2285041224971,4,1,0,80,0,0
37613,-93.8447245188112,4,1,0,80,0,0
37676,-93.4579439252336,4,1,0,80,0,0
37738,-92.7592156280727,4,1,0,80,0,0
37801,-92.0598388952819,4,1,0,80,0,0
37863,-91.3817839551864,4,1,0,80,0,0
37926,-90.702947845805,4,1,0,80,0,0
37988,-90.0446621524276,4,1,0,80,0,0
38051,-89.3854748603352,4,1,0,80,0,0
38113,-88.7461062645876,4,1,0,80,0,0
38176,-88.1057268722467,4,1,0,80,0,0
38238,-87.4844715063076,4,1,0,80,0,0
38301,-86.8621064060803,4,1,0,80,0,0
38363,-86.2582053117803,4,1,0,80,0,0
38426,-85.6531049250535,4,1,0,80,0,0
38488,-85.0658409609037,4,1,0,80,0,0
38551,-84.4772967265048,4,1,0,80,0,0
38613,-83.9059917268692,4,1,0,80,0,0
38679,-83.3333333333333,4,1,0,80,0,1
42679,-83.3333333333333,4,1,0,80,0,0
42856,-100,4,1,0,60,0,0
43866,-125,4,1,0,60,0,0
44397,-117.647058823529,4,1,0,60,0,0
44459,-114.311842706904,4,1,0,60,0,0
44522,-111.111111111111,4,1,0,60,0,0
44640,-90.9090909090909,4,1,0,80,0,0
44725,-100,4,1,0,80,0,0
46225,-98.7751876728566,4,1,0,80,0,0
46288,-97.5609756097561,4,1,0,80,0,0
46350,-96.3948332369385,4,1,0,80,0,0
46413,-95.2380952380952,4,1,0,80,0,0
46475,-94.1265060240964,4,1,0,80,0,0
46538,-93.0232558139535,4,1,0,80,0,0
46600,-91.9624793084421,4,1,0,80,0,0
46663,-90.9090909090909,4,1,0,80,0,0
46728,-100,4,1,0,80,0,0
48225,-98.7751876728566,4,1,0,80,0,0
48288,-97.5609756097561,4,1,0,80,0,0
48350,-96.3948332369385,4,1,0,80,0,0
48413,-95.2380952380952,4,1,0,80,0,0
48475,-94.1265060240964,4,1,0,80,0,0
48538,-93.0232558139535,4,1,0,80,0,0
48600,-91.9624793084421,4,1,0,80,0,0
48663,-90.9090909090909,4,1,0,80,0,0
48728,-100,4,1,0,80,0,0
50113,-99.0177439797212,4,1,0,80,0,0
50176,-98.0392156862745,4,1,0,80,0,0
50238,-97.0949199937859,4,1,0,80,0,0
50301,-96.1538461538461,4,1,0,80,0,0
50363,-95.2453520268211,4,1,0,80,0,0
50426,-94.3396226415094,4,1,0,80,0,0
50488,-93.4649319575295,4,1,0,80,0,0
50551,-92.5925925925926,4,1,0,80,0,0
50613,-91.7498532002349,4,1,0,80,0,0
50676,-90.9090909090909,4,1,0,80,0,0
50741,-100,4,1,0,80,0,0
51669,-100,4,1,0,80,0,0
51738,-99.3838203140529,4,1,0,80,0,0
51801,-98.7654320987654,4,1,0,80,0,0
51863,-98.1643270835378,4,1,0,80,0,0
51926,-97.5609756097561,4,1,0,80,0,0
51988,-96.9743987587277,4,1,0,80,0,0
52051,-96.3855421686747,4,1,0,80,0,0
52113,-95.8129730765546,4,1,0,80,0,0
52176,-95.2380952380952,4,1,0,80,0,0
52238,-94.6790380609733,4,1,0,80,0,0
52301,-94.1176470588235,4,1,0,80,0,0
52363,-93.5716290820623,4,1,0,80,0,0
52426,-93.0232558139535,4,1,0,80,0,0
52488,-92.4898261191269,4,1,0,80,0,0
52551,-91.9540229885057,4,1,0,80,0,0
52613,-91.4327512114839,4,1,0,80,0,0
52669,-100,4,1,0,80,0,0
52676,-90.9090909090909,4,1,0,80,0,0
58738,-90.6172328086164,4,1,0,80,0,0
58801,-90.3225806451613,4,1,0,80,0,0
58863,-90.0344703400731,4,1,0,80,0,0
58926,-89.7435897435897,4,1,0,80,0,0
58988,-89.459155505572,4,1,0,80,0,0
59051,-89.171974522293,4,1,0,80,0,0
59113,-88.8911464418144,4,1,0,80,0,0
59176,-88.6075949367089,4,1,0,80,0,0
59238,-88.3303048657379,4,1,0,80,0,0
59301,-88.0503144654088,4,1,0,80,0,0
59363,-87.7764959622812,4,1,0,80,0,0
59426,-87.5,4,1,0,80,0,0
59488,-87.2295882763433,4,1,0,80,0,0
59551,-86.9565217391304,4,1,0,80,0,0
59613,-86.6894536087581,4,1,0,80,0,0
59676,-86.4197530864197,4,1,0,80,0,0
59738,-86.1559669161087,4,1,0,80,0,0
59801,-85.8895705521472,4,1,0,80,0,0
59863,-85.6290062142193,4,1,0,80,0,0
59926,-85.3658536585366,4,1,0,80,0,0
59988,-85.1084524851668,4,1,0,80,0,0
60051,-84.8484848484848,4,1,0,80,0,0
60113,-84.5941895876637,4,1,0,80,0,0
60176,-84.3373493975904,4,1,0,80,0,0
60238,-84.0861041706708,4,1,0,80,0,0
60301,-83.8323353293413,4,1,0,80,0,0
60363,-83.5840855901037,4,1,0,80,0,0
60426,-83.3333333333333,4,1,0,80,0,0
60679,-83.3333333333333,4,1,0,80,0,1
68113,-82.6500925681037,4,1,0,80,0,1
68176,-81.9672131147541,4,1,0,80,0,1
68238,-81.3061012098348,4,1,0,80,0,1
68301,-80.6451612903226,4,1,0,80,0,1
68363,-80.005120327701,4,1,0,80,0,1
68426,-79.3650793650794,4,1,0,80,0,1
68488,-78.7451178026962,4,1,0,80,0,1
68551,-78.125,4,1,0,80,0,1
68613,-77.5241875465145,4,1,0,80,0,1
68679,-76.9230769230769,4,1,0,80,0,1
70679,-76.9230769230769,4,1,0,80,0,0
71169,-66.6666666666667,4,1,0,80,0,0
71419,-66.6666666666667,4,1,0,80,0,0

[HitObjects]
130,157,2429,5,8,0:0:0:0:
149,228,2679,1,0,0:0:0:0:
149,228,2929,1,0,0:0:0:0:
149,228,3179,1,0,0:0:0:0:
149,228,3429,1,0,0:0:0:0:
149,228,3679,1,0,0:0:0:0:
149,228,3929,1,0,0:0:0:0:
149,233,4179,1,0,0:0:0:0:
162,187,4429,1,0,0:0:0:0:
154,191,4554,1,0,0:0:0:0:
150,194,4616,1,0,0:0:0:0:
139,197,4679,1,8,0:0:0:0:
134,198,4929,1,0,0:0:0:0:
133,198,5179,1,0,0:0:0:0:
129,199,5429,1,0,0:0:0:0:
129,199,5679,1,0,0:0:0:0:
134,198,5929,1,0,0:0:0:0:
133,198,6179,1,0,0:0:0:0:
129,199,6429,1,0,0:0:0:0:
116,217,6554,1,8,0:0:0:0:
116,217,6616,1,8,0:0:0:0:
116,217,6679,1,8,0:0:0:0:
85,238,6804,1,8,0:0:0:0:
131,216,6929,1,0,0:0:0:0:
131,216,7054,1,0,0:0:0:0:
131,216,7179,1,8,0:0:0:0:
68,142,7241,1,8,0:0:0:0:
131,216,7304,1,0,0:0:0:0:
68,142,7366,1,0,0:0:0:0:
131,216,7429,1,8,0:0:0:0:
131,216,7554,1,8,0:0:0:0:
131,216,7679,1,0,0:0:0:0:
68,142,7741,1,0,0:0:0:0:
137,117,7804,1,0,0:0:0:0:
124,217,7929,1,8,0:0:0:0:
137,117,8054,1,0,0:0:0:0:
35,118,8179,1,8,0:0:0:0:
61,140,8241,1,8,0:0:0:0:
124,217,8304,1,8,0:0:0:0:
61,139,8366,1,8,0:0:0:0:
124,217,8429,1,0,0:0:0:0:
124,217,8554,1,0,0:0:0:0:
119,189,8679,1,8,0:0:0:0:
119,189,8741,1,0,0:0:0:0:
119,189,8804,1,8,0:0:0:0:
137,128,8866,1,0,0:0:0:0:
130,111,8929,1,8,0:0:0:0:
54,140,8991,1,8,0:0:0:0:
118,133,9054,1,0,0:0:0:0:
52,140,9116,1,0,0:0:0:0:
112,135,9179,1,8,0:0:0:0:
91,153,9241,1,8,0:0:0:0:
174,162,9304,1,0,0:0:0:0:
155,136,9366,1,0,0:0:0:0:
91,153,9429,1,8,0:0:0:0:
190,80,9491,1,0,0:0:0:0:
91,153,9554,1,0,0:0:0:0:
91,153,9616,1,0,0:0:0:0:
91,153,9679,1,8,0:0:0:0:
91,153,9741,1,8,0:0:0:0:
91,153,9804,1,0,0:0:0:0:
91,153,9866,1,8,0:0:0:0:
91,153,9929,1,0,0:0:0:0:
112,57,9991,1,0,0:0:0:0:
112,57,10054,1,8,0:0:0:0:
144,51,10116,1,8,0:0:0:0:
144,51,10179,1,0,0:0:0:0:
72,142,10241,1,0,0:0:0:0:
174,162,10304,1,8,0:0:0:0:
174,162,10366,1,0,0:0:0:0:
174,162,10429,1,8,0:0:0:0:
174,162,10491,1,0,0:0:0:0:
174,162,10554,1,8,0:0:0:0:
174,162,10616,1,8,0:0:0:0:
174,162,10679,1,4,0:0:0:0:
179,181,10804,1,8,0:0:0:0:
179,181,10866,1,8,0:0:0:0:
179,181,10929,1,0,0:0:0:0:
163,141,10991,1,0,0:0:0:0:
163,141,11054,1,8,0:0:0:0:
130,104,11179,1,0,0:0:0:0:
212,240,11304,1,0,0:0:0:0:
212,240,11366,1,8,0:0:0:0:
162,190,11429,1,0,0:0:0:0:
169,252,11554,1,8,0:0:0:0:
162,190,11679,1,0,0:0:0:0:
57,148,11741,1,0,0:0:0:0:
215,209,11804,1,8,0:0:0:0:
209,209,11866,1,8,0:0:0:0:
162,190,11929,1,0,0:0:0:0:
163,209,12054,1,8,0:0:0:0:
163,209,12116,1,0,0:0:0:0:
162,190,12179,1,8,0:0:0:0:
125,224,12304,1,0,0:0:0:0:
125,224,12366,1,0,0:0:0:0:
128,230,12429,1,8,0:0:0:0:
125,224,12491,1,8,0:0:0:0:
125,224,12554,1,0,0:0:0:0:
125,235,12616,1,8,0:0:0:0:
162,190,12679,1,0,0:0:0:0:
195,83,12804,1,8,0:0:0:0:
162,190,12929,1,0,0:0:0:0:
187,85,12991,1,0,0:0:0:0:
179,94,13054,1,8,0:0:0:0:
162,190,13179,1,0,0:0:0:0:
195,69,13241,1,0,0:0:0:0:
168,98,13304,1,0,0:0:0:0:
194,71,13366,1,0,0:0:0:0:
163,99,13429,1,8,0:0:0:0:
163,99,13491,1,8,0:0:0:0:
143,99,13554,1,0,0:0:0:0:
143,99,13616,1,8,0:0:0:0:
143,99,13679,1,0,0:0:0:0:
170,162,13804,1,8,0:0:0:0:
162,190,13929,1,0,0:0:0:0:
170,162,13991,1,0,0:0:0:0:
170,162,14054,1,8,0:0:0:0:
158,199,14179,1,0,0:0:0:0:
190,192,14241,1,0,0:0:0:0:
190,192,14304,1,8,0:0:0:0:
190,192,14366,1,0,0:0:0:0:
190,192,14429,1,8,0:0:0:0:
190,192,14491,1,8,0:0:0:0:
188,186,14554,1,0,0:0:0:0:
188,186,14679,1,12,0:0:0:0:
170,128,16429,1,0,0:0:0:0:
153,148,16491,1,0,0:0:0:0:
153,148,16554,1,8,0:0:0:0:
190,268,16679,1,4,0:0:0:0:
190,268,16804,1,8,0:0:0:0:
161,240,16929,1,0,0:0:0:0:
161,240,17054,1,0,0:0:0:0:
161,240,17179,1,8,0:0:0:0:
132,169,17241,1,0,0:0:0:0:
161,240,17304,1,8,0:0:0:0:
161,240,17429,1,0,0:0:0:0:
161,240,17554,1,0,0:0:0:0:
161,240,17679,1,8,0:0:0:0:
179,154,17741,1,8,0:0:0:0:
161,240,17804,1,0,0:0:0:0:
179,154,17866,1,0,0:0:0:0:
161,240,17929,1,8,0:0:0:0:
161,240,18054,1,8,0:0:0:0:
161,240,18179,1,0,0:0:0:0:
165,193,18241,1,0,0:0:0:0:
165,193,18304,1,8,0:0:0:0:
162,206,18366,1,0,0:0:0:0:
165,193,18429,1,8,0:0:0:0:
168,209,18491,1,8,0:0:0:0:
168,209,18554,1,0,0:0:0:0:
165,166,18616,1,0,0:0:0:0:
168,209,18679,1,8,0:0:0:0:
168,209,18804,1,8,0:0:0:0:
168,209,18929,1,0,0:0:0:0:
168,209,19054,1,0,0:0:0:0:
168,209,19179,1,8,0:0:0:0:
182,158,19241,1,0,0:0:0:0:
168,209,19304,1,8,0:0:0:0:
168,209,19429,1,0,0:0:0:0:
168,209,19554,1,0,0:0:0:0:
172,213,19679,1,8,0:0:0:0:
186,149,19741,1,0,0:0:0:0:
172,213,19804,1,0,0:0:0:0:
186,149,19866,1,0,0:0:0:0:
172,213,19929,1,8,0:0:0:0:
172,213,20054,1,8,0:0:0:0:
168,209,20179,1,0,0:0:0:0:
168,209,20241,1,0,0:0:0:0:
168,209,20304,1,0,0:0:0:0:
168,209,20366,1,0,0:0:0:0:
168,209,20429,1,8,0:0:0:0:
168,209,20491,1,8,0:0:0:0:
168,209,20554,1,8,0:0:0:0:
172,213,20616,1,8,0:0:0:0:
177,211,20679,1,0,0:0:0:0:
172,213,20804,1,0,0:0:0:0:
172,213,20929,1,8,0:0:0:0:
172,213,21054,1,0,0:0:0:0:
168,209,21179,1,8,0:0:0:0:
212,146,21241,1,0,0:0:0:0:
168,209,21304,1,8,0:0:0:0:
168,209,21429,1,0,0:0:0:0:
168,209,21554,1,0,0:0:0:0:
177,211,21679,1,8,0:0:0:0:
172,213,21804,1,8,0:0:0:0:
105,115,21866,1,0,0:0:0:0:
172,213,21929,1,0,0:0:0:0:
172,213,22054,1,8,0:0:0:0:
168,209,22179,1,0,0:0:0:0:
194,139,22241,1,0,0:0:0:0:
168,209,22304,1,8,0:0:0:0:
146,171,22366,1,0,0:0:0:0:
168,209,22429,1,8,0:0:0:0:
165,213,22554,1,0,0:0:0:0:
165,213,22679,1,8,0:0:0:0:
141,215,22741,1,8,0:0:0:0:
141,215,22804,1,0,0:0:0:0:
135,218,22866,1,0,0:0:0:0:
135,218,22929,1,8,0:0:0:0:
135,218,22991,1,0,0:0:0:0:
137,218,23054,1,8,0:0:0:0:
140,218,23116,1,0,0:0:0:0:
135,218,23179,1,8,0:0:0:0:
135,218,23241,1,8,0:0:0:0:
135,218,23304,1,0,0:0:0:0:
140,218,23366,1,8,0:0:0:0:
140,218,23429,1,0,0:0:0:0:
140,218,23491,1,0,0:0:0:0:
141,218,23554,1,8,0:0:0:0:
140,218,23616,1,0,0:0:0:0:
141,218,23679,1,8,0:0:0:0:
141,215,23741,1,8,0:0:0:0:
141,215,23804,1,0,0:0:0:0:
141,218,23866,1,0,0:0:0:0:
144,218,23929,1,0,0:0:0:0:
141,218,23991,1,0,0:0:0:0:
141,218,24054,1,8,0:0:0:0:
140,218,24116,1,0,0:0:0:0:
144,218,24179,1,8,0:0:0:0:
144,218,24241,1,8,0:0:0:0:
145,218,24304,1,8,0:0:0:0:
152,218,24366,1,8,0:0:0:0:
148,218,24429,1,0,0:0:0:0:
145,218,24491,1,0,0:0:0:0:
146,218,24554,1,8,0:0:0:0:
150,218,24616,1,8,0:0:0:0:
150,218,24679,1,4,0:0:0:0:
123,126,24804,1,8,0:0:0:0:
182,178,24929,1,0,0:0:0:0:
105,140,24991,1,0,0:0:0:0:
105,140,25054,1,8,0:0:0:0:
105,140,25116,1,8,0:0:0:0:
182,187,25179,1,0,0:0:0:0:
105,140,25304,1,8,0:0:0:0:
97,136,25366,1,0,0:0:0:0:
179,193,25429,1,0,0:0:0:0:
96,137,25491,1,0,0:0:0:0:
96,137,25554,1,8,0:0:0:0:
96,137,25616,1,8,0:0:0:0:
169,183,25679,1,0,0:0:0:0:
183,124,25804,1,8,0:0:0:0:
183,124,25866,1,8,0:0:0:0:
144,182,25929,1,0,0:0:0:0:
139,137,26054,1,8,0:0:0:0:
144,182,26179,1,0,0:0:0:0:
106,109,26304,1,8,0:0:0:0:
93,114,26366,1,8,0:0:0:0:
125,181,26429,1,0,0:0:0:0:
93,114,26491,1,0,0:0:0:0:
124,114,26554,1,8,0:0:0:0:
125,181,26679,1,0,0:0:0:0:
115,113,26804,1,0,0:0:0:0:
110,112,26866,1,8,0:0:0:0:
125,181,26929,1,0,0:0:0:0:
105,102,26991,1,0,0:0:0:0:
105,102,27054,1,8,0:0:0:0:
190,124,27116,1,8,0:0:0:0:
125,181,27179,1,0,0:0:0:0:
93,114,27304,1,8,0:0:0:0:
93,114,27366,1,0,0:0:0:0:
90,112,27429,1,8,0:0:0:0:
90,112,27491,1,8,0:0:0:0:
90,112,27554,1,0,0:0:0:0:
125,181,27679,1,0,0:0:0:0:
116,128,27804,1,8,0:0:0:0:
116,128,27866,1,8,0:0:0:0:
119,178,27929,1,0,0:0:0:0:
108,124,28054,1,8,0:0:0:0:
120,176,28179,1,0,0:0:0:0:
107,121,28241,1,0,0:0:0:0:
107,121,28304,1,8,0:0:0:0:
107,121,28366,1,0,0:0:0:0:
107,121,28429,1,8,0:0:0:0:
107,121,28491,1,8,0:0:0:0:
107,121,28554,1,8,0:0:0:0:
107,121,28616,1,8,0:0:0:0:
107,121,28679,1,4,0:0:0:0:
234,178,30429,1,0,0:0:0:0:
234,178,30491,1,0,0:0:0:0:
227,178,30554,1,8,0:0:0:0:
190,268,30679,1,4,0:0:0:0:
190,268,30804,1,8,0:0:0:0:
161,240,30929,1,0,0:0:0:0:
161,240,31054,1,0,0:0:0:0:
161,240,31179,1,8,0:0:0:0:
258,149,31241,1,0,0:0:0:0:
161,240,31304,1,8,0:0:0:0:
161,240,31429,1,0,0:0:0:0:
161,240,31554,1,0,0:0:0:0:
161,240,31679,1,8,0:0:0:0:
258,149,31741,1,0,0:0:0:0:
161,240,31804,1,8,0:0:0:0:
258,149,31866,1,8,0:0:0:0:
161,240,31929,1,0,0:0:0:0:
161,240,32054,1,8,0:0:0:0:
161,240,32179,1,0,0:0:0:0:
165,193,32241,1,0,0:0:0:0:
165,193,32304,1,8,0:0:0:0:
162,206,32366,1,0,0:0:0:0:
165,193,32429,1,8,0:0:0:0:
168,209,32491,1,8,0:0:0:0:
168,209,32554,1,8,0:0:0:0:
165,166,32616,1,8,0:0:0:0:
168,209,32679,1,0,0:0:0:0:
168,209,32804,1,0,0:0:0:0:
168,209,32929,1,8,0:0:0:0:
168,209,33054,1,0,0:0:0:0:
168,209,33179,1,8,0:0:0:0:
257,149,33241,1,0,0:0:0:0:
168,209,33304,1,8,0:0:0:0:
168,209,33429,1,0,0:0:0:0:
168,209,33554,1,0,0:0:0:0:
172,213,33679,1,8,0:0:0:0:
257,149,33741,1,8,0:0:0:0:
172,213,33804,1,0,0:0:0:0:
257,149,33866,1,0,0:0:0:0:
172,213,33929,1,8,0:0:0:0:
172,213,34054,1,8,0:0:0:0:
168,209,34179,1,0,0:0:0:0:
168,209,34241,1,0,0:0:0:0:
168,209,34304,1,8,0:0:0:0:
168,209,34366,1,0,0:0:0:0:
168,209,34429,1,8,0:0:0:0:
168,209,34491,1,8,0:0:0:0:
168,209,34554,1,8,0:0:0:0:
172,213,34616,1,8,0:0:0:0:
177,211,34679,1,0,0:0:0:0:
172,213,34804,1,0,0:0:0:0:
172,213,34929,1,8,0:0:0:0:
172,213,35054,1,0,0:0:0:0:
168,209,35179,1,8,0:0:0:0:
255,149,35241,1,0,0:0:0:0:
168,209,35304,1,8,0:0:0:0:
168,209,35429,1,0,0:0:0:0:
168,209,35554,1,0,0:0:0:0:
177,211,35679,1,8,0:0:0:0:
255,149,35741,1,0,0:0:0:0:
172,213,35804,1,0,0:0:0:0:
105,115,35866,1,0,0:0:0:0:
172,213,35929,1,8,0:0:0:0:
172,213,36054,1,8,0:0:0:0:
168,209,36179,1,0,0:0:0:0:
194,139,36241,1,0,0:0:0:0:
168,209,36304,1,0,0:0:0:0:
146,171,36366,1,0,0:0:0:0:
168,209,36429,1,8,0:0:0:0:
165,213,36554,1,8,0:0:0:0:
165,213,36679,1,0,0:0:0:0:
141,215,36741,1,0,0:0:0:0:
141,215,36804,1,8,0:0:0:0:
135,218,36866,1,8,0:0:0:0:
135,218,36929,1,0,0:0:0:0:
135,218,36991,1,8,0:0:0:0:
137,218,37054,1,0,0:0:0:0:
140,218,37116,1,0,0:0:0:0:
135,218,37179,1,8,0:0:0:0:
135,218,37241,1,0,0:0:0:0:
135,218,37304,1,8,0:0:0:0:
140,218,37366,1,8,0:0:0:0:
140,218,37429,1,0,0:0:0:0:
140,218,37491,1,8,0:0:0:0:
141,218,37554,1,0,0:0:0:0:
140,218,37616,1,0,0:0:0:0:
141,218,37679,1,8,0:0:0:0:
141,215,37741,1,0,0:0:0:0:
141,215,37804,1,0,0:0:0:0:
141,218,37866,1,0,0:0:0:0:
144,218,37929,1,8,0:0:0:0:
141,218,37991,1,8,0:0:0:0:
141,218,38054,1,0,0:0:0:0:
140,218,38116,1,0,0:0:0:0:
144,218,38179,1,8,0:0:0:0:
144,218,38241,1,8,0:0:0:0:
145,218,38304,1,8,0:0:0:0:
152,218,38366,1,8,0:0:0:0:
148,218,38429,1,0,0:0:0:0:
145,218,38491,1,0,0:0:0:0:
146,218,38554,1,8,0:0:0:0:
150,218,38616,1,8,0:0:0:0:
117,197,38679,1,4,0:0:0:0:
270,189,38804,1,8,0:0:0:0:
117,197,38929,1,0,0:0:0:0:
187,183,38991,1,0,0:0:0:0:
194,188,39054,1,8,0:0:0:0:
119,196,39179,1,0,0:0:0:0:
197,196,39304,1,8,0:0:0:0:
197,196,39366,1,8,0:0:0:0:
110,180,39429,1,0,0:0:0:0:
197,196,39491,1,0,0:0:0:0:
197,196,39554,1,8,0:0:0:0:
104,195,39679,1,0,0:0:0:0:
197,196,39804,1,8,0:0:0:0:
103,196,39929,1,0,0:0:0:0:
197,196,39991,1,0,0:0:0:0:
197,196,40054,1,8,0:0:0:0:
197,196,40116,1,0,0:0:0:0:
103,196,40179,1,0,0:0:0:0:
197,196,40304,1,8,0:0:0:0:
197,196,40366,1,8,0:0:0:0:
197,196,40429,1,0,0:0:0:0:
197,196,40491,1,0,0:0:0:0:
197,196,40554,1,8,0:0:0:0:
104,195,40679,1,0,0:0:0:0:
144,165,40804,1,8,0:0:0:0:
135,155,40866,1,0,0:0:0:0:
135,155,40929,1,8,0:0:0:0:
135,155,40991,1,8,0:0:0:0:
135,155,41054,1,0,0:0:0:0:
103,196,41179,1,0,0:0:0:0:
135,155,41304,1,8,0:0:0:0:
135,155,41366,1,0,0:0:0:0:
135,155,41429,1,0,0:0:0:0:
135,155,41491,1,0,0:0:0:0:
135,155,41554,1,8,0:0:0:0:
114,199,41679,1,0,0:0:0:0:
135,155,41804,1,0,0:0:0:0:
135,155,41866,1,8,0:0:0:0:
114,199,41929,1,0,0:0:0:0:
135,155,41991,1,0,0:0:0:0:
135,155,42054,1,8,0:0:0:0:
135,155,42179,1,8,0:0:0:0:
135,155,42241,1,8,0:0:0:0:
135,155,42304,1,0,0:0:0:0:
135,155,42366,1,0,0:0:0:0:
135,155,42429,1,8,0:0:0:0:
135,155,42491,1,0,0:0:0:0:
135,155,42554,1,8,0:0:0:0:
135,155,42616,1,8,0:0:0:0:
114,199,42679,1,4,0:0:0:0:
179,193,43429,1,4,0:0:0:0:
170,198,44179,1,12,0:0:0:0:
106,186,44429,1,0,0:0:0:0:
107,195,44491,1,0,0:0:0:0:
106,186,44554,1,8,0:0:0:0:
190,268,44679,1,4,0:0:0:0:
190,268,44804,1,8,0:0:0:0:
161,240,44929,1,0,0:0:0:0:
161,240,45054,1,0,0:0:0:0:
161,240,45179,1,8,0:0:0:0:
198,109,45241,1,0,0:0:0:0:
161,240,45304,1,8,0:0:0:0:
161,240,45429,1,0,0:0:0:0:
161,240,45554,1,0,0:0:0:0:
161,240,45679,1,8,0:0:0:0:
248,105,45741,1,8,0:0:0:0:
248,105,45804,1,0,0:0:0:0:
248,105,45866,1,0,0:0:0:0:
248,105,45929,1,8,0:0:0:0:
161,240,46054,1,8,0:0:0:0:
161,240,46179,1,0,0:0:0:0:
165,193,46241,1,0,0:0:0:0:
165,193,46304,1,8,0:0:0:0:
162,206,46366,1,0,0:0:0:0:
165,193,46429,1,8,0:0:0:0:
168,209,46491,1,8,0:0:0:0:
168,209,46554,1,0,0:0:0:0:
165,166,46616,1,0,0:0:0:0:
168,209,46679,1,8,0:0:0:0:
168,209,46804,1,0,0:0:0:0:
168,209,46929,1,0,0:0:0:0:
168,209,47054,1,0,0:0:0:0:
168,209,47179,1,8,0:0:0:0:
243,162,47241,1,0,0:0:0:0:
243,162,47304,1,8,0:0:0:0:
168,209,47429,1,0,0:0:0:0:
168,209,47554,1,0,0:0:0:0:
172,213,47679,1,8,0:0:0:0:
243,162,47741,1,0,0:0:0:0:
172,213,47804,1,8,0:0:0:0:
243,162,47866,1,8,0:0:0:0:
172,213,47929,1,0,0:0:0:0:
172,213,48054,1,8,0:0:0:0:
168,209,48179,1,0,0:0:0:0:
168,209,48241,1,0,0:0:0:0:
168,209,48304,1,8,0:0:0:0:
168,209,48366,1,0,0:0:0:0:
168,209,48429,1,8,0:0:0:0:
168,209,48491,1,8,0:0:0:0:
168,209,48554,1,0,0:0:0:0:
172,213,48616,1,0,0:0:0:0:
177,211,48679,1,8,0:0:0:0:
172,213,48804,1,0,0:0:0:0:
172,213,48929,1,0,0:0:0:0:
172,213,49054,1,0,0:0:0:0:
168,209,49179,1,8,0:0:0:0:
242,161,49241,1,0,0:0:0:0:
168,209,49304,1,8,0:0:0:0:
168,209,49429,1,0,0:0:0:0:
168,209,49554,1,0,0:0:0:0:
177,211,49679,1,8,0:0:0:0:
242,161,49741,1,8,0:0:0:0:
172,213,49804,1,0,0:0:0:0:
105,115,49866,1,8,0:0:0:0:
172,213,49929,1,0,0:0:0:0:
172,213,50054,1,8,0:0:0:0:
221,121,50116,1,8,0:0:0:0:
168,209,50179,1,0,0:0:0:0:
194,139,50241,1,0,0:0:0:0:
168,209,50304,1,8,0:0:0:0:
146,171,50366,1,0,0:0:0:0:
168,209,50429,1,8,0:0:0:0:
141,148,50491,1,8,0:0:0:0:
165,213,50554,1,0,0:0:0:0:
188,104,50616,1,0,0:0:0:0:
165,213,50679,1,8,0:0:0:0:
188,104,50804,1,8,0:0:0:0:
188,104,50929,1,0,0:0:0:0:
188,104,51054,1,0,0:0:0:0:
188,104,51179,1,8,0:0:0:0:
226,144,51241,1,8,0:0:0:0:
179,104,51304,1,8,0:0:0:0:
179,104,51429,1,8,0:0:0:0:
179,104,51554,1,0,0:0:0:0:
179,104,51679,1,0,0:0:0:0:
179,104,51741,1,0,0:0:0:0:
179,104,51804,1,8,0:0:0:0:
179,104,51866,1,0,0:0:0:0:
179,104,51929,1,8,0:0:0:0:
179,104,51991,1,8,0:0:0:0:
179,104,52054,1,0,0:0:0:0:
140,218,52116,1,0,0:0:0:0:
144,218,52179,1,8,0:0:0:0:
160,100,52241,1,0,0:0:0:0:
159,100,52304,1,8,0:0:0:0:
152,218,52366,1,8,0:0:0:0:
148,218,52429,1,0,0:0:0:0:
159,100,52491,1,8,0:0:0:0:
146,218,52554,1,8,0:0:0:0:
150,218,52616,1,8,0:0:0:0:
150,218,52679,1,0,0:0:0:0:
120,174,52804,1,0,0:0:0:0:
177,199,52929,1,8,0:0:0:0:
152,170,53054,1,8,0:0:0:0:
143,169,53116,1,0,0:0:0:0:
143,169,53179,1,8,0:0:0:0:
143,169,53241,1,8,0:0:0:0:
120,174,53304,1,0,0:0:0:0:
143,169,53366,1,0,0:0:0:0:
143,169,53429,1,8,0:0:0:0:
140,171,53491,1,8,0:0:0:0:
140,171,53554,1,8,0:0:0:0:
140,173,53616,1,8,0:0:0:0:
216,102,53679,1,0,0:0:0:0:
120,174,53804,1,0,0:0:0:0:
132,182,53929,1,8,0:0:0:0:
120,174,54054,1,0,0:0:0:0:
126,186,54116,1,0,0:0:0:0:
126,186,54179,1,8,0:0:0:0:
128,186,54241,1,0,0:0:0:0:
128,186,54304,1,8,0:0:0:0:
128,186,54366,1,8,0:0:0:0:
128,186,54429,1,0,0:0:0:0:
125,193,54554,1,8,0:0:0:0:
216,102,54679,1,0,0:0:0:0:
120,174,54804,1,0,0:0:0:0:
103,194,54929,1,8,0:0:0:0:
120,174,55054,1,0,0:0:0:0:
136,161,55116,1,0,0:0:0:0:
136,161,55179,1,8,0:0:0:0:
99,163,55241,1,0,0:0:0:0:
99,163,55304,1,8,0:0:0:0:
105,162,55366,1,0,0:0:0:0:
105,162,55429,1,8,0:0:0:0:
108,160,55491,1,8,0:0:0:0:
108,160,55554,1,8,0:0:0:0:
105,166,55616,1,8,0:0:0:0:
216,102,55679,1,0,0:0:0:0:
120,174,55804,1,0,0:0:0:0:
188,160,55929,1,8,0:0:0:0:
182,162,56054,1,8,0:0:0:0:
181,162,56116,1,0,0:0:0:0:
181,162,56179,1,8,0:0:0:0:
181,162,56241,1,0,0:0:0:0:
181,162,56304,1,8,0:0:0:0:
181,162,56366,1,8,0:0:0:0:
216,102,56429,1,0,0:0:0:0:
183,162,56491,1,0,0:0:0:0:
183,162,56554,1,8,0:0:0:0:
216,102,56679,1,0,0:0:0:0:
120,174,56804,1,0,0:0:0:0:
65,183,56929,1,8,0:0:0:0:
120,174,57054,1,0,0:0:0:0:
95,234,57116,1,8,0:0:0:0:
199,118,57179,1,0,0:0:0:0:
95,234,57241,1,0,0:0:0:0:
90,235,57304,1,8,0:0:0:0:
95,234,57366,1,0,0:0:0:0:
90,235,57429,1,8,0:0:0:0:
89,235,57491,1,8,0:0:0:0:
82,237,57554,1,8,0:0:0:0:
85,235,57616,1,8,0:0:0:0:
199,117,57679,1,0,0:0:0:0:
120,174,57804,1,0,0:0:0:0:
203,195,57929,1,8,0:0:0:0:
120,174,58054,1,0,0:0:0:0:
149,177,58179,1,8,0:0:0:0:
143,178,58241,1,0,0:0:0:0:
120,174,58304,1,0,0:0:0:0:
130,179,58366,1,8,0:0:0:0:
130,179,58429,1,0,0:0:0:0:
120,174,58554,1,0,0:0:0:0:
195,112,58679,1,0,0:0:0:0:
120,174,58741,1,0,0:0:0:0:
120,174,58804,1,8,0:0:0:0:
120,174,58866,1,0,0:0:0:0:
195,113,58929,1,8,0:0:0:0:
120,174,58991,1,8,0:0:0:0:
120,174,59054,1,0,0:0:0:0:
120,174,59116,1,0,0:0:0:0:
120,174,59179,1,8,0:0:0:0:
120,174,59241,1,0,0:0:0:0:
105,175,59304,1,8,0:0:0:0:
120,174,59366,1,0,0:0:0:0:
120,174,59429,1,8,0:0:0:0:
105,177,59491,1,8,0:0:0:0:
105,177,59554,1,8,0:0:0:0:
103,177,59616,1,8,0:0:0:0:
103,177,59679,1,0,0:0:0:0:
99,183,59741,1,0,0:0:0:0:
103,177,59804,1,8,0:0:0:0:
103,177,59866,1,8,0:0:0:0:
195,113,59929,1,0,0:0:0:0:
99,183,59991,1,0,0:0:0:0:
96,183,60054,1,8,0:0:0:0:
95,183,60116,1,0,0:0:0:0:
208,95,60179,1,8,0:0:0:0:
95,183,60241,1,8,0:0:0:0:
94,183,60304,1,8,0:0:0:0:
92,185,60366,1,8,0:0:0:0:
208,95,60429,1,0,0:0:0:0:
208,95,60679,1,4,0:0:0:0:
232,224,60804,1,0,0:0:0:0:
242,224,60866,1,8,0:0:0:0:
186,113,60929,1,0,0:0:0:0:
226,222,60991,1,0,0:0:0:0:
232,224,61054,1,8,0:0:0:0:
185,118,61179,1,0,0:0:0:0:
221,220,61241,1,0,0:0:0:0:
217,217,61304,1,8,0:0:0:0:
217,217,61366,1,0,0:0:0:0:
217,217,61429,1,8,0:0:0:0:
217,217,61491,1,8,0:0:0:0:
214,216,61554,1,0,0:0:0:0:
185,118,61679,1,0,0:0:0:0:
171,233,61804,1,8,0:0:0:0:
171,233,61866,1,8,0:0:0:0:
185,118,61929,1,0,0:0:0:0:
129,206,62054,1,8,0:0:0:0:
129,206,62116,1,8,0:0:0:0:
185,118,62179,1,0,0:0:0:0:
129,206,62241,1,0,0:0:0:0:
129,206,62304,1,8,0:0:0:0:
129,206,62366,1,0,0:0:0:0:
129,206,62429,1,8,0:0:0:0:
129,206,62491,1,8,0:0:0:0:
129,206,62554,1,0,0:0:0:0:
205,121,62679,1,0,0:0:0:0:
124,202,62741,1,0,0:0:0:0:
124,202,62804,1,8,0:0:0:0:
205,121,62929,1,0,0:0:0:0:
124,202,62991,1,0,0:0:0:0:
124,202,63054,1,8,0:0:0:0:
124,202,63116,1,8,0:0:0:0:
205,121,63179,1,0,0:0:0:0:
96,169,63241,1,0,0:0:0:0:
124,202,63304,1,8,0:0:0:0:
124,202,63429,1,8,0:0:0:0:
124,202,63491,1,8,0:0:0:0:
124,202,63554,1,0,0:0:0:0:
199,111,63679,1,0,0:0:0:0:
129,174,63741,1,0,0:0:0:0:
124,202,63804,1,8,0:0:0:0:
124,202,63866,1,8,0:0:0:0:
124,202,63929,1,0,0:0:0:0:
137,188,63991,1,0,0:0:0:0:
124,202,64054,1,8,0:0:0:0:
124,202,64116,1,0,0:0:0:0:
124,202,64179,1,8,0:0:0:0:
124,202,64241,1,8,0:0:0:0:
124,202,64304,1,8,0:0:0:0:
124,202,64366,1,8,0:0:0:0:
204,102,64429,1,0,0:0:0:0:
99,203,64491,1,0,0:0:0:0:
99,203,64554,1,8,0:0:0:0:
99,203,64616,1,8,0:0:0:0:
203,103,64679,1,0,0:0:0:0:
108,251,64804,1,8,0:0:0:0:
108,251,64929,1,0,0:0:0:0:
125,264,64991,1,0,0:0:0:0:
130,254,65054,1,8,0:0:0:0:
204,104,65179,1,0,0:0:0:0:
183,149,65304,1,8,0:0:0:0:
170,154,65366,1,0,0:0:0:0:
170,154,65429,1,8,0:0:0:0:
165,151,65491,1,8,0:0:0:0:
148,162,65554,1,0,0:0:0:0:
203,103,65679,1,0,0:0:0:0:
151,164,65741,1,0,0:0:0:0:
151,164,65804,1,8,0:0:0:0:
151,164,65866,1,0,0:0:0:0:
151,164,65929,1,8,0:0:0:0:
149,164,65991,1,8,0:0:0:0:
149,164,66054,1,0,0:0:0:0:
198,104,66179,1,0,0:0:0:0:
132,180,66304,1,8,0:0:0:0:
132,180,66366,1,8,0:0:0:0:
198,104,66429,1,0,0:0:0:0:
151,184,66491,1,0,0:0:0:0:
151,184,66554,1,8,0:0:0:0:
203,103,66679,1,0,0:0:0:0:
230,166,66741,1,0,0:0:0:0:
135,186,66804,1,8,0:0:0:0:
185,108,66929,1,0,0:0:0:0:
110,158,66991,1,0,0:0:0:0:
122,122,67054,1,8,0:0:0:0:
143,158,67116,1,0,0:0:0:0:
226,137,67179,1,0,0:0:0:0:
143,158,67241,1,0,0:0:0:0:
143,158,67304,1,8,0:0:0:0:
143,158,67366,1,8,0:0:0:0:
222,146,67429,1,0,0:0:0:0:
143,158,67491,1,0,0:0:0:0:
143,158,67554,1,8,0:0:0:0:
212,128,67679,1,0,0:0:0:0:
143,158,67741,1,0,0:0:0:0:
143,158,67804,1,8,0:0:0:0:
130,166,67929,1,0,0:0:0:0:
130,166,68054,1,8,0:0:0:0:
130,166,68116,1,8,0:0:0:0:
130,166,68179,1,0,0:0:0:0:
130,166,68241,1,0,0:0:0:0:
130,166,68304,1,8,0:0:0:0:
130,166,68366,1,0,0:0:0:0:
132,168,68429,1,8,0:0:0:0:
132,168,68491,1,8,0:0:0:0:
132,168,68554,1,0,0:0:0:0:
128,169,68616,1,0,0:0:0:0:
212,128,68679,1,8,0:0:0:0:
126,173,68741,1,0,0:0:0:0:
126,173,68804,1,8,0:0:0:0:
122,172,68866,1,8,0:0:0:0:
212,128,68929,1,0,0:0:0:0:
116,171,68991,1,0,0:0:0:0:
116,170,69054,1,8,0:0:0:0:
165,182,69116,1,0,0:0:0:0:
115,170,69179,1,8,0:0:0:0:
114,170,69241,1,8,0:0:0:0:
114,170,69304,1,0,0:0:0:0:
114,170,69366,1,0,0:0:0:0:
114,170,69429,1,8,0:0:0:0:
165,182,69491,1,8,0:0:0:0:
114,170,69554,1,8,0:0:0:0:
114,170,69616,1,8,0:0:0:0:
114,170,69679,1,0,0:0:0:0:
114,170,69741,1,0,0:0:0:0:
116,171,69804,1,8,0:0:0:0:
167,204,69866,1,0,0:0:0:0:
116,171,69929,1,8,0:0:0:0:
116,170,69991,1,8,0:0:0:0:
115,170,70054,1,0,0:0:0:0:
114,170,70116,1,0,0:0:0:0:
211,128,70179,1,8,0:0:0:0:
114,170,70241,1,8,0:0:0:0:
114,170,70304,1,8,0:0:0:0:
114,170,70366,1,8,0:0:0:0:
114,170,70429,1,0,0:0:0:0:
161,208,70491,1,0,0:0:0:0:
162,208,70554,1,0,0:0:0:0:
161,208,70616,1,0,0:0:0:0:
166,87,70679,1,8,0:0:0:0:
141,118,70741,1,8,0:0:0:0:
136,120,70804,1,0,0:0:0:0:
134,120,71179,1,12,0:0:0:0:
134,120,71429,1,12,0:0:0:0:
