osu file format v14

[General]
AudioFilename: audio.mp3
AudioLeadIn: 0
PreviewTime: 60548
Countdown: 0
SampleSet: Normal
StackLeniency: 0
Mode: 1
LetterboxInBreaks: 0
WidescreenStoryboard: 1

[Editor]
DistanceSpacing: 0.5
BeatDivisor: 4
GridSize: 32
TimelineZoom: 2.399999

[Metadata]
Title:Vertigo Game (Sped Up Ver.)
TitleUnicode:Vertigo Game (Sped Up Ver.)
Artist:MELT-BANANA
ArtistUnicode:MELT-BANANA
Creator:liku
Version:Antti's Muzukashii
Source:
Tags:english rock noise fetch mxbx antti skolodojko inherentcross1 version a-zap records
BeatmapID:3901203
BeatmapSetID:1893137

[Difficulty]
HPDrainRate:7
CircleSize:2
OverallDifficulty:5
ApproachRate:10
SliderMultiplier:1.4
SliderTickRate:1

[Events]
//Background and Video events
0,0,"image (1).jpg",0,-60
//Break Periods
//Storyboard Layer 0 (Background)
//Storyboard Layer 1 (Fail)
//Storyboard Layer 2 (Pass)
//Storyboard Layer 3 (Foreground)
//Storyboard Layer 4 (Overlay)
//Storyboard Sound Samples

[TimingPoints]
679,250,4,1,0,40,1,0
679,-133.333333333333,4,1,0,40,0,0
4491,-133.333333333333,4,1,0,50,0,0
4804,-133.333333333333,4,1,0,40,0,0
6491,-117.647058823529,4,1,0,80,0,0
8554,-117.647058823529,4,1,0,85,0,0
9554,-117.647058823529,4,1,0,90,0,0
10616,-105.263157894737,4,1,0,95,0,0
14804,-117.647058823529,4,1,0,75,0,0
16179,-117.647058823529,4,1,0,85,0,0
16304,-117.647058823529,4,1,0,90,0,0
16616,-111.111111111111,4,1,0,90,0,0
24616,-105.263157894737,4,1,0,95,0,0
28804,-117.647058823529,4,1,0,75,0,0
30179,-117.647058823529,4,1,0,85,0,0
30304,-117.647058823529,4,1,0,90,0,0
30616,-111.111111111111,4,1,0,90,0,0
38429,-105.263157894737,4,1,0,90,0,0
38679,-100,4,1,0,100,0,1
42679,-100,4,1,0,100,0,0
42804,-108.108108108108,4,1,0,70,0,0
43554,-117.647058823529,4,1,0,70,0,0
44179,-117.647058823529,4,1,0,85,0,0
44304,-117.647058823529,4,1,0,90,0,0
44616,-111.111111111111,4,1,0,90,0,0
52554,-105.263157894737,4,1,0,90,0,0
60679,-100,4,1,0,100,0,1
70679,-100,4,1,0,100,0,0
71741,-95.2380952380952,4,1,0,100,0,0
71835,-95.6937799043062,4,1,0,100,0,0

[HitObjects]
256,192,679,5,8,0:0:0:0:
256,192,929,1,8,0:0:0:0:
256,192,1054,1,0,0:0:0:0:
256,192,1179,1,0,0:0:0:0:
256,192,1304,1,8,0:0:0:0:
256,192,1554,1,0,0:0:0:0:
256,192,1679,1,8,0:0:0:0:
256,192,1804,1,0,0:0:0:0:
256,192,1929,1,0,0:0:0:0:
256,192,2054,1,8,0:0:0:0:
256,192,2304,1,0,0:0:0:0:
256,192,2429,1,8,0:0:0:0:
256,192,2679,1,0,0:0:0:0:
256,192,2929,1,8,0:0:0:0:
256,192,3054,1,0,0:0:0:0:
256,192,3179,1,8,0:0:0:0:
256,192,3304,1,8,0:0:0:0:
256,192,3429,1,8,0:0:0:0:
256,192,3679,1,0,0:0:0:0:
256,192,3929,1,8,0:0:0:0:
256,192,4054,1,0,0:0:0:0:
256,192,4429,1,8,0:0:0:0:
256,192,4554,1,0,0:0:0:0:
256,192,4616,1,0,0:0:0:0:
256,192,4679,1,0,0:0:0:0:
256,192,4929,1,8,0:0:0:0:
256,192,5054,1,8,0:0:0:0:
256,192,5179,1,8,0:0:0:0:
256,192,5304,1,0,0:0:0:0:
256,192,5429,1,8,0:0:0:0:
256,192,5679,1,0,0:0:0:0:
256,192,5929,1,8,0:0:0:0:
256,192,6054,1,0,0:0:0:0:
256,192,6429,1,0,0:0:0:0:
256,192,6554,1,8,0:0:0:0:
256,192,6616,1,8,0:0:0:0:
256,192,6679,1,8,0:0:0:0:
256,192,6804,1,0,0:0:0:0:
256,192,6929,1,8,0:0:0:0:
256,192,7179,1,8,0:0:0:0:
256,192,7304,1,8,0:0:0:0:
256,192,7429,1,0,0:0:0:0:
256,192,7554,1,8,0:0:0:0:
256,192,7616,1,8,0:0:0:0:
256,192,7679,1,8,0:0:0:0:
256,192,7804,1,0,0:0:0:0:
256,192,7929,1,8,0:0:0:0:
256,192,8054,1,0,0:0:0:0:
256,192,8304,1,0,0:0:0:0:
256,192,8429,1,8,0:0:0:0:
256,192,8679,1,4,0:0:0:0:
256,192,9054,1,8,0:0:0:0:
256,192,9179,1,4,0:0:0:0:
256,192,9429,1,8,0:0:0:0:
256,192,9679,1,0,0:0:0:0:
256,192,9804,1,8,0:0:0:0:
256,192,9866,1,8,0:0:0:0:
256,192,9929,1,8,0:0:0:0:
256,192,10054,1,0,0:0:0:0:
256,192,10179,1,8,0:0:0:0:
256,192,10304,1,0,0:0:0:0:
256,192,10429,1,8,0:0:0:0:
256,192,10554,1,8,0:0:0:0:
256,192,10679,1,4,0:0:0:0:
256,192,10804,1,8,0:0:0:0:
256,192,10866,1,8,0:0:0:0:
256,192,10929,1,8,0:0:0:0:
256,192,11054,1,0,0:0:0:0:
256,192,11429,1,8,0:0:0:0:
256,192,11554,1,0,0:0:0:0:
256,192,11616,1,0,0:0:0:0:
256,192,11679,1,0,0:0:0:0:
256,192,11804,1,8,0:0:0:0:
256,192,11929,1,0,0:0:0:0:
256,192,12054,1,8,0:0:0:0:
256,192,12429,1,8,0:0:0:0:
256,192,12554,1,0,0:0:0:0:
256,192,12616,1,0,0:0:0:0:
256,192,12679,1,0,0:0:0:0:
256,192,12804,1,8,0:0:0:0:
256,192,12929,1,0,0:0:0:0:
256,192,13054,1,8,0:0:0:0:
256,192,13304,1,0,0:0:0:0:
256,192,13366,1,0,0:0:0:0:
256,192,13429,1,0,0:0:0:0:
256,192,13554,1,8,0:0:0:0:
256,192,13616,1,8,0:0:0:0:
256,192,13679,1,8,0:0:0:0:
256,192,13804,1,0,0:0:0:0:
256,192,14054,1,8,0:0:0:0:
256,192,14304,1,8,0:0:0:0:
256,192,14366,1,8,0:0:0:0:
256,192,14429,1,8,0:0:0:0:
256,192,14554,1,0,0:0:0:0:
256,192,14679,1,12,0:0:0:0:
256,192,16429,1,0,0:0:0:0:
256,192,16491,1,0,0:0:0:0:
256,192,16554,1,0,0:0:0:0:
256,192,16679,1,12,0:0:0:0:
256,192,17179,1,8,0:0:0:0:
256,192,17304,1,8,0:0:0:0:
256,192,17429,1,0,0:0:0:0:
256,192,17554,1,8,0:0:0:0:
256,192,17616,1,8,0:0:0:0:
256,192,17679,1,8,0:0:0:0:
256,192,17804,1,8,0:0:0:0:
256,192,17929,1,0,0:0:0:0:
256,192,18054,1,8,0:0:0:0:
256,192,18304,1,8,0:0:0:0:
256,192,18366,1,8,0:0:0:0:
256,192,18429,1,8,0:0:0:0:
256,192,18554,1,0,0:0:0:0:
256,192,18679,1,12,0:0:0:0:
256,192,19179,1,8,0:0:0:0:
256,192,19304,1,8,0:0:0:0:
256,192,19429,1,0,0:0:0:0:
256,192,19554,1,8,0:0:0:0:
256,192,19616,1,8,0:0:0:0:
256,192,19679,1,8,0:0:0:0:
256,192,19804,1,0,0:0:0:0:
256,192,19929,1,0,0:0:0:0:
256,192,20054,1,8,0:0:0:0:
256,192,20304,1,8,0:0:0:0:
256,192,20366,1,8,0:0:0:0:
256,192,20429,1,8,0:0:0:0:
256,192,20554,1,0,0:0:0:0:
256,192,20679,1,12,0:0:0:0:
256,192,21179,1,8,0:0:0:0:
256,192,21304,1,8,0:0:0:0:
256,192,21429,1,0,0:0:0:0:
256,192,21554,1,8,0:0:0:0:
256,192,21616,1,8,0:0:0:0:
256,192,21679,1,8,0:0:0:0:
256,192,21804,1,8,0:0:0:0:
256,192,21929,1,0,0:0:0:0:
256,192,22054,1,8,0:0:0:0:
256,192,22304,1,0,0:0:0:0:
256,192,22429,1,8,0:0:0:0:
256,192,22554,1,8,0:0:0:0:
256,192,22679,1,4,0:0:0:0:
256,192,22929,1,0,0:0:0:0:
256,192,23054,1,8,0:0:0:0:
256,192,23179,1,0,0:0:0:0:
256,192,23304,1,8,0:0:0:0:
256,192,23429,1,0,0:0:0:0:
256,192,23554,1,8,0:0:0:0:
256,192,23679,1,0,0:0:0:0:
256,192,23741,1,0,0:0:0:0:
256,192,23804,1,0,0:0:0:0:
256,192,23929,1,8,0:0:0:0:
256,192,24054,1,0,0:0:0:0:
256,192,24179,1,0,0:0:0:0:
256,192,24304,1,8,0:0:0:0:
256,192,24429,1,0,0:0:0:0:
256,192,24554,1,0,0:0:0:0:
256,192,24679,1,12,0:0:0:0:
256,192,24804,1,0,0:0:0:0:
256,192,24866,1,0,0:0:0:0:
256,192,24929,1,0,0:0:0:0:
256,192,25054,1,8,0:0:0:0:
256,192,25429,1,8,0:0:0:0:
256,192,25554,1,0,0:0:0:0:
256,192,25616,1,0,0:0:0:0:
256,192,25679,1,0,0:0:0:0:
256,192,25804,1,8,0:0:0:0:
256,192,25929,1,0,0:0:0:0:
256,192,26054,1,8,0:0:0:0:
256,192,26429,1,8,0:0:0:0:
256,192,26554,1,0,0:0:0:0:
256,192,26616,1,0,0:0:0:0:
256,192,26679,1,0,0:0:0:0:
256,192,26804,1,8,0:0:0:0:
256,192,26929,1,0,0:0:0:0:
256,192,27054,1,8,0:0:0:0:
256,192,27304,1,8,0:0:0:0:
256,192,27366,1,8,0:0:0:0:
256,192,27429,1,8,0:0:0:0:
256,192,27554,1,0,0:0:0:0:
256,192,27616,1,0,0:0:0:0:
256,192,27679,1,0,0:0:0:0:
256,192,27804,1,8,0:0:0:0:
256,192,28054,1,0,0:0:0:0:
256,192,28304,1,8,0:0:0:0:
256,192,28366,1,8,0:0:0:0:
256,192,28429,1,8,0:0:0:0:
256,192,28554,1,0,0:0:0:0:
256,192,28679,1,12,0:0:0:0:
256,192,30429,1,8,0:0:0:0:
256,192,30491,1,8,0:0:0:0:
256,192,30554,1,8,0:0:0:0:
256,192,30679,1,4,0:0:0:0:
256,192,31179,1,0,0:0:0:0:
256,192,31304,1,0,0:0:0:0:
256,192,31429,1,8,0:0:0:0:
256,192,31554,1,0,0:0:0:0:
256,192,31616,1,0,0:0:0:0:
256,192,31679,1,0,0:0:0:0:
256,192,31804,1,0,0:0:0:0:
256,192,31929,1,8,0:0:0:0:
256,192,32054,1,0,0:0:0:0:
256,192,32304,1,0,0:0:0:0:
256,192,32366,1,0,0:0:0:0:
256,192,32429,1,0,0:0:0:0:
256,192,32554,1,8,0:0:0:0:
256,192,32679,1,4,0:0:0:0:
256,192,33179,1,0,0:0:0:0:
256,192,33304,1,0,0:0:0:0:
256,192,33429,1,8,0:0:0:0:
256,192,33554,1,0,0:0:0:0:
256,192,33616,1,0,0:0:0:0:
256,192,33679,1,0,0:0:0:0:
256,192,33804,1,8,0:0:0:0:
256,192,33929,1,8,0:0:0:0:
256,192,34054,1,0,0:0:0:0:
256,192,34304,1,0,0:0:0:0:
256,192,34366,1,0,0:0:0:0:
256,192,34429,1,0,0:0:0:0:
256,192,34554,1,8,0:0:0:0:
256,192,34679,1,4,0:0:0:0:
256,192,35179,1,0,0:0:0:0:
256,192,35304,1,0,0:0:0:0:
256,192,35429,1,8,0:0:0:0:
256,192,35554,1,0,0:0:0:0:
256,192,35616,1,0,0:0:0:0:
256,192,35679,1,0,0:0:0:0:
256,192,35804,1,0,0:0:0:0:
256,192,35929,1,8,0:0:0:0:
256,192,36054,1,0,0:0:0:0:
256,192,36304,1,8,0:0:0:0:
256,192,36429,1,0,0:0:0:0:
256,192,36554,1,0,0:0:0:0:
256,192,36679,1,12,0:0:0:0:
256,192,36929,1,8,0:0:0:0:
256,192,37054,1,0,0:0:0:0:
256,192,37179,1,8,0:0:0:0:
256,192,37304,1,0,0:0:0:0:
256,192,37429,1,8,0:0:0:0:
256,192,37554,1,0,0:0:0:0:
256,192,37679,1,8,0:0:0:0:
256,192,37741,1,8,0:0:0:0:
256,192,37804,1,8,0:0:0:0:
256,192,37929,1,0,0:0:0:0:
256,192,38054,1,0,0:0:0:0:
256,192,38179,1,8,0:0:0:0:
256,192,38679,1,8,0:0:0:0:
256,192,38804,1,0,0:0:0:0:
256,192,38929,1,8,0:0:0:0:
256,192,38991,1,8,0:0:0:0:
256,192,39054,1,8,0:0:0:0:
256,192,39179,1,0,0:0:0:0:
256,192,39304,1,8,0:0:0:0:
256,192,39366,1,8,0:0:0:0:
256,192,39429,1,8,0:0:0:0:
256,192,39679,1,8,0:0:0:0:
256,192,39804,1,8,0:0:0:0:
256,192,39929,1,0,0:0:0:0:
256,192,39991,1,0,0:0:0:0:
256,192,40054,1,0,0:0:0:0:
256,192,40179,1,0,0:0:0:0:
256,192,40304,1,8,0:0:0:0:
256,192,40679,1,8,0:0:0:0:
256,192,40804,1,0,0:0:0:0:
256,192,40929,1,8,0:0:0:0:
256,192,40991,1,8,0:0:0:0:
256,192,41054,1,8,0:0:0:0:
256,192,41179,1,0,0:0:0:0:
256,192,41304,1,8,0:0:0:0:
256,192,41366,1,8,0:0:0:0:
256,192,41429,1,8,0:0:0:0:
256,192,41679,1,8,0:0:0:0:
256,192,41804,1,0,0:0:0:0:
256,192,41929,1,8,0:0:0:0:
256,192,41991,1,8,0:0:0:0:
256,192,42054,1,8,0:0:0:0:
256,192,42179,1,0,0:0:0:0:
256,192,42304,1,8,0:0:0:0:
256,192,42429,1,0,0:0:0:0:
256,192,42491,1,0,0:0:0:0:
256,192,42554,1,0,0:0:0:0:
256,192,42679,1,12,0:0:0:0:
256,192,43429,1,12,0:0:0:0:
256,192,44179,1,4,0:0:0:0:
256,192,44429,1,0,0:0:0:0:
256,192,44491,1,0,0:0:0:0:
256,192,44554,1,0,0:0:0:0:
256,192,44679,1,12,0:0:0:0:
256,192,45179,1,0,0:0:0:0:
256,192,45304,1,0,0:0:0:0:
256,192,45429,1,8,0:0:0:0:
256,192,45554,1,0,0:0:0:0:
256,192,45616,1,0,0:0:0:0:
256,192,45679,1,0,0:0:0:0:
256,192,45804,1,0,0:0:0:0:
256,192,45929,1,8,0:0:0:0:
256,192,46054,1,0,0:0:0:0:
256,192,46304,1,0,0:0:0:0:
256,192,46366,1,0,0:0:0:0:
256,192,46429,1,0,0:0:0:0:
256,192,46554,1,8,0:0:0:0:
256,192,46679,1,4,0:0:0:0:
256,192,47179,1,8,0:0:0:0:
256,192,47304,1,8,0:0:0:0:
256,192,47429,1,0,0:0:0:0:
256,192,47554,1,8,0:0:0:0:
256,192,47616,1,8,0:0:0:0:
256,192,47679,1,8,0:0:0:0:
256,192,47804,1,0,0:0:0:0:
256,192,47929,1,0,0:0:0:0:
256,192,48054,1,8,0:0:0:0:
256,192,48304,1,8,0:0:0:0:
256,192,48366,1,8,0:0:0:0:
256,192,48429,1,8,0:0:0:0:
256,192,48554,1,0,0:0:0:0:
256,192,48679,1,12,0:0:0:0:
256,192,49179,1,0,0:0:0:0:
256,192,49304,1,0,0:0:0:0:
256,192,49429,1,8,0:0:0:0:
256,192,49554,1,0,0:0:0:0:
256,192,49616,1,0,0:0:0:0:
256,192,49679,1,0,0:0:0:0:
256,192,49804,1,0,0:0:0:0:
256,192,49929,1,8,0:0:0:0:
256,192,50054,1,0,0:0:0:0:
256,192,50304,1,0,0:0:0:0:
256,192,50429,1,8,0:0:0:0:
256,192,50554,1,0,0:0:0:0:
256,192,50679,1,12,0:0:0:0:
256,192,51179,1,8,0:0:0:0:
256,192,51304,1,0,0:0:0:0:
256,192,51429,1,8,0:0:0:0:
256,192,51491,1,8,0:0:0:0:
256,192,51554,1,8,0:0:0:0:
256,192,51679,1,4,0:0:0:0:
256,192,52179,1,8,0:0:0:0:
256,192,52304,1,0,0:0:0:0:
256,192,52429,1,8,0:0:0:0:
256,192,52679,1,12,0:0:0:0:
256,192,53179,1,8,0:0:0:0:
256,192,53304,1,0,0:0:0:0:
256,192,53429,1,8,0:0:0:0:
256,192,53554,1,0,0:0:0:0:
256,192,53679,1,8,0:0:0:0:
256,192,53804,1,0,0:0:0:0:
256,192,53929,1,8,0:0:0:0:
256,192,54054,1,0,0:0:0:0:
256,192,54179,1,8,0:0:0:0:
256,192,54304,1,0,0:0:0:0:
256,192,54429,1,8,0:0:0:0:
256,192,54491,1,8,0:0:0:0:
256,192,54554,1,8,0:0:0:0:
256,192,54679,1,4,0:0:0:0:
256,192,55179,1,0,0:0:0:0:
256,192,55304,1,8,0:0:0:0:
256,192,55429,1,0,0:0:0:0:
256,192,55554,1,8,0:0:0:0:
256,192,55679,1,0,0:0:0:0:
256,192,55804,1,8,0:0:0:0:
256,192,55929,1,0,0:0:0:0:
256,192,56054,1,8,0:0:0:0:
256,192,56179,1,0,0:0:0:0:
256,192,56304,1,8,0:0:0:0:
256,192,56429,1,0,0:0:0:0:
256,192,56491,1,0,0:0:0:0:
256,192,56554,1,0,0:0:0:0:
256,192,56679,1,12,0:0:0:0:
256,192,57179,1,8,0:0:0:0:
256,192,57304,1,0,0:0:0:0:
256,192,57429,1,8,0:0:0:0:
256,192,57554,1,8,0:0:0:0:
256,192,57679,1,0,0:0:0:0:
256,192,57804,1,8,0:0:0:0:
256,192,57929,1,0,0:0:0:0:
256,192,58054,1,8,0:0:0:0:
256,192,58179,1,8,0:0:0:0:
256,192,58304,1,0,0:0:0:0:
256,192,58429,1,8,0:0:0:0:
256,192,58491,1,8,0:0:0:0:
256,192,58554,1,8,0:0:0:0:
256,192,58679,1,4,0:0:0:0:
256,192,59179,1,8,0:0:0:0:
256,192,59304,1,0,0:0:0:0:
256,192,59429,1,0,0:0:0:0:
256,192,59491,1,0,0:0:0:0:
256,192,59554,1,0,0:0:0:0:
256,192,59679,1,8,0:0:0:0:
256,192,59804,1,0,0:0:0:0:
256,192,59929,1,0,0:0:0:0:
256,192,59991,1,0,0:0:0:0:
256,192,60054,1,0,0:0:0:0:
256,192,60179,1,8,0:0:0:0:
256,192,60304,1,8,0:0:0:0:
256,192,60429,1,0,0:0:0:0:
256,192,60679,1,12,0:0:0:0:
256,192,60804,1,0,0:0:0:0:
256,192,60866,1,0,0:0:0:0:
256,192,60929,1,0,0:0:0:0:
256,192,61054,1,8,0:0:0:0:
256,192,61429,1,8,0:0:0:0:
256,192,61554,1,0,0:0:0:0:
256,192,61616,1,0,0:0:0:0:
256,192,61679,1,0,0:0:0:0:
256,192,61804,1,8,0:0:0:0:
256,192,61929,1,0,0:0:0:0:
256,192,62054,1,8,0:0:0:0:
256,192,62429,1,8,0:0:0:0:
256,192,62554,1,0,0:0:0:0:
256,192,62616,1,0,0:0:0:0:
256,192,62679,1,0,0:0:0:0:
256,192,62804,1,8,0:0:0:0:
256,192,62929,1,0,0:0:0:0:
256,192,63054,1,8,0:0:0:0:
256,192,63304,1,8,0:0:0:0:
256,192,63366,1,8,0:0:0:0:
256,192,63429,1,8,0:0:0:0:
256,192,63554,1,0,0:0:0:0:
256,192,63616,1,0,0:0:0:0:
256,192,63679,1,0,0:0:0:0:
256,192,63804,1,8,0:0:0:0:
256,192,63929,1,0,0:0:0:0:
256,192,64054,1,8,0:0:0:0:
256,192,64429,1,0,0:0:0:0:
256,192,64554,1,0,0:0:0:0:
256,192,64679,1,12,0:0:0:0:
256,192,64804,1,0,0:0:0:0:
256,192,64866,1,0,0:0:0:0:
256,192,64929,1,0,0:0:0:0:
256,192,65054,1,8,0:0:0:0:
256,192,65429,1,8,0:0:0:0:
256,192,65554,1,0,0:0:0:0:
256,192,65616,1,0,0:0:0:0:
256,192,65679,1,0,0:0:0:0:
256,192,65804,1,8,0:0:0:0:
256,192,65929,1,0,0:0:0:0:
256,192,66054,1,8,0:0:0:0:
256,192,66429,1,8,0:0:0:0:
256,192,66554,1,0,0:0:0:0:
256,192,66616,1,0,0:0:0:0:
256,192,66679,1,0,0:0:0:0:
256,192,66804,1,8,0:0:0:0:
256,192,66929,1,0,0:0:0:0:
256,192,67054,1,8,0:0:0:0:
256,192,67304,1,0,0:0:0:0:
256,192,67366,1,0,0:0:0:0:
256,192,67429,1,0,0:0:0:0:
256,192,67554,1,8,0:0:0:0:
256,192,67616,1,8,0:0:0:0:
256,192,67679,1,8,0:0:0:0:
256,192,67804,1,0,0:0:0:0:
256,192,67929,1,8,0:0:0:0:
256,192,68054,1,0,0:0:0:0:
256,192,68304,1,8,0:0:0:0:
256,192,68429,1,0,0:0:0:0:
256,192,68679,1,12,0:0:0:0:
256,192,69179,1,8,0:0:0:0:
256,192,69304,1,0,0:0:0:0:
256,192,69429,1,8,0:0:0:0:
256,192,69554,1,0,0:0:0:0:
256,192,69679,1,0,0:0:0:0:
256,192,69804,1,0,0:0:0:0:
256,192,69929,1,0,0:0:0:0:
256,192,70054,1,0,0:0:0:0:
256,192,70179,1,8,0:0:0:0:
256,192,70304,1,0,0:0:0:0:
256,192,70429,1,8,0:0:0:0:
256,192,70491,1,8,0:0:0:0:
256,192,70554,1,8,0:0:0:0:
256,192,70679,1,4,0:0:0:0:
256,192,71179,1,12,0:0:0:0:
256,192,71429,1,4,0:0:0:0:
256,192,71804,1,8,0:0:0:0:
256,192,71866,1,8,0:0:0:0:
