osu file format v14

[General]
AudioFilename: MELOVIN.mp3
AudioLeadIn: 0
PreviewTime: 40312
Countdown: 0
SampleSet: Soft
StackLeniency: 0.7
Mode: 0
LetterboxInBreaks: 0
WidescreenStoryboard: 1

[Editor]
DistanceSpacing: 1
BeatDivisor: 4
GridSize: 4
TimelineZoom: 1

[Metadata]
Title:Under The Ladder
TitleUnicode:Under The Ladder
Artist:MELOVIN
ArtistUnicode:MELOVIN
Creator:-Deer Lu-
Version:Easy
Source:
Tags:eurovision song contest 2018 ukraine
BeatmapID:1641849
BeatmapSetID:781811

[Difficulty]
HPDrainRate:2
CircleSize:2.4
OverallDifficulty:2
ApproachRate:3
SliderMultiplier:0.9
SliderTickRate:1

[Events]
//Background and Video events
0,0,"MELOVIN.jpg",0,0
Video,0,"MELOVIN - Under The Ladder.avi"
//Break Periods
2,140262,151399
//Storyboard Layer 0 (Background)
//Storyboard Layer 1 (Fail)
//Storyboard Layer 2 (Pass)
//Storyboard Layer 3 (Foreground)
//Storyboard Sound Samples

[TimingPoints]
14598,428.571428571429,4,2,1,100,1,0
42026,-100,4,2,1,100,0,1
69455,-100,4,2,1,100,0,0
96883,-100,4,2,1,100,0,1
124312,-100,4,2,1,100,0,0
152839,428.571428571429,4,2,1,100,1,0
154821,428.571428571429,4,2,1,100,1,0
154821,-100,4,2,1,100,0,1
181821,-100,4,2,1,100,0,0

[Colours]
Combo1 : 255,255,255
Combo2 : 128,0,64
Combo3 : 64,128,128
Combo4 : 135,16,31
SliderBorder : 255,130,142

[HitObjects]
104,288,14597,5,4,0:0:0:0:
160,224,15026,2,0,P|200:224|256:232,1,90
320,280,15883,1,0,0:0:0:0:
384,336,16312,2,0,P|416:336|488:328,1,90
496,248,17169,2,0,P|440:248|400:256,1,90
328,216,18026,2,0,B|288:96|288:96|312:40,1,180,8|0,0:0|0:0,0:0:0:0:
120,32,19740,6,0,P|72:40|16:56,1,90,8|0,0:0|0:0,0:0:0:0:
56,136,20598,2,0,P|112:128|160:112,1,90
224,152,21455,1,4,0:0:0:0:
304,112,21883,1,0,0:0:0:0:
376,160,22312,2,0,L|384:264,1,90
328,320,23169,38,0,B|272:336|272:336|224:328,1,90
168,272,24026,2,0,B|176:224|176:224|160:168,1,90
112,112,24883,2,0,B|168:96|168:96|224:104|224:104|288:88,1,180,8|0,0:0|0:0,0:0:0:0:
384,240,26598,2,0,P|376:272|368:336,1,90,8|0,0:0|0:0,0:0:0:0:
280,344,27455,2,0,P|272:304|256:256,1,90
192,192,28312,6,0,L|48:208,2,135,4|0|0,0:0|0:0|0:0,0:0:0:0:
240,200,29812,2,0,P|240:176|224:112,1,90
200,72,30455,1,0,0:0:0:0:
280,32,30883,2,0,P|312:32|384:40,1,90
416,120,31740,38,0,P|368:128|280:120,2,135,4|0|0,0:0|0:0|0:0,0:0:0:0:
456,104,33240,2,0,B|480:160|480:160|472:200,1,90
464,232,33883,1,0,0:0:0:0:
408,296,34312,2,0,L|304:288,1,90
240,344,35169,6,0,L|136:336,1,90,4|0,0:0|0:0,0:0:0:0:
72,296,36026,1,0,0:0:0:0:
120,224,36455,1,0,0:0:0:0:
64,160,36883,2,0,P|64:128|72:56,1,90
160,64,37740,2,0,P|168:104|168:168,1,90
224,224,38598,2,0,P|200:248|304:248,1,270,4|0,0:0|0:0,0:0:0:0:
296,168,40312,1,4,0:0:0:0:
296,168,42026,5,4,0:0:0:0:
216,136,42455,2,0,P|152:136|32:192,1,180,2|2,0:0|0:0,0:0:0:0:
104,248,43740,2,0,L|120:344,1,90,0|2,0:0|0:0,0:0:0:0:
208,344,44598,2,0,L|216:240,1,90,0|2,0:0|0:0,0:0:0:0:
256,176,45455,1,4,0:0:0:0:
328,232,45883,6,0,B|456:232|456:232|496:184,1,180,2|2,0:0|0:0,0:0:0:0:
432,128,47169,1,0,0:0:0:0:
352,96,47598,2,0,P|312:96|248:112,1,90,2|0,0:0|0:0,0:0:0:0:
200,168,48455,2,0,P|160:168|112:152,1,90,2|4,0:0|0:0,0:0:0:0:
48,216,49312,38,0,P|112:272|160:352,1,180,2|2,0:0|0:0,0:0:0:0:
240,312,50598,1,0,0:0:0:0:
320,344,51026,2,0,L|424:336,1,90,2|0,0:0|0:0,0:0:0:0:
400,248,51883,2,0,L|296:256,1,90,2|4,0:0|0:0,0:0:0:0:
232,208,52740,6,0,B|280:136|280:136|216:48,1,180,2|2,0:0|0:0,0:0:0:0:
144,16,54026,1,0,0:0:0:0:
96,96,54455,2,0,L|0:88,2,90,2|0|2,0:0|0:0|0:0,0:0:0:0:
144,168,55740,1,4,0:0:0:0:
216,216,56169,38,0,L|400:200,1,180,2|2,0:0|0:0,0:0:0:0:
448,272,57455,2,0,P|432:296|408:360,1,90,0|2,0:0|0:0,0:0:0:0:
320,360,58312,2,0,P|312:328|288:264,1,90,0|2,0:0|0:0,0:0:0:0:
216,224,59169,2,0,B|128:256|128:256|32:208,1,180,4|0,0:0|0:0,0:0:0:0:
40,128,60455,2,0,B|96:120|96:120|160:128|160:128|232:120,1,180,2|2,0:0|0:0,0:0:0:0:
296,80,61740,1,0,0:0:0:0:
368,128,62169,1,2,0:0:0:0:
312,200,62598,6,0,L|296:304,1,90,0|2,0:0|0:0,0:0:0:0:
224,336,63455,2,0,P|184:336|120:344,1,90,0|2,0:0|0:0,0:0:0:0:
120,256,64312,2,0,P|160:256|224:240,1,90,0|2,0:0|0:0,0:0:0:0:
264,176,65169,2,0,B|272:136|272:136|256:72,1,90,0|2,0:0|0:0,0:0:0:0:
200,24,66026,2,0,P|168:24|24:64,1,180,4|0,0:0|0:0,0:0:0:0:
48,152,67312,38,0,P|96:152|224:120,1,180,2|2,0:0|0:0,0:0:0:0:
296,72,68598,1,0,0:0:0:0:
376,112,69026,1,2,0:0:0:0:
432,184,69455,22,0,B|416:232|416:232|432:280,1,90,4|0,0:0|0:0,0:0:0:0:
456,352,70312,1,0,0:0:0:0:
368,336,70740,1,0,0:0:0:0:
280,352,71169,2,0,B|232:360|232:360|176:344,1,90
136,280,72026,2,0,P|128:240|112:176,1,90
88,104,72883,6,0,B|144:88|144:88|272:112,1,180
320,176,74169,1,0,0:0:0:0:
392,128,74598,2,0,L|488:120,1,90
488,208,75455,2,0,L|392:216,1,90
320,264,76312,37,4,0:0:0:0:
256,320,76740,1,0,0:0:0:0:
176,280,77169,2,0,P|136:280|72:288,1,90
80,200,78026,2,0,P|128:196|176:184,1,90
252,156,78883,2,0,B|256:112|256:112|244:60,1,90
324,24,79740,6,0,L|364:200,1,180
444,240,81026,1,0,0:0:0:0:
388,308,81455,2,0,L|296:304,1,90
216,340,82312,2,0,L|124:344,1,90
60,284,83169,38,0,B|24:224|24:224|48:144,2,135,4|0|0,0:0|0:0|0:0,0:0:0:0:
104,292,84669,2,0,P|136:288|208:292,1,90
232,312,85312,1,0,0:0:0:0:
312,348,85740,2,0,P|344:344|400:328,1,90
448,252,86598,6,0,P|460:200|460:104,2,135,4|0|0,0:0|0:0|0:0,0:0:0:0:
408,276,88098,2,0,L|312:272,1,90
276,292,88740,1,0,0:0:0:0:
216,228,89169,2,0,P|208:192|184:136,1,90
108,100,90026,38,0,P|92:140|80:192,1,90,4|0,0:0|0:0,0:0:0:0:
40,264,90883,1,0,0:0:0:0:
92,336,91312,1,0,0:0:0:0:
176,308,91740,2,0,B|220:304|220:304|280:316,1,90
348,344,92598,2,0,B|408:344|408:344|452:324,1,90
480,196,93455,6,0,B|412:176|348:204|348:204|288:232|204:196,1,270,4|0,0:0|0:0,0:0:0:0:
148,140,95169,1,4,0:0:0:0:
148,140,96883,5,4,0:0:0:0:
220,88,97312,2,0,B|272:72|272:72|336:72|336:72|404:56,1,180,2|2,0:0|0:0,0:0:0:0:
464,116,98598,2,0,L|452:212,1,90,0|2,0:0|0:0,0:0:0:0:
364,216,99455,2,0,L|348:120,1,90,0|2,0:0|0:0,0:0:0:0:
268,92,100312,1,4,0:0:0:0:
192,144,100740,6,0,B|128:164|128:164|8:136,1,180,2|2,0:0|0:0,0:0:0:0:
56,56,102026,1,0,0:0:0:0:
140,24,102455,2,0,L|244:16,1,90,2|0,0:0|0:0,0:0:0:0:
304,64,103312,2,0,L|400:56,1,90,2|4,0:0|0:0,0:0:0:0:
460,116,104169,38,0,P|432:164|408:288,1,180,2|2,0:0|0:0,0:0:0:0:
340,344,105455,1,0,0:0:0:0:
252,332,105883,2,0,P|204:332|152:336,1,90,2|0,0:0|0:0,0:0:0:0:
104,268,106740,2,0,B|112:216|112:216|96:160,1,90,2|4,0:0|0:0,0:0:0:0:
76,92,107598,6,0,B|124:76|160:96|160:96|200:112|260:92,1,180,2|2,0:0|0:0,0:0:0:0:
324,44,108883,1,0,0:0:0:0:
396,96,109312,2,0,L|416:192,1,90,2|0,0:0|0:0,0:0:0:0:
344,240,110169,2,0,L|336:340,1,90,2|4,0:0|0:0,0:0:0:0:
248,344,111026,38,0,B|200:328|200:328|64:348,1,180,2|2,0:0|0:0,0:0:0:0:
52,260,112312,2,0,L|156:248,1,90,0|2,0:0|0:0,0:0:0:0:
204,184,113169,2,0,L|308:192,1,90,0|2,0:0|0:0,0:0:0:0:
376,228,114026,2,0,P|388:196|368:52,1,180,4|0,0:0|0:0,0:0:0:0:
280,44,115312,2,0,L|96:64,1,180,2|2,0:0|0:0,0:0:0:0:
32,124,116598,1,0,0:0:0:0:
76,200,117026,1,2,0:0:0:0:
24,272,117455,6,0,P|32:304|40:364,1,90,0|2,0:0|0:0,0:0:0:0:
128,360,118312,2,0,P|128:328|144:256,1,90,0|2,0:0|0:0,0:0:0:0:
220,236,119169,2,0,L|320:232,1,90,0|2,0:0|0:0,0:0:0:0:
348,152,120026,2,0,L|452:148,1,90,0|2,0:0|0:0,0:0:0:0:
472,64,120883,38,0,B|420:52|420:52|348:64|348:64|288:52,1,180,4|0,0:0|0:0,0:0:0:0:
224,108,122169,2,0,B|252:224|252:224|216:292,1,180,2|2,0:0|0:0,0:0:0:0:
268,356,123455,1,0,0:0:0:0:
340,300,123883,1,2,0:0:0:0:
412,352,124312,22,0,L|512:340,2,90,0|2|0,0:0|0:0|0:0,0:0:0:0:
340,300,125598,1,2,0:0:0:0:
276,240,126026,2,0,L|184:248,2,90,0|2|0,0:0|0:0|0:0,0:0:0:0:
324,164,127312,1,2,0:0:0:0:
396,108,127740,2,0,P|404:68|400:12,2,90,0|2|0,0:0|0:0|0:0,0:0:0:0:
324,164,129026,1,2,0:0:0:0:
248,212,129455,2,0,P|240:248|244:308,2,90,0|2|0,0:0|0:0|0:0,0:0:0:0:
96,112,131169,6,0,B|104:72|104:72|88:16,2,90,0|2|0,0:0|0:0|0:0,0:0:0:0:
32,176,132455,1,2,0:0:0:0:
96,236,132883,2,0,B|80:280|80:280|88:332,2,90,0|2|0,0:0|0:0|0:0,0:0:0:0:
172,188,134169,1,2,0:0:0:0:
248,236,134598,2,0,P|272:236|340:224,2,90,0|2|0,0:0|0:0|0:0,0:0:0:0:
180,292,135883,1,2,0:0:0:0:
244,356,136312,1,0,0:0:0:0:
256,192,136526,12,8,140062,0:0:0:0:
84,324,152839,38,4,P|84:284|68:216,1,90
52,196,153481,1,4,0:0:0:0:
76,160,153696,2,4,P|116:156|216:176,1,135,4|4,0:0|0:0,0:0:0:0:
276,248,154821,21,4,0:0:0:0:
352,200,155249,2,0,B|392:124|392:124|332:36,1,180,2|2,0:0|0:0,0:0:0:0:
252,76,156535,2,0,L|144:88,1,90,0|2,0:0|0:0,0:0:0:0:
168,176,157392,2,0,L|268:172,1,90,0|2,0:0|0:0,0:0:0:0:
324,232,158249,1,4,0:0:0:0:
264,296,158678,6,0,P|220:296|88:332,1,180,2|2,0:0|0:0,0:0:0:0:
32,264,159963,1,0,0:0:0:0:
80,188,160392,2,0,B|88:152|88:152|72:92,1,90,2|0,0:0|0:0,0:0:0:0:
132,32,161249,2,0,P|164:36|228:56,1,90,2|4,0:0|0:0,0:0:0:0:
264,132,162106,38,0,L|448:120,1,180,2|2,0:0|0:0,0:0:0:0:
492,196,163392,1,0,0:0:0:0:
436,264,163821,2,0,P|420:292|400:352,1,90,2|0,0:0|0:0,0:0:0:0:
312,356,164678,2,0,P|308:328|284:260,1,90,2|4,0:0|0:0,0:0:0:0:
224,208,165535,6,0,B|136:184|136:184|36:220,1,180,2|2,0:0|0:0,0:0:0:0:
28,300,166821,1,0,0:0:0:0:
108,340,167249,2,0,P|140:340|204:328,1,90,2|0,0:0|0:0,0:0:0:0:
288,344,168106,2,0,P|328:344|392:356,1,90,2|4,0:0|0:0,0:0:0:0:
448,296,168963,38,0,L|468:116,1,180,2|2,0:0|0:0,0:0:0:0:
400,60,170249,2,0,B|352:52|352:52|296:68,1,90,0|2,0:0|0:0,0:0:0:0:
240,116,171106,2,0,L|148:112,1,90,0|2,0:0|0:0,0:0:0:0:
68,148,171963,2,0,B|100:268|100:268|64:324,1,180,4|0,0:0|0:0,0:0:0:0:
148,364,173249,2,0,B|204:348|204:348|336:364,1,180,2|2,0:0|0:0,0:0:0:0:
400,312,174535,1,0,0:0:0:0:
432,228,174963,1,2,0:0:0:0:
372,164,175392,6,0,P|332:164|276:176,1,90,0|2,0:0|0:0,0:0:0:0:
224,240,176249,2,0,P|188:240|132:232,1,90,0|2,0:0|0:0,0:0:0:0:
80,160,177106,2,0,P|72:120|56:64,1,90,0|2,0:0|0:0,0:0:0:0:
128,16,177963,2,0,P|156:20|220:40,1,90,0|2,0:0|0:0,0:0:0:0:
256,116,178821,2,0,P|292:120|444:100,1,180,4|0,0:0|0:0,0:0:0:0:
484,176,180106,2,0,B|456:232|456:232|460:296|460:296|436:352,1,180,2|2,0:0|0:0,0:0:0:0:
352,324,181392,1,0,0:0:0:0:
268,352,181821,1,2,0:0:0:0:
244,264,182249,6,0,B|252:228|252:228|240:168,2,90,0|2|0,0:0|0:0|0:0,0:0:0:0:
168,312,183535,1,2,0:0:0:0:
92,268,183963,2,0,P|68:264|-4:264,2,90,0|2|0,0:0|0:0|0:0,0:0:0:0:
160,208,185249,1,2,0:0:0:0:
228,152,185678,2,0,P|224:112|224:56,2,90,0|2|0,0:0|0:0|0:0,0:0:0:0:
292,212,186963,5,2,0:0:0:0:
352,276,187392,2,4,P|408:280|484:320,1,135
