osu file format v14

[General]
AudioFilename: audio.mp3
AudioLeadIn: 0
PreviewTime: -1
Countdown: 1
SampleSet: Normal
StackLeniency: 0.7
Mode: 1
LetterboxInBreaks: 0
WidescreenStoryboard: 1

[Editor]
DistanceSpacing: 0.6
BeatDivisor: 4
GridSize: 4
TimelineZoom: 2.000001

[Metadata]
Title:Press Start
TitleUnicode:Press Start
Artist:MDK
ArtistUnicode:MDK
Creator:uone
Version:START(short)
Source:
Tags:electro electronic glitch hop wubstep
BeatmapID:1170748
BeatmapSetID:552867

[Difficulty]
HPDrainRate:6
CircleSize:6
OverallDifficulty:6
ApproachRate:6
SliderMultiplier:1.4
SliderTickRate:1

[Events]
//Background and Video events
0,0,"ewhtr.png",0,0
//Break Periods
//Storyboard Layer 0 (Background)
//Storyboard Layer 1 (Fail)
//Storyboard Layer 2 (Pass)
//Storyboard Layer 3 (Foreground)
//Storyboard Sound Samples

[TimingPoints]
3,243.90243902439,4,1,0,100,1,0
3,-200,4,1,0,100,0,0
8783,-117.647058823529,4,1,0,100,0,0
14637,-100,4,1,0,100,0,0
30490,-117.647058823529,4,1,0,100,0,0
31466,-100,4,1,0,100,0,0
32198,-95.2380952380952,4,1,0,100,0,0
46100,-111.111111111111,4,1,0,100,0,0
48051,-117.647058823529,4,1,0,100,0,0
53783,-116.279069767442,4,1,0,100,0,0
53905,-113.636363636364,4,1,0,100,0,0
54027,-111.111111111111,4,1,0,100,0,0
54149,-108.695652173913,4,1,0,100,0,0
54271,-106.382978723404,4,1,0,100,0,0
54393,-104.166666666667,4,1,0,100,0,0
54515,-102.040816326531,4,1,0,100,0,0
54637,-66.6666666666667,4,1,0,100,0,0
55124,-71.4285714285714,4,1,0,100,0,0
55185,-74.0740740740741,4,1,0,100,0,0
55246,-76.9230769230769,4,1,0,100,0,0
55307,-80,4,1,0,100,0,0
55307,-83.3333333333333,4,1,0,100,0,0
55368,-86.9565217391304,4,1,0,100,0,0
55429,-90.9090909090909,4,1,0,100,0,0
55490,-95.2380952380952,4,1,0,100,0,0
55612,-100,4,1,0,100,0,0
56344,-90.9090909090909,4,1,0,100,0,0
57320,-83.3333333333333,4,1,0,100,0,0
58295,-76.9230769230769,4,1,0,100,0,0
59027,-76.9230769230769,4,1,0,100,0,0
59149,-80,4,1,0,100,0,0
59271,-83.3333333333333,4,1,0,100,0,0
59393,-86.9565217391304,4,1,0,100,0,0
59515,-100,4,1,0,100,0,0
60002,-90.9090909090909,4,1,0,100,0,0
60490,-83.3333333333333,4,1,0,100,0,0
60978,-76.9230769230769,4,1,0,100,0,0
61466,-71.4285714285714,4,1,0,100,0,0
62442,-66.6666666666667,4,1,0,100,0,0
62929,-50,4,1,0,100,0,0
63417,-95.2380952380952,4,1,0,100,0,1
70246,-94.3396226415094,4,1,0,100,0,1
70328,-92.5925925925926,4,1,0,100,0,1
70409,-90.9090909090909,4,1,0,100,0,1
70490,-89.2857142857143,4,1,0,100,0,1
70572,-87.719298245614,4,1,0,100,0,1
70653,-86.2068965517241,4,1,0,100,0,1
70734,-84.7457627118644,4,1,0,100,0,1
70816,-83.3333333333333,4,1,0,100,0,1
70897,-81.9672131147541,4,1,0,100,0,1
70978,-80.6451612903226,4,1,0,100,0,1
71059,-79.3650793650794,4,1,0,100,0,1
71141,-78.125,4,1,0,100,0,1
71222,-76.9230769230769,4,1,0,100,0,1
71466,-95.2380952380952,4,1,0,100,0,1
74271,-100,4,1,0,100,0,1
74393,-105.263157894737,4,1,0,100,0,1
74515,-111.111111111111,4,1,0,100,0,1
74637,-117.647058823529,4,1,0,100,0,1
74759,-125,4,1,0,100,0,1
74881,-133.333333333333,4,1,0,100,0,1
75002,-142.857142857143,4,1,0,100,0,1
75124,-133.333333333333,4,1,0,100,0,1
75206,-117.647058823529,4,1,0,100,0,1
75287,-105.263157894737,4,1,0,100,0,1
75368,-95.2380952380952,4,1,0,100,0,1
75612,-83.3333333333333,4,1,0,100,0,1
75673,-84.0336134453781,4,1,0,100,0,1
75734,-84.7457627118644,4,1,0,100,0,1
75795,-85.4700854700855,4,1,0,100,0,1
75856,-86.2068965517241,4,1,0,100,0,1
75917,-86.9565217391304,4,1,0,100,0,1
75978,-87.719298245614,4,1,0,100,0,1
76039,-88.4955752212389,4,1,0,100,0,1
76100,-89.2857142857143,4,1,0,100,0,1
76161,-90.0900900900901,4,1,0,100,0,1
76222,-90.9090909090909,4,1,0,100,0,1
76283,-91.743119266055,4,1,0,100,0,1
76344,-92.5925925925926,4,1,0,100,0,1
76405,-93.4579439252336,4,1,0,100,0,1
76466,-94.3396226415094,4,1,0,100,0,1
76527,-95.2380952380952,4,1,0,100,0,1
76588,-96.1538461538461,4,1,0,100,0,1
76649,-97.0873786407767,4,1,0,100,0,1
76710,-98.0392156862745,4,1,0,100,0,1
76771,-99.009900990099,4,1,0,100,0,1
76832,-100,4,1,0,100,0,1
76893,-101.010101010101,4,1,0,100,0,1
76954,-102.040816326531,4,1,0,100,0,1
77015,-103.092783505155,4,1,0,100,0,1
77076,-104.166666666667,4,1,0,100,0,0
77320,-133.333333333333,4,1,0,100,0,0
78539,-100,4,1,0,100,0,0
78783,-76.9230769230769,4,1,0,100,0,0
79027,-95.2380952380952,4,1,0,100,0,1
85368,-94.3396226415094,4,1,0,100,0,1
85429,-93.4579439252336,4,1,0,100,0,1
85490,-92.5925925925926,4,1,0,100,0,1
85551,-91.743119266055,4,1,0,100,0,1
85612,-90.9090909090909,4,1,0,100,0,1
85673,-90.0900900900901,4,1,0,100,0,1
85734,-89.2857142857143,4,1,0,100,0,1
85795,-88.4955752212389,4,1,0,100,0,1
85856,-87.719298245614,4,1,0,100,0,1
85917,-86.9565217391304,4,1,0,100,0,1
85978,-86.2068965517241,4,1,0,100,0,1
86039,-85.4700854700855,4,1,0,100,0,1
86100,-84.7457627118644,4,1,0,100,0,1
86161,-84.0336134453781,4,1,0,100,0,1
86222,-83.3333333333333,4,1,0,100,0,1
86283,-82.6446280991736,4,1,0,100,0,1
86283,-83.3333333333333,4,1,0,100,0,1
86344,-81.3008130081301,4,1,0,100,0,1
86405,-80,4,1,0,100,0,1
86466,-78.7401574803149,4,1,0,100,0,1
86527,-77.5193798449612,4,1,0,100,0,1
86588,-76.3358778625954,4,1,0,100,0,1
86649,-75.187969924812,4,1,0,100,0,1
86710,-74.0740740740741,4,1,0,100,0,1
86771,-72.992700729927,4,1,0,100,0,1
86832,-71.9424460431655,4,1,0,100,0,1
87076,-95.2380952380952,4,1,0,100,0,1
89881,-100,4,1,0,100,0,1
90002,-105.263157894737,4,1,0,100,0,1
90124,-111.111111111111,4,1,0,100,0,1
90246,-117.647058823529,4,1,0,100,0,1
90368,-125,4,1,0,100,0,1
90490,-133.333333333333,4,1,0,100,0,1
90612,-142.857142857143,4,1,0,100,0,1
90734,-86.9565217391304,4,1,0,100,0,1
91222,-83.3333333333333,4,1,0,100,0,1
91283,-84.0336134453781,4,1,0,100,0,1
91344,-84.7457627118644,4,1,0,100,0,1
91405,-85.4700854700855,4,1,0,100,0,1
91466,-86.2068965517241,4,1,0,100,0,1
91527,-86.9565217391304,4,1,0,100,0,1
91588,-87.719298245614,4,1,0,100,0,1
91649,-88.4955752212389,4,1,0,100,0,1
91710,-89.2857142857143,4,1,0,100,0,1
91771,-90.0900900900901,4,1,0,100,0,1
91832,-90.9090909090909,4,1,0,100,0,1
91893,-91.743119266055,4,1,0,100,0,1
91954,-92.5925925925926,4,1,0,100,0,1
92015,-93.4579439252336,4,1,0,100,0,1
92076,-94.3396226415094,4,1,0,100,0,1
92137,-95.2380952380952,4,1,0,100,0,1
92198,-96.1538461538461,4,1,0,100,0,1
92259,-97.0873786407767,4,1,0,100,0,1
92320,-98.0392156862745,4,1,0,100,0,1
92381,-99.009900990099,4,1,0,100,0,1
92442,-100,4,1,0,100,0,1
92502,-101.010101010101,4,1,0,100,0,1
92563,-102.040816326531,4,1,0,100,0,1
92624,-103.092783505155,4,1,0,100,0,1
92685,-104.166666666667,4,1,0,100,0,0
92929,-133.333333333333,4,1,0,100,0,0
94149,-142.857142857143,4,1,0,100,0,0
94271,-153.846153846154,4,1,0,100,0,0
94393,-166.666666666667,4,1,0,100,0,0
94515,-181.818181818182,4,1,0,100,0,0
94637,-200,4,1,0,100,0,0
108783,-181.818181818182,4,1,0,100,0,0
108905,-166.666666666667,4,1,0,100,0,0
109027,-153.846153846153,4,1,0,100,0,0
109149,-142.857142857143,4,1,0,100,0,0
109271,-133.333333333333,4,1,0,100,0,0
109759,-100,4,1,0,100,0,0
110002,-66.6666666666667,4,1,0,100,0,0

[HitObjects]
256,192,978,5,0,0:0:0:0:
256,192,2929,1,0,0:0:0:0:
256,192,3905,1,2,0:0:0:0:
256,192,4881,1,0,0:0:0:0:
256,192,6832,1,0,0:0:0:0:
256,192,7807,1,0,0:0:0:0:
256,192,7929,1,0,0:0:0:0:
256,192,8051,1,2,0:0:0:0:
256,192,8295,1,0,0:0:0:0:
256,192,8539,1,0,0:0:0:0:
256,192,8783,1,0,0:0:0:0:
256,192,9027,1,0,0:0:0:0:
256,192,9271,1,2,0:0:0:0:
256,192,9515,1,0,0:0:0:0:
256,192,9637,1,2,0:0:0:0:
256,192,9759,1,0,0:0:0:0:
256,192,9881,1,2,0:0:0:0:
256,192,10002,1,0,0:0:0:0:
256,192,10124,1,0,0:0:0:0:
256,192,10246,1,2,0:0:0:0:
256,192,10490,1,0,0:0:0:0:
256,192,10612,1,0,0:0:0:0:
256,192,10734,1,0,0:0:0:0:
256,192,10978,1,0,0:0:0:0:
256,192,11222,1,2,0:0:0:0:
256,192,11466,1,0,0:0:0:0:
256,192,11588,1,0,0:0:0:0:
256,192,11710,1,0,0:0:0:0:
256,192,11832,1,2,0:0:0:0:
256,192,11954,1,0,0:0:0:0:
256,192,12076,1,0,0:0:0:0:
256,192,12198,1,2,0:0:0:0:
256,192,12442,1,2,0:0:0:0:
256,192,12563,1,2,0:0:0:0:
256,192,12685,1,0,0:0:0:0:
256,192,12929,1,0,0:0:0:0:
256,192,13112,1,0,0:0:0:0:
256,192,13173,1,2,0:0:0:0:
256,192,13417,1,0,0:0:0:0:
256,192,13539,1,2,0:0:0:0:
256,192,13661,1,0,0:0:0:0:
256,192,13783,1,2,0:0:0:0:
256,192,13905,1,0,0:0:0:0:
256,192,14027,1,0,0:0:0:0:
256,192,14149,1,2,0:0:0:0:
256,192,14271,1,0,0:0:0:0:
256,192,14393,1,2,0:0:0:0:
256,192,14515,1,2,0:0:0:0:
256,192,14637,1,0,0:0:0:0:
256,192,14759,1,0,0:0:0:0:
256,192,14881,1,2,0:0:0:0:
256,192,15002,1,0,0:0:0:0:
256,192,15063,1,0,0:0:0:0:
256,192,15124,1,0,0:0:0:0:
256,192,15246,1,0,0:0:0:0:
256,192,15368,1,2,0:0:0:0:
256,192,15490,1,0,0:0:0:0:
256,192,15551,1,0,0:0:0:0:
256,192,15612,1,0,0:0:0:0:
256,192,15694,1,0,0:0:0:0:
256,192,15775,1,0,0:0:0:0:
256,192,15856,1,2,0:0:0:0:
256,192,15937,1,0,0:0:0:0:
256,192,16019,1,2,0:0:0:0:
256,192,16100,1,0,0:0:0:0:
256,192,16161,1,0,0:0:0:0:
256,192,16222,1,0,0:0:0:0:
256,192,16283,1,0,0:0:0:0:
256,192,16344,1,2,0:0:0:0:
256,192,16385,1,0,0:0:0:0:
256,192,16425,1,0,0:0:0:0:
256,192,16466,1,2,0:0:0:0:
256,192,16527,1,2,0:0:0:0:
256,192,16588,1,0,0:0:0:0:
256,192,16832,1,0,0:0:0:0:
256,192,17076,1,2,0:0:0:0:
256,192,17320,1,0,0:0:0:0:
256,192,17442,1,0,0:0:0:0:
256,192,17563,1,0,0:0:0:0:
256,192,17685,1,2,0:0:0:0:
256,192,17807,1,0,0:0:0:0:
256,192,17929,1,2,0:0:0:0:
256,192,18051,1,0,0:0:0:0:
256,192,18173,1,0,0:0:0:0:
256,192,18295,1,2,0:0:0:0:
256,192,18417,1,2,0:0:0:0:
256,192,18539,1,0,0:0:0:0:
256,192,18783,1,0,0:0:0:0:
256,192,18844,1,0,0:0:0:0:
256,192,18905,1,0,0:0:0:0:
256,192,18966,1,0,0:0:0:0:
256,192,19027,1,0,0:0:0:0:
256,192,19149,1,0,0:0:0:0:
256,192,19271,1,0,0:0:0:0:
256,192,19332,1,0,0:0:0:0:
256,192,19393,1,0,0:0:0:0:
256,192,19454,1,0,0:0:0:0:
256,192,19515,1,0,0:0:0:0:
256,192,19759,1,0,0:0:0:0:
256,192,19881,1,2,0:0:0:0:
256,192,20002,1,0,0:0:0:0:
256,192,20124,1,0,0:0:0:0:
256,192,20246,1,2,0:0:0:0:
256,192,20368,1,0,0:0:0:0:
256,192,20490,1,4,0:0:0:0:
256,192,20734,1,2,0:0:0:0:
256,192,20978,1,0,0:0:0:0:
256,192,21222,1,2,0:0:0:0:
256,192,21466,1,2,0:0:0:0:
256,192,21496,1,2,0:0:0:0:
256,192,21588,1,2,0:0:0:0:
256,192,21618,1,2,0:0:0:0:
256,192,21710,1,0,0:0:0:0:
256,192,21740,1,0,0:0:0:0:
256,192,21832,1,0,0:0:0:0:
256,192,21862,1,0,0:0:0:0:
256,192,21954,1,2,0:0:0:0:
256,192,21984,1,2,0:0:0:0:
256,192,22076,1,2,0:0:0:0:
256,192,22106,1,2,0:0:0:0:
256,192,22198,1,0,0:0:0:0:
256,192,22228,1,0,0:0:0:0:
256,192,22320,1,0,0:0:0:0:
256,192,22350,1,0,0:0:0:0:
256,192,22442,1,0,0:0:0:0:
256,192,22685,1,0,0:0:0:0:
256,192,22746,1,0,0:0:0:0:
256,192,22807,1,0,0:0:0:0:
256,192,22868,1,0,0:0:0:0:
256,192,22929,1,0,0:0:0:0:
256,192,23051,1,0,0:0:0:0:
256,192,23173,1,0,0:0:0:0:
256,192,23234,1,0,0:0:0:0:
256,192,23295,1,0,0:0:0:0:
256,192,23356,1,0,0:0:0:0:
256,192,23417,1,0,0:0:0:0:
256,192,23539,1,0,0:0:0:0:
256,192,23600,1,0,0:0:0:0:
256,192,23661,1,2,0:0:0:0:
256,192,23722,1,2,0:0:0:0:
256,192,23783,1,2,0:0:0:0:
256,192,23844,1,2,0:0:0:0:
256,192,23905,1,0,0:0:0:0:
256,192,23946,1,0,0:0:0:0:
256,192,23986,1,0,0:0:0:0:
256,192,24027,1,0,0:0:0:0:
256,192,24149,1,2,0:0:0:0:
256,192,24271,1,0,0:0:0:0:
256,192,24393,1,4,0:0:0:0:
256,192,24637,1,0,0:0:0:0:
256,192,24881,1,2,0:0:0:0:
256,192,25124,1,0,0:0:0:0:
256,192,25246,1,2,0:0:0:0:
256,192,25368,1,0,0:0:0:0:
256,192,25490,1,2,0:0:0:0:
256,192,25612,1,0,0:0:0:0:
256,192,25734,1,2,0:0:0:0:
256,192,25856,1,0,0:0:0:0:
256,192,25978,1,2,0:0:0:0:
256,192,26100,1,2,0:0:0:0:
256,192,26222,1,2,0:0:0:0:
256,192,26344,1,0,0:0:0:0:
256,192,26588,1,0,0:0:0:0:
256,192,26649,1,0,0:0:0:0:
256,192,26710,1,0,0:0:0:0:
256,192,26771,1,0,0:0:0:0:
256,192,26832,1,0,0:0:0:0:
256,192,26954,1,0,0:0:0:0:
256,192,27076,1,0,0:0:0:0:
256,192,27137,1,0,0:0:0:0:
256,192,27198,1,0,0:0:0:0:
256,192,27259,1,0,0:0:0:0:
256,192,27320,1,0,0:0:0:0:
256,192,27563,1,0,0:0:0:0:
256,192,27685,1,2,0:0:0:0:
256,192,27807,1,0,0:0:0:0:
256,192,27929,1,0,0:0:0:0:
256,192,28051,1,2,0:0:0:0:
256,192,28173,1,2,0:0:0:0:
256,192,28295,1,4,0:0:0:0:
256,192,28539,1,0,0:0:0:0:
256,192,28783,1,0,0:0:0:0:
256,192,28905,1,0,0:0:0:0:
256,192,28966,1,0,0:0:0:0:
256,192,29027,1,0,0:0:0:0:
256,192,29149,1,0,0:0:0:0:
256,192,29271,1,0,0:0:0:0:
256,192,29393,1,2,0:0:0:0:
256,192,29423,1,2,0:0:0:0:
256,192,29515,1,2,0:0:0:0:
256,192,29545,1,2,0:0:0:0:
256,192,29637,1,2,0:0:0:0:
256,192,29667,1,2,0:0:0:0:
256,192,29759,1,0,0:0:0:0:
256,192,29881,1,2,0:0:0:0:
256,192,29911,1,2,0:0:0:0:
256,192,30002,1,0,0:0:0:0:
256,192,30033,1,0,0:0:0:0:
256,192,30124,1,0,0:0:0:0:
256,192,30155,1,0,0:0:0:0:
256,192,30247,1,0,0:0:0:0:
256,192,30490,1,2,0:0:0:0:
256,192,30612,1,0,0:0:0:0:
256,192,30856,1,2,0:0:0:0:
256,192,30978,1,0,0:0:0:0:
256,192,31222,1,0,0:0:0:0:
256,192,31344,1,0,0:0:0:0:
256,192,31466,1,2,0:0:0:0:
256,192,31527,1,2,0:0:0:0:
256,192,31588,1,2,0:0:0:0:
256,192,31649,1,2,0:0:0:0:
256,192,31710,1,2,0:0:0:0:
256,192,31771,1,0,0:0:0:0:
256,192,31832,1,0,0:0:0:0:
256,192,31893,1,0,0:0:0:0:
256,192,31954,1,0,0:0:0:0:
256,192,31994,1,0,0:0:0:0:
256,192,32035,1,0,0:0:0:0:
256,192,32076,1,2,0:0:0:0:
256,192,32198,1,4,0:0:0:0:
256,192,32442,1,0,0:0:0:0:
256,192,32685,1,2,0:0:0:0:
256,192,32929,1,0,0:0:0:0:
256,192,33051,1,0,0:0:0:0:
256,192,33173,1,0,0:0:0:0:
256,192,33295,1,2,0:0:0:0:
256,192,33417,1,0,0:0:0:0:
256,192,33539,1,2,0:0:0:0:
256,192,33661,1,0,0:0:0:0:
256,192,33783,1,0,0:0:0:0:
256,192,33905,1,2,0:0:0:0:
256,192,34027,1,2,0:0:0:0:
256,192,34149,1,0,0:0:0:0:
256,192,34393,1,2,0:0:0:0:
256,192,34454,1,2,0:0:0:0:
256,192,34515,1,2,0:0:0:0:
256,192,34576,1,2,0:0:0:0:
256,192,34637,1,0,0:0:0:0:
256,192,34759,1,0,0:0:0:0:
256,192,34881,1,2,0:0:0:0:
256,192,34942,1,0,0:0:0:0:
256,192,35002,1,0,0:0:0:0:
256,192,35063,1,0,0:0:0:0:
256,192,35124,1,2,0:0:0:0:
256,192,35368,1,0,0:0:0:0:
256,192,35490,1,2,0:0:0:0:
256,192,35612,1,0,0:0:0:0:
256,192,35734,1,0,0:0:0:0:
256,192,35856,1,2,0:0:0:0:
256,192,35978,1,0,0:0:0:0:
256,192,36100,1,4,0:0:0:0:
256,192,36344,1,2,0:0:0:0:
256,192,36588,1,0,0:0:0:0:
256,192,36832,1,2,0:0:0:0:
256,192,37076,1,2,0:0:0:0:
256,192,37106,1,2,0:0:0:0:
256,192,37198,1,2,0:0:0:0:
256,192,37228,1,2,0:0:0:0:
256,192,37320,1,0,0:0:0:0:
256,192,37350,1,0,0:0:0:0:
256,192,37442,1,0,0:0:0:0:
256,192,37472,1,0,0:0:0:0:
256,192,37564,1,2,0:0:0:0:
256,192,37594,1,2,0:0:0:0:
256,192,37686,1,2,0:0:0:0:
256,192,37716,1,2,0:0:0:0:
256,192,37808,1,0,0:0:0:0:
256,192,37838,1,0,0:0:0:0:
256,192,37930,1,0,0:0:0:0:
256,192,37960,1,0,0:0:0:0:
256,192,38052,1,0,0:0:0:0:
256,192,38295,1,2,0:0:0:0:
256,192,38356,1,2,0:0:0:0:
256,192,38417,1,2,0:0:0:0:
256,192,38478,1,2,0:0:0:0:
256,192,38539,1,0,0:0:0:0:
256,192,38661,1,0,0:0:0:0:
256,192,38783,1,2,0:0:0:0:
256,192,38844,1,2,0:0:0:0:
256,192,38905,1,2,0:0:0:0:
256,192,38966,1,2,0:0:0:0:
256,192,39027,1,0,0:0:0:0:
256,192,39149,1,0,0:0:0:0:
256,192,39210,1,0,0:0:0:0:
256,192,39271,1,2,0:0:0:0:
256,192,39332,1,0,0:0:0:0:
256,192,39393,1,2,0:0:0:0:
256,192,39454,1,2,0:0:0:0:
256,192,39515,1,0,0:0:0:0:
256,192,39555,1,0,0:0:0:0:
256,192,39596,1,0,0:0:0:0:
256,192,39637,1,2,0:0:0:0:
256,192,39759,1,2,0:0:0:0:
256,192,39881,1,0,0:0:0:0:
256,192,40002,1,4,0:0:0:0:
256,192,40246,1,0,0:0:0:0:
256,192,40490,1,2,0:0:0:0:
256,192,40734,1,0,0:0:0:0:
256,192,40856,1,2,0:0:0:0:
256,192,40978,1,0,0:0:0:0:
256,192,41100,1,2,0:0:0:0:
256,192,41222,1,0,0:0:0:0:
256,192,41344,1,2,0:0:0:0:
256,192,41466,1,0,0:0:0:0:
256,192,41588,1,2,0:0:0:0:
256,192,41710,1,2,0:0:0:0:
256,192,41832,1,2,0:0:0:0:
256,192,41954,1,0,0:0:0:0:
256,192,42198,1,2,0:0:0:0:
256,192,42259,1,2,0:0:0:0:
256,192,42320,1,0,0:0:0:0:
256,192,42381,1,0,0:0:0:0:
256,192,42442,1,0,0:0:0:0:
256,192,42563,1,0,0:0:0:0:
256,192,42685,1,2,0:0:0:0:
256,192,42746,1,2,0:0:0:0:
256,192,42807,1,0,0:0:0:0:
256,192,42868,1,0,0:0:0:0:
256,192,42929,1,2,0:0:0:0:
256,192,43173,1,0,0:0:0:0:
256,192,43295,1,2,0:0:0:0:
256,192,43417,1,0,0:0:0:0:
256,192,43539,1,0,0:0:0:0:
256,192,43661,1,2,0:0:0:0:
256,192,43783,1,2,0:0:0:0:
256,192,43905,1,4,0:0:0:0:
256,192,44149,1,0,0:0:0:0:
256,192,44393,1,2,0:0:0:0:
256,192,44515,1,0,0:0:0:0:
256,192,44576,1,0,0:0:0:0:
256,192,44637,1,2,0:0:0:0:
256,192,44759,1,2,0:0:0:0:
256,192,44881,1,0,0:0:0:0:
256,192,45003,1,2,0:0:0:0:
256,192,45033,1,2,0:0:0:0:
256,192,45125,1,2,0:0:0:0:
256,192,45155,1,2,0:0:0:0:
256,192,45247,1,2,0:0:0:0:
256,192,45277,1,2,0:0:0:0:
256,192,45369,1,0,0:0:0:0:
256,192,45491,1,2,0:0:0:0:
256,192,45521,1,2,0:0:0:0:
256,192,45612,1,0,0:0:0:0:
256,192,45643,1,0,0:0:0:0:
256,192,45734,1,0,0:0:0:0:
256,192,45765,1,0,0:0:0:0:
256,192,45857,1,0,0:0:0:0:
256,192,46100,1,0,0:0:0:0:
256,192,46222,1,0,0:0:0:0:
256,192,46344,1,2,0:0:0:0:
256,192,46588,1,0,0:0:0:0:
256,192,46710,1,2,0:0:0:0:
256,192,46954,1,2,0:0:0:0:
256,192,47076,1,0,0:0:0:0:
256,192,47320,1,0,0:0:0:0:
256,192,47401,1,0,0:0:0:0:
256,192,47482,1,0,0:0:0:0:
256,192,47563,1,2,0:0:0:0:
256,192,47645,1,2,0:0:0:0:
256,192,47726,1,2,0:0:0:0:
256,192,47807,1,0,0:0:0:0:
256,192,48051,1,2,0:0:0:0:
256,192,48173,1,2,0:0:0:0:
256,192,48295,1,0,0:0:0:0:
256,192,48539,1,2,0:0:0:0:
256,192,48783,1,0,0:0:0:0:
256,192,49027,1,2,0:0:0:0:
256,192,49149,1,2,0:0:0:0:
256,192,49271,1,0,0:0:0:0:
256,192,49515,1,2,0:0:0:0:
256,192,49759,1,2,0:0:0:0:
256,192,50002,1,0,0:0:0:0:
256,192,50124,1,2,0:0:0:0:
256,192,50246,1,0,0:0:0:0:
256,192,50490,1,2,0:0:0:0:
256,192,50734,1,0,0:0:0:0:
256,192,50978,1,0,0:0:0:0:
256,192,51100,1,2,0:0:0:0:
256,192,51466,1,2,0:0:0:0:
256,192,51527,1,2,0:0:0:0:
256,192,51588,1,2,0:0:0:0:
256,192,51649,1,2,0:0:0:0:
256,192,51710,1,0,0:0:0:0:
256,192,51954,1,2,0:0:0:0:
256,192,52076,1,2,0:0:0:0:
256,192,52198,1,0,0:0:0:0:
256,192,52442,1,2,0:0:0:0:
256,192,52685,1,0,0:0:0:0:
256,192,52929,1,2,0:0:0:0:
256,192,53051,1,2,0:0:0:0:
256,192,53173,1,0,0:0:0:0:
256,192,53417,1,2,0:0:0:0:
256,192,53661,1,0,0:0:0:0:
256,192,53783,1,0,0:0:0:0:
256,192,53905,1,0,0:0:0:0:
256,192,54027,1,0,0:0:0:0:
256,192,54149,1,0,0:0:0:0:
256,192,54271,1,0,0:0:0:0:
256,192,54393,1,0,0:0:0:0:
256,192,54515,1,0,0:0:0:0:
256,192,54637,1,6,0:0:0:0:
256,192,55124,1,2,0:0:0:0:
256,192,55185,1,2,0:0:0:0:
256,192,55246,1,2,0:0:0:0:
256,192,55307,1,2,0:0:0:0:
256,192,55368,1,0,0:0:0:0:
256,192,55429,1,0,0:0:0:0:
256,192,55490,1,0,0:0:0:0:
256,192,55612,1,0,0:0:0:0:
256,192,55673,1,0,0:0:0:0:
256,192,55734,1,2,0:0:0:0:
256,192,55856,1,2,0:0:0:0:
256,192,55978,1,2,0:0:0:0:
256,192,56100,1,0,0:0:0:0:
256,192,56344,1,2,0:0:0:0:
256,192,56405,1,2,0:0:0:0:
256,192,56466,1,2,0:0:0:0:
256,192,56588,1,0,0:0:0:0:
256,192,56649,1,0,0:0:0:0:
256,192,56710,1,2,0:0:0:0:
256,192,56832,1,2,0:0:0:0:
256,192,56954,1,2,0:0:0:0:
256,192,57015,1,2,0:0:0:0:
256,192,57076,1,0,0:0:0:0:
256,192,57320,1,2,0:0:0:0:
256,192,57381,1,2,0:0:0:0:
256,192,57442,1,2,0:0:0:0:
256,192,57563,1,0,0:0:0:0:
256,192,57624,1,0,0:0:0:0:
256,192,57685,1,2,0:0:0:0:
256,192,57807,1,2,0:0:0:0:
256,192,57929,1,2,0:0:0:0:
256,192,58051,1,0,0:0:0:0:
256,192,58295,1,2,0:0:0:0:
256,192,58356,1,2,0:0:0:0:
256,192,58417,1,2,0:0:0:0:
256,192,58539,1,0,0:0:0:0:
256,192,58600,1,0,0:0:0:0:
256,192,58661,1,2,0:0:0:0:
256,192,58783,1,2,0:0:0:0:
256,192,58905,1,0,0:0:0:0:
256,192,58966,1,0,0:0:0:0:
256,192,59027,1,6,0:0:0:0:
256,192,59149,1,4,0:0:0:0:
256,192,59271,1,6,0:0:0:0:
256,192,59393,1,4,0:0:0:0:
256,188,59515,1,2,0:0:0:0:
256,188,59637,1,0,0:0:0:0:
256,188,59698,1,0,0:0:0:0:
256,188,59759,1,2,0:0:0:0:
256,188,59881,1,0,0:0:0:0:
256,188,60002,1,2,0:0:0:0:
256,188,60124,1,0,0:0:0:0:
256,188,60185,1,0,0:0:0:0:
256,188,60246,1,2,0:0:0:0:
256,188,60368,1,0,0:0:0:0:
256,188,60490,1,2,0:0:0:0:
256,188,60612,1,0,0:0:0:0:
256,188,60673,1,0,0:0:0:0:
256,188,60734,1,2,0:0:0:0:
256,188,60856,1,0,0:0:0:0:
256,188,60978,1,2,0:0:0:0:
256,188,61100,1,0,0:0:0:0:
256,188,61161,1,0,0:0:0:0:
256,188,61222,1,2,0:0:0:0:
256,188,61344,1,0,0:0:0:0:
256,188,61466,1,0,0:0:0:0:
256,188,61527,1,0,0:0:0:0:
256,188,61588,1,2,0:0:0:0:
256,188,61649,1,2,0:0:0:0:
256,188,61710,1,2,0:0:0:0:
256,188,61771,1,2,0:0:0:0:
256,188,61832,1,2,0:0:0:0:
256,188,61893,1,2,0:0:0:0:
256,188,61954,1,2,0:0:0:0:
256,188,62015,1,2,0:0:0:0:
256,188,62076,1,2,0:0:0:0:
256,188,62137,1,2,0:0:0:0:
256,188,62198,1,2,0:0:0:0:
256,188,62259,1,2,0:0:0:0:
256,188,62320,1,2,0:0:0:0:
256,188,62381,1,2,0:0:0:0:
256,188,62442,1,2,0:0:0:0:
256,188,62929,1,6,0:0:0:0:
256,188,63417,1,4,0:0:0:0:
256,188,63661,1,2,0:0:0:0:
256,188,63702,1,2,0:0:0:0:
256,188,63742,1,2,0:0:0:0:
256,188,63783,1,2,0:0:0:0:
256,188,63905,1,0,0:0:0:0:
256,188,63966,1,0,0:0:0:0:
256,188,64027,1,0,0:0:0:0:
256,188,64088,1,0,0:0:0:0:
256,188,64149,1,2,0:0:0:0:
256,188,64210,1,2,0:0:0:0:
256,188,64271,1,0,0:0:0:0:
256,188,64332,1,2,0:0:0:0:
256,188,64393,1,0,0:0:0:0:
256,188,64515,1,0,0:0:0:0:
256,188,64576,1,0,0:0:0:0:
256,188,64637,1,2,0:0:0:0:
256,188,64698,1,2,0:0:0:0:
256,188,64759,1,2,0:0:0:0:
256,188,64820,1,2,0:0:0:0:
256,188,64881,1,0,0:0:0:0:
256,188,65124,1,0,0:0:0:0:
256,188,65368,1,0,0:0:0:0:
256,188,65612,1,2,0:0:0:0:
256,188,65653,1,0,0:0:0:0:
256,188,65694,1,0,0:0:0:0:
256,188,65734,1,0,0:0:0:0:
256,188,65795,1,0,0:0:0:0:
256,188,65856,1,2,0:0:0:0:
256,188,66100,1,0,0:0:0:0:
256,188,66344,1,0,0:0:0:0:
256,188,66466,1,2,0:0:0:0:
256,188,66588,1,0,0:0:0:0:
256,188,66710,1,0,0:0:0:0:
256,188,66832,1,0,0:0:0:0:
256,188,66893,1,0,0:0:0:0:
256,188,66954,1,0,0:0:0:0:
256,188,67015,1,0,0:0:0:0:
256,188,67076,1,2,0:0:0:0:
256,188,67137,1,2,0:0:0:0:
256,188,67198,1,2,0:0:0:0:
256,188,67259,1,2,0:0:0:0:
256,188,67320,1,0,0:0:0:0:
256,188,67563,1,2,0:0:0:0:
256,188,67685,1,0,0:0:0:0:
256,188,67807,1,2,0:0:0:0:
256,188,68051,1,2,0:0:0:0:
256,188,68092,1,2,0:0:0:0:
256,188,68133,1,2,0:0:0:0:
256,188,68173,1,2,0:0:0:0:
256,188,68295,1,0,0:0:0:0:
256,188,68539,1,2,0:0:0:0:
256,188,68580,1,2,0:0:0:0:
256,188,68620,1,2,0:0:0:0:
256,188,68661,1,2,0:0:0:0:
256,188,68783,1,0,0:0:0:0:
256,188,68864,1,0,0:0:0:0:
256,188,68946,1,0,0:0:0:0:
256,188,69027,1,2,0:0:0:0:
256,188,69108,1,2,0:0:0:0:
256,188,69189,1,0,0:0:0:0:
256,188,69271,1,2,0:0:0:0:
256,188,69393,1,2,0:0:0:0:
256,188,69515,1,0,0:0:0:0:
256,188,69637,1,2,0:0:0:0:
256,188,69759,1,0,0:0:0:0:
256,188,69881,1,0,0:0:0:0:
256,188,70002,1,2,0:0:0:0:
256,188,70124,1,2,0:0:0:0:
256,188,70246,1,0,0:0:0:0:
256,188,70328,1,0,0:0:0:0:
256,188,70409,1,0,0:0:0:0:
256,188,70490,1,2,0:0:0:0:
256,188,70572,1,0,0:0:0:0:
256,188,70653,1,2,0:0:0:0:
256,188,70734,1,0,0:0:0:0:
256,188,70816,1,2,0:0:0:0:
256,188,70897,1,2,0:0:0:0:
256,188,70978,1,0,0:0:0:0:
256,188,71059,1,2,0:0:0:0:
256,188,71141,1,2,0:0:0:0:
256,188,71222,1,4,0:0:0:0:
256,188,71466,1,0,0:0:0:0:
256,188,71507,1,0,0:0:0:0:
256,188,71547,1,0,0:0:0:0:
256,188,71588,1,0,0:0:0:0:
256,188,71710,1,2,0:0:0:0:
256,188,71954,1,0,0:0:0:0:
256,188,72076,1,0,0:0:0:0:
256,188,72137,1,0,0:0:0:0:
256,188,72198,1,0,0:0:0:0:
256,188,72442,1,6,0:0:0:0:
256,188,72685,1,0,0:0:0:0:
256,192,72929,12,0,73051,0:0:0:0:
256,188,73173,5,0,0:0:0:0:
256,188,73539,1,0,0:0:0:0:
256,188,73661,1,2,0:0:0:0:
256,188,73905,1,0,0:0:0:0:
256,188,73966,1,0,0:0:0:0:
256,188,74027,1,0,0:0:0:0:
256,188,74088,1,0,0:0:0:0:
256,188,74149,1,0,0:0:0:0:
256,188,74271,1,2,0:0:0:0:
256,188,74393,1,2,0:0:0:0:
256,188,74515,1,2,0:0:0:0:
256,188,74637,1,0,0:0:0:0:
256,188,74759,1,2,0:0:0:0:
256,188,74881,1,2,0:0:0:0:
256,188,75002,1,2,0:0:0:0:
256,188,75124,1,0,0:0:0:0:
256,188,75206,1,2,0:0:0:0:
256,188,75287,1,0,0:0:0:0:
256,188,75368,1,2,0:0:0:0:
256,188,75612,1,2,0:0:0:0:
256,188,75673,1,2,0:0:0:0:
256,188,75734,1,0,0:0:0:0:
256,188,75795,1,0,0:0:0:0:
256,188,75856,1,2,0:0:0:0:
256,188,75917,1,2,0:0:0:0:
256,188,75978,1,2,0:0:0:0:
256,188,76039,1,0,0:0:0:0:
256,188,76100,1,2,0:0:0:0:
256,188,76161,1,0,0:0:0:0:
256,188,76222,1,0,0:0:0:0:
256,188,76283,1,0,0:0:0:0:
256,188,76344,1,2,0:0:0:0:
256,188,76405,1,2,0:0:0:0:
256,188,76466,1,0,0:0:0:0:
256,188,76527,1,0,0:0:0:0:
256,188,76588,1,2,0:0:0:0:
256,188,76649,1,0,0:0:0:0:
256,188,76710,1,0,0:0:0:0:
256,188,76771,1,0,0:0:0:0:
256,188,76832,1,2,0:0:0:0:
256,188,76893,1,2,0:0:0:0:
256,188,76954,1,0,0:0:0:0:
256,188,77015,1,0,0:0:0:0:
256,188,77076,1,0,0:0:0:0:
256,188,77320,1,2,0:0:0:0:
256,188,77442,1,0,0:0:0:0:
256,188,77685,1,2,0:0:0:0:
256,188,77929,1,0,0:0:0:0:
256,188,78173,1,2,0:0:0:0:
256,188,78295,1,0,0:0:0:0:
256,188,78417,1,0,0:0:0:0:
256,188,78539,1,0,0:0:0:0:
256,188,78661,1,2,0:0:0:0:
256,188,78783,1,6,0:0:0:0:
256,188,79027,1,4,0:0:0:0:
256,188,79271,1,2,0:0:0:0:
256,188,79311,1,2,0:0:0:0:
256,188,79352,1,2,0:0:0:0:
256,188,79393,1,2,0:0:0:0:
256,188,79515,1,0,0:0:0:0:
256,188,79576,1,0,0:0:0:0:
256,188,79637,1,0,0:0:0:0:
256,188,79698,1,0,0:0:0:0:
256,188,79759,1,2,0:0:0:0:
256,188,79820,1,2,0:0:0:0:
256,188,79881,1,0,0:0:0:0:
256,188,79942,1,2,0:0:0:0:
256,188,80002,1,0,0:0:0:0:
256,188,80124,1,0,0:0:0:0:
256,188,80185,1,0,0:0:0:0:
256,188,80246,1,2,0:0:0:0:
256,188,80287,1,2,0:0:0:0:
256,188,80328,1,2,0:0:0:0:
256,188,80368,1,2,0:0:0:0:
256,188,80429,1,2,0:0:0:0:
256,188,80490,1,0,0:0:0:0:
256,188,80734,1,0,0:0:0:0:
256,188,80978,1,0,0:0:0:0:
256,188,81222,1,2,0:0:0:0:
256,188,81263,1,0,0:0:0:0:
256,188,81303,1,0,0:0:0:0:
256,188,81344,1,0,0:0:0:0:
256,188,81405,1,0,0:0:0:0:
256,188,81466,1,2,0:0:0:0:
256,188,81710,1,0,0:0:0:0:
256,188,81954,1,0,0:0:0:0:
256,188,82076,1,2,0:0:0:0:
256,188,82198,1,0,0:0:0:0:
256,188,82320,1,0,0:0:0:0:
256,188,82442,1,0,0:0:0:0:
256,188,82502,1,0,0:0:0:0:
256,188,82563,1,0,0:0:0:0:
256,188,82624,1,0,0:0:0:0:
256,188,82685,1,2,0:0:0:0:
256,188,82746,1,2,0:0:0:0:
256,188,82807,1,2,0:0:0:0:
256,188,82868,1,2,0:0:0:0:
256,188,82929,1,0,0:0:0:0:
256,188,83173,1,2,0:0:0:0:
256,188,83295,1,2,0:0:0:0:
256,188,83417,1,2,0:0:0:0:
256,188,83661,1,2,0:0:0:0:
256,188,83702,1,2,0:0:0:0:
256,188,83742,1,2,0:0:0:0:
256,188,83783,1,2,0:0:0:0:
256,188,83905,1,0,0:0:0:0:
256,188,84149,1,0,0:0:0:0:
256,188,84189,1,0,0:0:0:0:
256,188,84230,1,0,0:0:0:0:
256,188,84271,1,0,0:0:0:0:
256,188,84393,1,0,0:0:0:0:
256,188,84474,1,0,0:0:0:0:
256,188,84555,1,0,0:0:0:0:
256,188,84637,1,2,0:0:0:0:
256,188,84718,1,2,0:0:0:0:
256,188,84799,1,0,0:0:0:0:
256,188,84881,1,2,0:0:0:0:
256,188,85002,1,2,0:0:0:0:
256,188,85124,1,0,0:0:0:0:
256,188,85246,1,2,0:0:0:0:
256,188,85368,1,0,0:0:0:0:
256,188,85429,1,0,0:0:0:0:
256,188,85490,1,0,0:0:0:0:
256,188,85551,1,0,0:0:0:0:
256,188,85612,1,2,0:0:0:0:
256,188,85673,1,2,0:0:0:0:
256,188,85734,1,0,0:0:0:0:
256,188,85795,1,2,0:0:0:0:
256,188,85856,1,0,0:0:0:0:
256,188,85917,1,0,0:0:0:0:
256,188,85978,1,2,0:0:0:0:
256,188,86039,1,0,0:0:0:0:
256,188,86100,1,2,0:0:0:0:
256,188,86161,1,2,0:0:0:0:
256,188,86222,1,0,0:0:0:0:
256,188,86283,1,2,0:0:0:0:
256,188,86344,1,0,0:0:0:0:
256,188,86405,1,0,0:0:0:0:
256,188,86466,1,2,0:0:0:0:
256,188,86527,1,2,0:0:0:0:
256,188,86588,1,0,0:0:0:0:
256,188,86649,1,2,0:0:0:0:
256,188,86710,1,2,0:0:0:0:
256,188,86771,1,2,0:0:0:0:
256,188,86832,1,0,0:0:0:0:
256,188,87076,1,0,0:0:0:0:
256,188,87116,1,0,0:0:0:0:
256,188,87157,1,0,0:0:0:0:
256,188,87198,1,0,0:0:0:0:
256,188,87320,1,2,0:0:0:0:
256,188,87563,1,0,0:0:0:0:
256,188,87685,1,0,0:0:0:0:
256,188,87746,1,0,0:0:0:0:
256,188,87807,1,0,0:0:0:0:
256,188,88051,1,6,0:0:0:0:
256,188,88295,1,0,0:0:0:0:
256,192,88539,12,0,88661,0:0:0:0:
256,188,88783,5,0,0:0:0:0:
256,188,89027,1,2,0:0:0:0:
256,188,89068,1,2,0:0:0:0:
256,188,89108,1,2,0:0:0:0:
256,188,89149,1,0,0:0:0:0:
256,188,89271,1,2,0:0:0:0:
256,188,89515,1,0,0:0:0:0:
256,188,89576,1,0,0:0:0:0:
256,188,89637,1,0,0:0:0:0:
256,188,89698,1,0,0:0:0:0:
256,188,89759,1,0,0:0:0:0:
256,188,89881,1,2,0:0:0:0:
256,188,90002,1,2,0:0:0:0:
256,188,90124,1,2,0:0:0:0:
256,188,90246,1,0,0:0:0:0:
256,188,90368,1,2,0:0:0:0:
256,188,90490,1,2,0:0:0:0:
256,188,90612,1,0,0:0:0:0:
256,188,90734,1,4,0:0:0:0:
256,188,90897,1,4,0:0:0:0:
256,188,91059,1,4,0:0:0:0:
256,188,91222,1,2,0:0:0:0:
256,188,91283,1,2,0:0:0:0:
256,188,91344,1,2,0:0:0:0:
256,188,91405,1,0,0:0:0:0:
256,188,91466,1,2,0:0:0:0:
256,188,91527,1,2,0:0:0:0:
256,188,91588,1,0,0:0:0:0:
256,188,91649,1,0,0:0:0:0:
256,188,91710,1,2,0:0:0:0:
256,188,91771,1,0,0:0:0:0:
256,188,91832,1,0,0:0:0:0:
256,188,91893,1,0,0:0:0:0:
256,188,91954,1,2,0:0:0:0:
256,188,92015,1,2,0:0:0:0:
256,188,92076,1,0,0:0:0:0:
256,188,92137,1,0,0:0:0:0:
256,188,92198,1,2,0:0:0:0:
256,188,92259,1,2,0:0:0:0:
256,188,92320,1,0,0:0:0:0:
256,188,92381,1,0,0:0:0:0:
256,188,92442,1,2,0:0:0:0:
256,188,92502,1,0,0:0:0:0:
256,188,92563,1,0,0:0:0:0:
256,188,92624,1,0,0:0:0:0:
256,188,92685,1,0,0:0:0:0:
256,188,92929,1,2,0:0:0:0:
256,188,93051,1,0,0:0:0:0:
256,188,93295,1,2,0:0:0:0:
256,188,93539,1,0,0:0:0:0:
256,188,93783,1,2,0:0:0:0:
256,188,93905,1,0,0:0:0:0:
256,188,94027,1,0,0:0:0:0:
256,188,94149,1,6,0:0:0:0:
256,188,94271,1,6,0:0:0:0:
256,188,94393,1,6,0:0:0:0:
256,188,94515,1,6,0:0:0:0:
256,188,94637,1,0,0:0:0:0:
256,188,94881,1,0,0:0:0:0:
256,188,95124,1,2,0:0:0:0:
256,188,95368,1,0,0:0:0:0:
256,188,95490,1,0,0:0:0:0:
256,188,95551,1,0,0:0:0:0:
256,188,95612,1,0,0:0:0:0:
256,188,95856,1,0,0:0:0:0:
256,188,95978,1,0,0:0:0:0:
256,188,96100,1,2,0:0:0:0:
256,188,96222,1,0,0:0:0:0:
256,188,96344,1,0,0:0:0:0:
256,188,96588,1,0,0:0:0:0:
256,188,96832,1,0,0:0:0:0:
256,188,97076,1,2,0:0:0:0:
256,188,97320,1,0,0:0:0:0:
256,188,97442,1,2,0:0:0:0:
256,188,97502,1,2,0:0:0:0:
256,188,97563,1,0,0:0:0:0:
256,188,97807,1,2,0:0:0:0:
256,188,97929,1,0,0:0:0:0:
256,188,98051,1,2,0:0:0:0:
256,188,98173,1,2,0:0:0:0:
256,188,98295,1,0,0:0:0:0:
256,188,98539,1,0,0:0:0:0:
256,188,98783,1,0,0:0:0:0:
256,188,99027,1,2,0:0:0:0:
256,188,99271,1,2,0:0:0:0:
256,188,99393,1,2,0:0:0:0:
256,188,99454,1,2,0:0:0:0:
256,188,99515,1,0,0:0:0:0:
256,188,99759,1,0,0:0:0:0:
256,188,99881,1,0,0:0:0:0:
256,188,100002,1,2,0:0:0:0:
256,188,100124,1,2,0:0:0:0:
256,188,100246,1,0,0:0:0:0:
256,188,100490,1,2,0:0:0:0:
256,188,100612,1,2,0:0:0:0:
256,188,100734,1,0,0:0:0:0:
256,188,100856,1,2,0:0:0:0:
256,188,100978,1,2,0:0:0:0:
256,188,101100,1,0,0:0:0:0:
256,188,101222,1,2,0:0:0:0:
256,188,101344,1,0,0:0:0:0:
256,188,101466,1,0,0:0:0:0:
256,188,101588,1,2,0:0:0:0:
256,188,101710,1,0,0:0:0:0:
256,188,101832,1,0,0:0:0:0:
256,188,101893,1,0,0:0:0:0:
256,188,101954,1,2,0:0:0:0:
256,188,102076,1,0,0:0:0:0:
256,188,102198,1,2,0:0:0:0:
256,188,102320,1,0,0:0:0:0:
256,188,102442,1,0,0:0:0:0:
256,188,102685,1,0,0:0:0:0:
256,188,102929,1,2,0:0:0:0:
256,188,103173,1,0,0:0:0:0:
256,188,103295,1,0,0:0:0:0:
256,188,103356,1,0,0:0:0:0:
256,188,103417,1,0,0:0:0:0:
256,188,103539,1,0,0:0:0:0:
256,188,103661,1,0,0:0:0:0:
256,188,103783,1,0,0:0:0:0:
256,188,103905,1,2,0:0:0:0:
256,188,104149,1,0,0:0:0:0:
256,188,104393,1,0,0:0:0:0:
256,188,104637,1,0,0:0:0:0:
256,188,104881,1,2,0:0:0:0:
256,188,105124,1,0,0:0:0:0:
256,188,105246,1,0,0:0:0:0:
256,188,105307,1,0,0:0:0:0:
256,188,105368,1,0,0:0:0:0:
256,188,105429,1,2,0:0:0:0:
256,188,105490,1,2,0:0:0:0:
256,188,105612,1,0,0:0:0:0:
256,188,105734,1,0,0:0:0:0:
256,188,105856,1,0,0:0:0:0:
256,188,106100,1,0,0:0:0:0:
256,188,106222,1,0,0:0:0:0:
256,188,106344,1,0,0:0:0:0:
256,188,106588,1,0,0:0:0:0:
256,188,106832,1,2,0:0:0:0:
256,188,107076,1,0,0:0:0:0:
256,188,107198,1,0,0:0:0:0:
256,188,107259,1,0,0:0:0:0:
256,188,107320,1,0,0:0:0:0:
256,188,107442,1,0,0:0:0:0:
256,188,107563,1,0,0:0:0:0:
256,188,107685,1,0,0:0:0:0:
256,188,107807,1,2,0:0:0:0:
256,188,107929,1,0,0:0:0:0:
256,188,108051,1,0,0:0:0:0:
256,188,108173,1,0,0:0:0:0:
256,188,108295,1,2,0:0:0:0:
256,188,108417,1,0,0:0:0:0:
256,188,108539,1,0,0:0:0:0:
256,188,108661,1,2,0:0:0:0:
256,188,108783,1,0,0:0:0:0:
256,188,108905,1,0,0:0:0:0:
256,188,109027,1,2,0:0:0:0:
256,188,109149,1,0,0:0:0:0:
256,188,109271,1,2,0:0:0:0:
256,188,109393,1,2,0:0:0:0:
256,188,109454,1,2,0:0:0:0:
256,188,109515,1,0,0:0:0:0:
256,188,109759,1,0,0:0:0:0:
256,188,110002,1,6,0:0:0:0:
256,188,110246,1,4,0:0:0:0:
