osu file format v14

[General]
AudioFilename: audio.mp3
AudioLeadIn: 0
PreviewTime: -1
Countdown: 1
SampleSet: Normal
StackLeniency: 0.7
Mode: 1
LetterboxInBreaks: 0
WidescreenStoryboard: 0

[Editor]
DistanceSpacing: 0.6
BeatDivisor: 4
GridSize: 4
TimelineZoom: 3.2

[Metadata]
Title:Press Start
TitleUnicode:Press Start
Artist:MDK
ArtistUnicode:MDK
Creator:uone
Version:START
Source:
Tags:electro electronic glitch hop wubstep
BeatmapID:1170749
BeatmapSetID:552867

[Difficulty]
HPDrainRate:6
CircleSize:6
OverallDifficulty:6
ApproachRate:6
SliderMultiplier:1.4
SliderTickRate:1

[Events]
//Background and Video events
0,0,"ewhtr.png",0,0
//Break Periods
//Storyboard Layer 0 (Background)
//Storyboard Layer 1 (Fail)
//Storyboard Layer 2 (Pass)
//Storyboard Layer 3 (Foreground)
//Storyboard Sound Samples

[TimingPoints]
3,243.90243902439,4,1,0,100,1,0
3,-200,4,1,0,100,0,0
8783,-117.647058823529,4,1,0,100,0,0
14637,-100,4,1,0,100,0,0
30490,-117.647058823529,4,1,0,100,0,0
31466,-100,4,1,0,100,0,0
32198,-95.2380952380952,4,1,0,100,0,0
46100,-111.111111111111,4,1,0,100,0,0
48051,-117.647058823529,4,1,0,100,0,0
53783,-116.279069767442,4,1,0,100,0,0
53905,-113.636363636364,4,1,0,100,0,0
54027,-111.111111111111,4,1,0,100,0,0
54149,-108.695652173913,4,1,0,100,0,0
54271,-106.382978723404,4,1,0,100,0,0
54393,-104.166666666667,4,1,0,100,0,0
54515,-102.040816326531,4,1,0,100,0,0
54637,-66.6666666666667,4,1,0,100,0,0
55124,-71.4285714285714,4,1,0,100,0,0
55185,-74.0740740740741,4,1,0,100,0,0
55246,-76.9230769230769,4,1,0,100,0,0
55307,-80,4,1,0,100,0,0
55307,-83.3333333333333,4,1,0,100,0,0
55368,-86.9565217391304,4,1,0,100,0,0
55429,-90.9090909090909,4,1,0,100,0,0
55490,-95.2380952380952,4,1,0,100,0,0
55612,-100,4,1,0,100,0,0
56344,-90.9090909090909,4,1,0,100,0,0
57320,-83.3333333333333,4,1,0,100,0,0
58295,-76.9230769230769,4,1,0,100,0,0
59027,-76.9230769230769,4,1,0,100,0,0
59149,-80,4,1,0,100,0,0
59271,-83.3333333333333,4,1,0,100,0,0
59393,-86.9565217391304,4,1,0,100,0,0
59515,-100,4,1,0,100,0,0
60002,-90.9090909090909,4,1,0,100,0,0
60490,-83.3333333333333,4,1,0,100,0,0
60978,-76.9230769230769,4,1,0,100,0,0
61466,-71.4285714285714,4,1,0,100,0,0
62442,-66.6666666666667,4,1,0,100,0,0
62929,-50,4,1,0,100,0,0
63417,-95.2380952380952,4,1,0,100,0,1
70246,-94.3396226415094,4,1,0,100,0,1
70328,-92.5925925925926,4,1,0,100,0,1
70409,-90.9090909090909,4,1,0,100,0,1
70490,-89.2857142857143,4,1,0,100,0,1
70572,-87.719298245614,4,1,0,100,0,1
70653,-86.2068965517241,4,1,0,100,0,1
70734,-84.7457627118644,4,1,0,100,0,1
70816,-83.3333333333333,4,1,0,100,0,1
70897,-81.9672131147541,4,1,0,100,0,1
70978,-80.6451612903226,4,1,0,100,0,1
71059,-79.3650793650794,4,1,0,100,0,1
71141,-78.125,4,1,0,100,0,1
71222,-76.9230769230769,4,1,0,100,0,1
71466,-95.2380952380952,4,1,0,100,0,1
74271,-100,4,1,0,100,0,1
74393,-105.263157894737,4,1,0,100,0,1
74515,-111.111111111111,4,1,0,100,0,1
74637,-117.647058823529,4,1,0,100,0,1
74759,-125,4,1,0,100,0,1
74881,-133.333333333333,4,1,0,100,0,1
75002,-142.857142857143,4,1,0,100,0,1
75124,-133.333333333333,4,1,0,100,0,1
75206,-117.647058823529,4,1,0,100,0,1
75287,-105.263157894737,4,1,0,100,0,1
75368,-95.2380952380952,4,1,0,100,0,1
75612,-83.3333333333333,4,1,0,100,0,1
75673,-84.0336134453781,4,1,0,100,0,1
75734,-84.7457627118644,4,1,0,100,0,1
75795,-85.4700854700855,4,1,0,100,0,1
75856,-86.2068965517241,4,1,0,100,0,1
75917,-86.9565217391304,4,1,0,100,0,1
75978,-87.719298245614,4,1,0,100,0,1
76039,-88.4955752212389,4,1,0,100,0,1
76100,-89.2857142857143,4,1,0,100,0,1
76161,-90.0900900900901,4,1,0,100,0,1
76222,-90.9090909090909,4,1,0,100,0,1
76283,-91.743119266055,4,1,0,100,0,1
76344,-92.5925925925926,4,1,0,100,0,1
76405,-93.4579439252336,4,1,0,100,0,1
76466,-94.3396226415094,4,1,0,100,0,1
76527,-95.2380952380952,4,1,0,100,0,1
76588,-96.1538461538461,4,1,0,100,0,1
76649,-97.0873786407767,4,1,0,100,0,1
76710,-98.0392156862745,4,1,0,100,0,1
76771,-99.009900990099,4,1,0,100,0,1
76832,-100,4,1,0,100,0,1
76893,-101.010101010101,4,1,0,100,0,1
76954,-102.040816326531,4,1,0,100,0,1
77015,-103.092783505155,4,1,0,100,0,1
77076,-104.166666666667,4,1,0,100,0,0
77320,-133.333333333333,4,1,0,100,0,0
78539,-100,4,1,0,100,0,0
78783,-76.9230769230769,4,1,0,100,0,0
79027,-95.2380952380952,4,1,0,100,0,1
85368,-94.3396226415094,4,1,0,100,0,1
85429,-93.4579439252336,4,1,0,100,0,1
85490,-92.5925925925926,4,1,0,100,0,1
85551,-91.743119266055,4,1,0,100,0,1
85612,-90.9090909090909,4,1,0,100,0,1
85673,-90.0900900900901,4,1,0,100,0,1
85734,-89.2857142857143,4,1,0,100,0,1
85795,-88.4955752212389,4,1,0,100,0,1
85856,-87.719298245614,4,1,0,100,0,1
85917,-86.9565217391304,4,1,0,100,0,1
85978,-86.2068965517241,4,1,0,100,0,1
86039,-85.4700854700855,4,1,0,100,0,1
86100,-84.7457627118644,4,1,0,100,0,1
86161,-84.0336134453781,4,1,0,100,0,1
86222,-83.3333333333333,4,1,0,100,0,1
86283,-82.6446280991736,4,1,0,100,0,1
86283,-83.3333333333333,4,1,0,100,0,1
86344,-81.3008130081301,4,1,0,100,0,1
86405,-80,4,1,0,100,0,1
86466,-78.7401574803149,4,1,0,100,0,1
86527,-77.5193798449612,4,1,0,100,0,1
86588,-76.3358778625954,4,1,0,100,0,1
86649,-75.187969924812,4,1,0,100,0,1
86710,-74.0740740740741,4,1,0,100,0,1
86771,-72.992700729927,4,1,0,100,0,1
86832,-71.9424460431655,4,1,0,100,0,1
87076,-95.2380952380952,4,1,0,100,0,1
89881,-100,4,1,0,100,0,1
90002,-105.263157894737,4,1,0,100,0,1
90124,-111.111111111111,4,1,0,100,0,1
90246,-117.647058823529,4,1,0,100,0,1
90368,-125,4,1,0,100,0,1
90490,-133.333333333333,4,1,0,100,0,1
90612,-142.857142857143,4,1,0,100,0,1
90734,-86.9565217391304,4,1,0,100,0,1
91222,-83.3333333333333,4,1,0,100,0,1
91283,-84.0336134453781,4,1,0,100,0,1
91344,-84.7457627118644,4,1,0,100,0,1
91405,-85.4700854700855,4,1,0,100,0,1
91466,-86.2068965517241,4,1,0,100,0,1
91527,-86.9565217391304,4,1,0,100,0,1
91588,-87.719298245614,4,1,0,100,0,1
91649,-88.4955752212389,4,1,0,100,0,1
91710,-89.2857142857143,4,1,0,100,0,1
91771,-90.0900900900901,4,1,0,100,0,1
91832,-90.9090909090909,4,1,0,100,0,1
91893,-91.743119266055,4,1,0,100,0,1
91954,-92.5925925925926,4,1,0,100,0,1
92015,-93.4579439252336,4,1,0,100,0,1
92076,-94.3396226415094,4,1,0,100,0,1
92137,-95.2380952380952,4,1,0,100,0,1
92198,-96.1538461538461,4,1,0,100,0,1
92259,-97.0873786407767,4,1,0,100,0,1
92320,-98.0392156862745,4,1,0,100,0,1
92381,-99.009900990099,4,1,0,100,0,1
92442,-100,4,1,0,100,0,1
92502,-101.010101010101,4,1,0,100,0,1
92563,-102.040816326531,4,1,0,100,0,1
92624,-103.092783505155,4,1,0,100,0,1
92685,-104.166666666667,4,1,0,100,0,0
92929,-133.333333333333,4,1,0,100,0,0
94149,-142.857142857143,4,1,0,100,0,0
94271,-153.846153846154,4,1,0,100,0,0
94393,-166.666666666667,4,1,0,100,0,0
94515,-181.818181818182,4,1,0,100,0,0
94637,-200,4,1,0,100,0,0
108783,-181.818181818182,4,1,0,100,0,0
108905,-166.666666666667,4,1,0,100,0,0
109027,-153.846153846153,4,1,0,100,0,0
109149,-142.857142857143,4,1,0,100,0,0
109271,-133.333333333333,4,1,0,100,0,0
109759,-100,4,1,0,100,0,0
110002,-66.6666666666667,4,1,0,100,0,0
110246,-95.2380952380952,4,1,0,100,0,0
124149,-117.647058823529,4,1,0,100,0,0
125490,-133.333333333334,4,1,0,100,0,0
125612,-153.846153846154,4,1,0,100,0,0
125734,-181.818181818182,4,1,0,100,0,0
125856,-95.2380952380952,4,1,0,100,0,0
139759,-111.111111111111,4,1,0,100,0,0
141710,-117.647058823529,4,1,0,100,0,0
148295,-66.6666666666667,4,1,0,100,0,0
148783,-71.4285714285714,4,1,0,100,0,0
148844,-74.0740740740741,4,1,0,100,0,0
148905,-76.9230769230769,4,1,0,100,0,0
148966,-80,4,1,0,100,0,0
149027,-83.3333333333333,4,1,0,100,0,0
149088,-90.9090909090909,4,1,0,100,0,0
149088,-86.9565217391304,4,1,0,100,0,0
149149,-95.2380952380952,4,1,0,100,0,0
149271,-100,4,1,0,100,0,0
150002,-90.9090909090909,4,1,0,100,0,0
150978,-83.3333333333333,4,1,0,100,0,0
151954,-76.9230769230769,4,1,0,100,0,0
152685,-76.9230769230769,4,1,0,100,0,0
152807,-80,4,1,0,100,0,0
152929,-83.3333333333333,4,1,0,100,0,0
153051,-86.9565217391304,4,1,0,100,0,0
153173,-100,4,1,0,100,0,0
153661,-90.9090909090909,4,1,0,100,0,0
154149,-83.3333333333333,4,1,0,100,0,0
154637,-76.9230769230769,4,1,0,100,0,0
155124,-71.4285714285714,4,1,0,100,0,0
156100,-66.6666666666667,4,1,0,100,0,0
156588,-200,4,1,0,100,0,0
157076,-90.9090909090909,4,1,0,100,0,1
163905,-89.2857142857143,4,1,0,100,0,1
163966,-87.719298245614,4,1,0,100,0,1
164027,-86.2068965517241,4,1,0,100,0,1
164088,-84.7457627118644,4,1,0,100,0,1
164149,-83.3333333333333,4,1,0,100,0,1
164210,-81.9672131147541,4,1,0,100,0,1
164271,-80.6451612903226,4,1,0,100,0,1
164332,-79.3650793650794,4,1,0,100,0,1
164393,-78.125,4,1,0,100,0,1
164454,-76.9230769230769,4,1,0,100,0,1
164515,-75.7575757575758,4,1,0,100,0,1
164576,-74.6268656716418,4,1,0,100,0,1
164637,-73.5294117647059,4,1,0,100,0,1
164698,-72.463768115942,4,1,0,100,0,1
164759,-71.4285714285714,4,1,0,100,0,1
164820,-70.4225352112676,4,1,0,100,0,1
164881,-69.4444444444444,4,1,0,100,0,1
165124,-90.9090909090909,4,1,0,100,0,1
167929,-95.2380952380952,4,1,0,100,0,1
168051,-100,4,1,0,100,0,1
168173,-105.263157894737,4,1,0,100,0,1
168295,-111.111111111111,4,1,0,100,0,1
168417,-117.647058823529,4,1,0,100,0,1
168539,-125,4,1,0,100,0,1
168661,-133.333333333333,4,1,0,100,0,1
168783,-125,4,1,0,100,0,1
168864,-111.111111111111,4,1,0,100,0,1
168946,-100,4,1,0,100,0,1
169027,-90.9090909090909,4,1,0,100,0,1
169271,-71.4285714285714,4,1,0,100,0,1
169332,-72.463768115942,4,1,0,100,0,1
169393,-73.5294117647059,4,1,0,100,0,1
169454,-74.6268656716418,4,1,0,100,0,1
169515,-75.7575757575758,4,1,0,100,0,1
169576,-76.9230769230769,4,1,0,100,0,1
169637,-78.125,4,1,0,100,0,1
169698,-79.3650793650794,4,1,0,100,0,1
169759,-80.6451612903226,4,1,0,100,0,1
169820,-81.9672131147541,4,1,0,100,0,1
169881,-83.3333333333333,4,1,0,100,0,1
169942,-84.7457627118644,4,1,0,100,0,1
170002,-86.2068965517241,4,1,0,100,0,1
170063,-87.719298245614,4,1,0,100,0,1
170124,-89.2857142857143,4,1,0,100,0,1
170185,-90.9090909090909,4,1,0,100,0,1
170246,-92.5925925925926,4,1,0,100,0,1
170307,-94.3396226415094,4,1,0,100,0,1
170368,-96.1538461538461,4,1,0,100,0,1
170429,-98.0392156862745,4,1,0,100,0,1
170490,-100,4,1,0,100,0,1
170551,-102.040816326531,4,1,0,100,0,1
170612,-104.166666666667,4,1,0,100,0,1
170673,-106.382978723404,4,1,0,100,0,1
170734,-108.695652173913,4,1,0,100,0,0
170978,-133.333333333333,4,1,0,100,0,0
172198,-83.3333333333333,4,1,0,100,0,0
172685,-83.3333333333333,4,1,0,100,0,1
172929,-90.9090909090909,4,1,0,100,0,1
178539,-90.0900900900901,4,1,0,100,0,1
178600,-89.2857142857143,4,1,0,100,0,1
178661,-88.4955752212389,4,1,0,100,0,1
178722,-87.719298245614,4,1,0,100,0,1
178783,-86.9565217391304,4,1,0,100,0,1
178844,-86.2068965517241,4,1,0,100,0,1
178905,-85.4700854700855,4,1,0,100,0,1
178966,-84.7457627118644,4,1,0,100,0,1
179027,-84.0336134453781,4,1,0,100,0,1
179088,-83.3333333333333,4,1,0,100,0,1
179149,-82.6446280991736,4,1,0,100,0,1
179210,-81.9672131147541,4,1,0,100,0,1
179271,-81.3008130081301,4,1,0,100,0,1
179332,-80.6451612903226,4,1,0,100,0,1
179393,-80,4,1,0,100,0,1
179454,-79.3650793650794,4,1,0,100,0,1
179515,-78.125,4,1,0,100,0,1
179576,-76.9230769230769,4,1,0,100,0,1
179637,-75.7575757575758,4,1,0,100,0,1
179698,-74.6268656716418,4,1,0,100,0,1
179759,-73.5294117647059,4,1,0,100,0,1
179820,-72.463768115942,4,1,0,100,0,1
179881,-71.4285714285714,4,1,0,100,0,1
179942,-70.4225352112676,4,1,0,100,0,1
180002,-69.4444444444444,4,1,0,100,0,1
180063,-68.4931506849315,4,1,0,100,0,1
180124,-67.5675675675676,4,1,0,100,0,1
180185,-66.6666666666667,4,1,0,100,0,1
180246,-65.7894736842105,4,1,0,100,0,1
180307,-64.9350649350649,4,1,0,100,0,1
180368,-64.1025641025641,4,1,0,100,0,1
180429,-63.2911392405063,4,1,0,100,0,1
180490,-62.5,4,1,0,100,0,1
180734,-90.9090909090909,4,1,0,100,0,1
183539,-95.2380952380952,4,1,0,100,0,1
183661,-100,4,1,0,100,0,1
183783,-105.263157894737,4,1,0,100,0,1
183905,-111.111111111111,4,1,0,100,0,1
184027,-117.647058823529,4,1,0,100,0,1
184149,-125,4,1,0,100,0,1
184271,-133.333333333333,4,1,0,100,0,1
184393,-83.3333333333333,4,1,0,100,0,1
184881,-71.4285714285714,4,1,0,100,0,1
184942,-72.463768115942,4,1,0,100,0,1
185002,-73.5294117647059,4,1,0,100,0,1
185063,-74.6268656716418,4,1,0,100,0,1
185124,-75.7575757575758,4,1,0,100,0,1
185185,-76.9230769230769,4,1,0,100,0,1
185246,-78.125,4,1,0,100,0,1
185307,-79.3650793650794,4,1,0,100,0,1
185368,-80.6451612903226,4,1,0,100,0,1
185429,-81.9672131147541,4,1,0,100,0,1
185490,-83.3333333333333,4,1,0,100,0,1
185551,-84.7457627118644,4,1,0,100,0,1
185612,-86.2068965517241,4,1,0,100,0,1
185673,-87.719298245614,4,1,0,100,0,1
185734,-89.2857142857143,4,1,0,100,0,1
185795,-90.9090909090909,4,1,0,100,0,1
185856,-92.5925925925926,4,1,0,100,0,1
185917,-94.3396226415094,4,1,0,100,0,1
185978,-96.1538461538461,4,1,0,100,0,1
186039,-98.0392156862745,4,1,0,100,0,1
186100,-100,4,1,0,100,0,1
186161,-102.040816326531,4,1,0,100,0,1
186222,-104.166666666667,4,1,0,100,0,1
186283,-106.382978723404,4,1,0,100,0,1
186344,-108.695652173913,4,1,0,100,0,0
188295,-133.333333333333,4,1,0,100,0,0

[HitObjects]
256,192,978,5,0,0:0:0:0:
256,192,2929,1,0,0:0:0:0:
256,192,3905,1,2,0:0:0:0:
256,192,4881,1,0,0:0:0:0:
256,192,6832,1,0,0:0:0:0:
256,192,7807,1,0,0:0:0:0:
256,192,7929,1,0,0:0:0:0:
256,192,8051,1,2,0:0:0:0:
256,192,8295,1,0,0:0:0:0:
256,192,8539,1,0,0:0:0:0:
256,192,8783,1,0,0:0:0:0:
256,192,9027,1,0,0:0:0:0:
256,192,9271,1,2,0:0:0:0:
256,192,9515,1,0,0:0:0:0:
256,192,9637,1,2,0:0:0:0:
256,192,9759,1,0,0:0:0:0:
256,192,9881,1,2,0:0:0:0:
256,192,10002,1,0,0:0:0:0:
256,192,10124,1,0,0:0:0:0:
256,192,10246,1,2,0:0:0:0:
256,192,10490,1,0,0:0:0:0:
256,192,10612,1,0,0:0:0:0:
256,192,10734,1,0,0:0:0:0:
256,192,10978,1,0,0:0:0:0:
256,192,11222,1,2,0:0:0:0:
256,192,11466,1,0,0:0:0:0:
256,192,11588,1,0,0:0:0:0:
256,192,11710,1,0,0:0:0:0:
256,192,11832,1,2,0:0:0:0:
256,192,11954,1,0,0:0:0:0:
256,192,12076,1,0,0:0:0:0:
256,192,12198,1,2,0:0:0:0:
256,192,12442,1,2,0:0:0:0:
256,192,12563,1,2,0:0:0:0:
256,192,12685,1,0,0:0:0:0:
256,192,12929,1,0,0:0:0:0:
256,192,13112,1,0,0:0:0:0:
256,192,13173,1,2,0:0:0:0:
256,192,13417,1,0,0:0:0:0:
256,192,13539,1,2,0:0:0:0:
256,192,13661,1,0,0:0:0:0:
256,192,13783,1,2,0:0:0:0:
256,192,13905,1,0,0:0:0:0:
256,192,14027,1,0,0:0:0:0:
256,192,14149,1,2,0:0:0:0:
256,192,14271,1,0,0:0:0:0:
256,192,14393,1,2,0:0:0:0:
256,192,14515,1,2,0:0:0:0:
256,192,14637,1,0,0:0:0:0:
256,192,14759,1,0,0:0:0:0:
256,192,14881,1,2,0:0:0:0:
256,192,15002,1,0,0:0:0:0:
256,192,15063,1,0,0:0:0:0:
256,192,15124,1,0,0:0:0:0:
256,192,15246,1,0,0:0:0:0:
256,192,15368,1,2,0:0:0:0:
256,192,15490,1,0,0:0:0:0:
256,192,15551,1,0,0:0:0:0:
256,192,15612,1,0,0:0:0:0:
256,192,15694,1,0,0:0:0:0:
256,192,15775,1,0,0:0:0:0:
256,192,15856,1,2,0:0:0:0:
256,192,15937,1,0,0:0:0:0:
256,192,16019,1,2,0:0:0:0:
256,192,16100,1,0,0:0:0:0:
256,192,16161,1,0,0:0:0:0:
256,192,16222,1,0,0:0:0:0:
256,192,16283,1,0,0:0:0:0:
256,192,16344,1,2,0:0:0:0:
256,192,16385,1,0,0:0:0:0:
256,192,16425,1,0,0:0:0:0:
256,192,16466,1,2,0:0:0:0:
256,192,16527,1,2,0:0:0:0:
256,192,16588,1,0,0:0:0:0:
256,192,16832,1,0,0:0:0:0:
256,192,17076,1,2,0:0:0:0:
256,192,17320,1,0,0:0:0:0:
256,192,17442,1,0,0:0:0:0:
256,192,17563,1,0,0:0:0:0:
256,192,17685,1,2,0:0:0:0:
256,192,17807,1,0,0:0:0:0:
256,192,17929,1,2,0:0:0:0:
256,192,18051,1,0,0:0:0:0:
256,192,18173,1,0,0:0:0:0:
256,192,18295,1,2,0:0:0:0:
256,192,18417,1,2,0:0:0:0:
256,192,18539,1,0,0:0:0:0:
256,192,18783,1,0,0:0:0:0:
256,192,18844,1,0,0:0:0:0:
256,192,18905,1,0,0:0:0:0:
256,192,18966,1,0,0:0:0:0:
256,192,19027,1,0,0:0:0:0:
256,192,19149,1,0,0:0:0:0:
256,192,19271,1,0,0:0:0:0:
256,192,19332,1,0,0:0:0:0:
256,192,19393,1,0,0:0:0:0:
256,192,19454,1,0,0:0:0:0:
256,192,19515,1,0,0:0:0:0:
256,192,19759,1,0,0:0:0:0:
256,192,19881,1,2,0:0:0:0:
256,192,20002,1,0,0:0:0:0:
256,192,20124,1,0,0:0:0:0:
256,192,20246,1,2,0:0:0:0:
256,192,20368,1,0,0:0:0:0:
256,192,20490,1,4,0:0:0:0:
256,192,20734,1,2,0:0:0:0:
256,192,20978,1,0,0:0:0:0:
256,192,21222,1,2,0:0:0:0:
256,192,21466,1,2,0:0:0:0:
256,192,21496,1,2,0:0:0:0:
256,192,21588,1,2,0:0:0:0:
256,192,21618,1,2,0:0:0:0:
256,192,21710,1,0,0:0:0:0:
256,192,21740,1,0,0:0:0:0:
256,192,21832,1,0,0:0:0:0:
256,192,21862,1,0,0:0:0:0:
256,192,21954,1,2,0:0:0:0:
256,192,21984,1,2,0:0:0:0:
256,192,22076,1,2,0:0:0:0:
256,192,22106,1,2,0:0:0:0:
256,192,22198,1,0,0:0:0:0:
256,192,22228,1,0,0:0:0:0:
256,192,22320,1,0,0:0:0:0:
256,192,22350,1,0,0:0:0:0:
256,192,22442,1,0,0:0:0:0:
256,192,22685,1,0,0:0:0:0:
256,192,22746,1,0,0:0:0:0:
256,192,22807,1,0,0:0:0:0:
256,192,22868,1,0,0:0:0:0:
256,192,22929,1,0,0:0:0:0:
256,192,23051,1,0,0:0:0:0:
256,192,23173,1,0,0:0:0:0:
256,192,23234,1,0,0:0:0:0:
256,192,23295,1,0,0:0:0:0:
256,192,23356,1,0,0:0:0:0:
256,192,23417,1,0,0:0:0:0:
256,192,23539,1,0,0:0:0:0:
256,192,23600,1,0,0:0:0:0:
256,192,23661,1,2,0:0:0:0:
256,192,23722,1,2,0:0:0:0:
256,192,23783,1,2,0:0:0:0:
256,192,23844,1,2,0:0:0:0:
256,192,23905,1,0,0:0:0:0:
256,192,23946,1,0,0:0:0:0:
256,192,23986,1,0,0:0:0:0:
256,192,24027,1,0,0:0:0:0:
256,192,24149,1,2,0:0:0:0:
256,192,24271,1,0,0:0:0:0:
256,192,24393,1,4,0:0:0:0:
256,192,24637,1,0,0:0:0:0:
256,192,24881,1,2,0:0:0:0:
256,192,25124,1,0,0:0:0:0:
256,192,25246,1,2,0:0:0:0:
256,192,25368,1,0,0:0:0:0:
256,192,25490,1,2,0:0:0:0:
256,192,25612,1,0,0:0:0:0:
256,192,25734,1,2,0:0:0:0:
256,192,25856,1,0,0:0:0:0:
256,192,25978,1,2,0:0:0:0:
256,192,26100,1,2,0:0:0:0:
256,192,26222,1,2,0:0:0:0:
256,192,26344,1,0,0:0:0:0:
256,192,26588,1,0,0:0:0:0:
256,192,26649,1,0,0:0:0:0:
256,192,26710,1,0,0:0:0:0:
256,192,26771,1,0,0:0:0:0:
256,192,26832,1,0,0:0:0:0:
256,192,26954,1,0,0:0:0:0:
256,192,27076,1,0,0:0:0:0:
256,192,27137,1,0,0:0:0:0:
256,192,27198,1,0,0:0:0:0:
256,192,27259,1,0,0:0:0:0:
256,192,27320,1,0,0:0:0:0:
256,192,27563,1,0,0:0:0:0:
256,192,27685,1,2,0:0:0:0:
256,192,27807,1,0,0:0:0:0:
256,192,27929,1,0,0:0:0:0:
256,192,28051,1,2,0:0:0:0:
256,192,28173,1,2,0:0:0:0:
256,192,28295,1,4,0:0:0:0:
256,192,28539,1,0,0:0:0:0:
256,192,28783,1,0,0:0:0:0:
256,192,28905,1,0,0:0:0:0:
256,192,28966,1,0,0:0:0:0:
256,192,29027,1,0,0:0:0:0:
256,192,29149,1,0,0:0:0:0:
256,192,29271,1,0,0:0:0:0:
256,192,29393,1,2,0:0:0:0:
256,192,29423,1,2,0:0:0:0:
256,192,29515,1,2,0:0:0:0:
256,192,29545,1,2,0:0:0:0:
256,192,29637,1,2,0:0:0:0:
256,192,29667,1,2,0:0:0:0:
256,192,29759,1,0,0:0:0:0:
256,192,29881,1,2,0:0:0:0:
256,192,29911,1,2,0:0:0:0:
256,192,30002,1,0,0:0:0:0:
256,192,30033,1,0,0:0:0:0:
256,192,30124,1,0,0:0:0:0:
256,192,30155,1,0,0:0:0:0:
256,192,30247,1,0,0:0:0:0:
256,192,30490,1,2,0:0:0:0:
256,192,30612,1,0,0:0:0:0:
256,192,30856,1,2,0:0:0:0:
256,192,30978,1,0,0:0:0:0:
256,192,31222,1,0,0:0:0:0:
256,192,31344,1,0,0:0:0:0:
256,192,31466,1,2,0:0:0:0:
256,192,31527,1,2,0:0:0:0:
256,192,31588,1,2,0:0:0:0:
256,192,31649,1,2,0:0:0:0:
256,192,31710,1,2,0:0:0:0:
256,192,31771,1,0,0:0:0:0:
256,192,31832,1,0,0:0:0:0:
256,192,31893,1,0,0:0:0:0:
256,192,31954,1,0,0:0:0:0:
256,192,31994,1,0,0:0:0:0:
256,192,32035,1,0,0:0:0:0:
256,192,32076,1,2,0:0:0:0:
256,192,32198,1,4,0:0:0:0:
256,192,32442,1,0,0:0:0:0:
256,192,32685,1,2,0:0:0:0:
256,192,32929,1,0,0:0:0:0:
256,192,33051,1,0,0:0:0:0:
256,192,33173,1,0,0:0:0:0:
256,192,33295,1,2,0:0:0:0:
256,192,33417,1,0,0:0:0:0:
256,192,33539,1,2,0:0:0:0:
256,192,33661,1,0,0:0:0:0:
256,192,33783,1,0,0:0:0:0:
256,192,33905,1,2,0:0:0:0:
256,192,34027,1,2,0:0:0:0:
256,192,34149,1,0,0:0:0:0:
256,192,34393,1,2,0:0:0:0:
256,192,34454,1,2,0:0:0:0:
256,192,34515,1,2,0:0:0:0:
256,192,34576,1,2,0:0:0:0:
256,192,34637,1,0,0:0:0:0:
256,192,34759,1,0,0:0:0:0:
256,192,34881,1,2,0:0:0:0:
256,192,34942,1,0,0:0:0:0:
256,192,35002,1,0,0:0:0:0:
256,192,35063,1,0,0:0:0:0:
256,192,35124,1,2,0:0:0:0:
256,192,35368,1,0,0:0:0:0:
256,192,35490,1,2,0:0:0:0:
256,192,35612,1,0,0:0:0:0:
256,192,35734,1,0,0:0:0:0:
256,192,35856,1,2,0:0:0:0:
256,192,35978,1,0,0:0:0:0:
256,192,36100,1,4,0:0:0:0:
256,192,36344,1,2,0:0:0:0:
256,192,36588,1,0,0:0:0:0:
256,192,36832,1,2,0:0:0:0:
256,192,37076,1,2,0:0:0:0:
256,192,37106,1,2,0:0:0:0:
256,192,37198,1,2,0:0:0:0:
256,192,37228,1,2,0:0:0:0:
256,192,37320,1,0,0:0:0:0:
256,192,37350,1,0,0:0:0:0:
256,192,37442,1,0,0:0:0:0:
256,192,37472,1,0,0:0:0:0:
256,192,37564,1,2,0:0:0:0:
256,192,37594,1,2,0:0:0:0:
256,192,37686,1,2,0:0:0:0:
256,192,37716,1,2,0:0:0:0:
256,192,37808,1,0,0:0:0:0:
256,192,37838,1,0,0:0:0:0:
256,192,37930,1,0,0:0:0:0:
256,192,37960,1,0,0:0:0:0:
256,192,38052,1,0,0:0:0:0:
256,192,38295,1,2,0:0:0:0:
256,192,38356,1,2,0:0:0:0:
256,192,38417,1,2,0:0:0:0:
256,192,38478,1,2,0:0:0:0:
256,192,38539,1,0,0:0:0:0:
256,192,38661,1,0,0:0:0:0:
256,192,38783,1,2,0:0:0:0:
256,192,38844,1,2,0:0:0:0:
256,192,38905,1,2,0:0:0:0:
256,192,38966,1,2,0:0:0:0:
256,192,39027,1,0,0:0:0:0:
256,192,39149,1,0,0:0:0:0:
256,192,39210,1,0,0:0:0:0:
256,192,39271,1,2,0:0:0:0:
256,192,39332,1,0,0:0:0:0:
256,192,39393,1,2,0:0:0:0:
256,192,39454,1,2,0:0:0:0:
256,192,39515,1,0,0:0:0:0:
256,192,39555,1,0,0:0:0:0:
256,192,39596,1,0,0:0:0:0:
256,192,39637,1,2,0:0:0:0:
256,192,39759,1,2,0:0:0:0:
256,192,39881,1,0,0:0:0:0:
256,192,40002,1,4,0:0:0:0:
256,192,40246,1,0,0:0:0:0:
256,192,40490,1,2,0:0:0:0:
256,192,40734,1,0,0:0:0:0:
256,192,40856,1,2,0:0:0:0:
256,192,40978,1,0,0:0:0:0:
256,192,41100,1,2,0:0:0:0:
256,192,41222,1,0,0:0:0:0:
256,192,41344,1,2,0:0:0:0:
256,192,41466,1,0,0:0:0:0:
256,192,41588,1,2,0:0:0:0:
256,192,41710,1,2,0:0:0:0:
256,192,41832,1,2,0:0:0:0:
256,192,41954,1,0,0:0:0:0:
256,192,42198,1,2,0:0:0:0:
256,192,42259,1,2,0:0:0:0:
256,192,42320,1,0,0:0:0:0:
256,192,42381,1,0,0:0:0:0:
256,192,42442,1,0,0:0:0:0:
256,192,42563,1,0,0:0:0:0:
256,192,42685,1,2,0:0:0:0:
256,192,42746,1,2,0:0:0:0:
256,192,42807,1,0,0:0:0:0:
256,192,42868,1,0,0:0:0:0:
256,192,42929,1,2,0:0:0:0:
256,192,43173,1,0,0:0:0:0:
256,192,43295,1,2,0:0:0:0:
256,192,43417,1,0,0:0:0:0:
256,192,43539,1,0,0:0:0:0:
256,192,43661,1,2,0:0:0:0:
256,192,43783,1,2,0:0:0:0:
256,192,43905,1,4,0:0:0:0:
256,192,44149,1,0,0:0:0:0:
256,192,44393,1,2,0:0:0:0:
256,192,44515,1,0,0:0:0:0:
256,192,44576,1,0,0:0:0:0:
256,192,44637,1,2,0:0:0:0:
256,192,44759,1,2,0:0:0:0:
256,192,44881,1,0,0:0:0:0:
256,192,45003,1,2,0:0:0:0:
256,192,45033,1,2,0:0:0:0:
256,192,45125,1,2,0:0:0:0:
256,192,45155,1,2,0:0:0:0:
256,192,45247,1,2,0:0:0:0:
256,192,45277,1,2,0:0:0:0:
256,192,45369,1,0,0:0:0:0:
256,192,45491,1,2,0:0:0:0:
256,192,45521,1,2,0:0:0:0:
256,192,45612,1,0,0:0:0:0:
256,192,45643,1,0,0:0:0:0:
256,192,45734,1,0,0:0:0:0:
256,192,45765,1,0,0:0:0:0:
256,192,45857,1,0,0:0:0:0:
256,192,46100,1,0,0:0:0:0:
256,192,46222,1,0,0:0:0:0:
256,192,46344,1,2,0:0:0:0:
256,192,46588,1,0,0:0:0:0:
256,192,46710,1,2,0:0:0:0:
256,192,46954,1,2,0:0:0:0:
256,192,47076,1,0,0:0:0:0:
256,192,47320,1,0,0:0:0:0:
256,192,47401,1,0,0:0:0:0:
256,192,47482,1,0,0:0:0:0:
256,192,47563,1,2,0:0:0:0:
256,192,47645,1,2,0:0:0:0:
256,192,47726,1,2,0:0:0:0:
256,192,47807,1,0,0:0:0:0:
256,192,48051,1,2,0:0:0:0:
256,192,48173,1,2,0:0:0:0:
256,192,48295,1,0,0:0:0:0:
256,192,48539,1,2,0:0:0:0:
256,192,48783,1,0,0:0:0:0:
256,192,49027,1,2,0:0:0:0:
256,192,49149,1,2,0:0:0:0:
256,192,49271,1,0,0:0:0:0:
256,192,49515,1,2,0:0:0:0:
256,192,49759,1,2,0:0:0:0:
256,192,50002,1,0,0:0:0:0:
256,192,50124,1,2,0:0:0:0:
256,192,50246,1,0,0:0:0:0:
256,192,50490,1,2,0:0:0:0:
256,192,50734,1,0,0:0:0:0:
256,192,50978,1,0,0:0:0:0:
256,192,51100,1,2,0:0:0:0:
256,192,51466,1,2,0:0:0:0:
256,192,51527,1,2,0:0:0:0:
256,192,51588,1,2,0:0:0:0:
256,192,51649,1,2,0:0:0:0:
256,192,51710,1,0,0:0:0:0:
256,192,51954,1,2,0:0:0:0:
256,192,52076,1,2,0:0:0:0:
256,192,52198,1,0,0:0:0:0:
256,192,52442,1,2,0:0:0:0:
256,192,52685,1,0,0:0:0:0:
256,192,52929,1,2,0:0:0:0:
256,192,53051,1,2,0:0:0:0:
256,192,53173,1,0,0:0:0:0:
256,192,53417,1,2,0:0:0:0:
256,192,53661,1,0,0:0:0:0:
256,192,53783,1,0,0:0:0:0:
256,192,53905,1,0,0:0:0:0:
256,192,54027,1,0,0:0:0:0:
256,192,54149,1,0,0:0:0:0:
256,192,54271,1,0,0:0:0:0:
256,192,54393,1,0,0:0:0:0:
256,192,54515,1,0,0:0:0:0:
256,192,54637,1,6,0:0:0:0:
256,192,55124,1,2,0:0:0:0:
256,192,55185,1,2,0:0:0:0:
256,192,55246,1,2,0:0:0:0:
256,192,55307,1,2,0:0:0:0:
256,192,55368,1,0,0:0:0:0:
256,192,55429,1,0,0:0:0:0:
256,192,55490,1,0,0:0:0:0:
256,192,55612,1,0,0:0:0:0:
256,192,55673,1,0,0:0:0:0:
256,192,55734,1,2,0:0:0:0:
256,192,55856,1,2,0:0:0:0:
256,192,55978,1,2,0:0:0:0:
256,192,56100,1,0,0:0:0:0:
256,192,56344,1,2,0:0:0:0:
256,192,56405,1,2,0:0:0:0:
256,192,56466,1,2,0:0:0:0:
256,192,56588,1,0,0:0:0:0:
256,192,56649,1,0,0:0:0:0:
256,192,56710,1,2,0:0:0:0:
256,192,56832,1,2,0:0:0:0:
256,192,56954,1,2,0:0:0:0:
256,192,57015,1,2,0:0:0:0:
256,192,57076,1,0,0:0:0:0:
256,192,57320,1,2,0:0:0:0:
256,192,57381,1,2,0:0:0:0:
256,192,57442,1,2,0:0:0:0:
256,192,57563,1,0,0:0:0:0:
256,192,57624,1,0,0:0:0:0:
256,192,57685,1,2,0:0:0:0:
256,192,57807,1,2,0:0:0:0:
256,192,57929,1,2,0:0:0:0:
256,192,58051,1,0,0:0:0:0:
256,192,58295,1,2,0:0:0:0:
256,192,58356,1,2,0:0:0:0:
256,192,58417,1,2,0:0:0:0:
256,192,58539,1,0,0:0:0:0:
256,192,58600,1,0,0:0:0:0:
256,192,58661,1,2,0:0:0:0:
256,192,58783,1,2,0:0:0:0:
256,192,58905,1,0,0:0:0:0:
256,192,58966,1,0,0:0:0:0:
256,192,59027,1,6,0:0:0:0:
256,192,59149,1,4,0:0:0:0:
256,192,59271,1,6,0:0:0:0:
256,192,59393,1,4,0:0:0:0:
256,188,59515,1,2,0:0:0:0:
256,188,59637,1,0,0:0:0:0:
256,188,59698,1,0,0:0:0:0:
256,188,59759,1,2,0:0:0:0:
256,188,59881,1,0,0:0:0:0:
256,188,60002,1,2,0:0:0:0:
256,188,60124,1,0,0:0:0:0:
256,188,60185,1,0,0:0:0:0:
256,188,60246,1,2,0:0:0:0:
256,188,60368,1,0,0:0:0:0:
256,188,60490,1,2,0:0:0:0:
256,188,60612,1,0,0:0:0:0:
256,188,60673,1,0,0:0:0:0:
256,188,60734,1,2,0:0:0:0:
256,188,60856,1,0,0:0:0:0:
256,188,60978,1,2,0:0:0:0:
256,188,61100,1,0,0:0:0:0:
256,188,61161,1,0,0:0:0:0:
256,188,61222,1,2,0:0:0:0:
256,188,61344,1,0,0:0:0:0:
256,188,61466,1,0,0:0:0:0:
256,188,61527,1,0,0:0:0:0:
256,188,61588,1,2,0:0:0:0:
256,188,61649,1,2,0:0:0:0:
256,188,61710,1,2,0:0:0:0:
256,188,61771,1,2,0:0:0:0:
256,188,61832,1,2,0:0:0:0:
256,188,61893,1,2,0:0:0:0:
256,188,61954,1,2,0:0:0:0:
256,188,62015,1,2,0:0:0:0:
256,188,62076,1,2,0:0:0:0:
256,188,62137,1,2,0:0:0:0:
256,188,62198,1,2,0:0:0:0:
256,188,62259,1,2,0:0:0:0:
256,188,62320,1,2,0:0:0:0:
256,188,62381,1,2,0:0:0:0:
256,188,62442,1,2,0:0:0:0:
256,188,62929,1,6,0:0:0:0:
256,188,63417,1,4,0:0:0:0:
256,188,63661,1,2,0:0:0:0:
256,188,63702,1,2,0:0:0:0:
256,188,63742,1,2,0:0:0:0:
256,188,63783,1,2,0:0:0:0:
256,188,63905,1,0,0:0:0:0:
256,188,63966,1,0,0:0:0:0:
256,188,64027,1,0,0:0:0:0:
256,188,64088,1,0,0:0:0:0:
256,188,64149,1,2,0:0:0:0:
256,188,64210,1,2,0:0:0:0:
256,188,64271,1,0,0:0:0:0:
256,188,64332,1,2,0:0:0:0:
256,188,64393,1,0,0:0:0:0:
256,188,64515,1,0,0:0:0:0:
256,188,64576,1,0,0:0:0:0:
256,188,64637,1,2,0:0:0:0:
256,188,64698,1,2,0:0:0:0:
256,188,64759,1,2,0:0:0:0:
256,188,64820,1,2,0:0:0:0:
256,188,64881,1,0,0:0:0:0:
256,188,65124,1,0,0:0:0:0:
256,188,65368,1,0,0:0:0:0:
256,188,65612,1,2,0:0:0:0:
256,188,65653,1,0,0:0:0:0:
256,188,65694,1,0,0:0:0:0:
256,188,65734,1,0,0:0:0:0:
256,188,65795,1,0,0:0:0:0:
256,188,65856,1,2,0:0:0:0:
256,188,66100,1,0,0:0:0:0:
256,188,66344,1,0,0:0:0:0:
256,188,66466,1,2,0:0:0:0:
256,188,66588,1,0,0:0:0:0:
256,188,66710,1,0,0:0:0:0:
256,188,66832,1,0,0:0:0:0:
256,188,66893,1,0,0:0:0:0:
256,188,66954,1,0,0:0:0:0:
256,188,67015,1,0,0:0:0:0:
256,188,67076,1,2,0:0:0:0:
256,188,67137,1,2,0:0:0:0:
256,188,67198,1,2,0:0:0:0:
256,188,67259,1,2,0:0:0:0:
256,188,67320,1,0,0:0:0:0:
256,188,67563,1,2,0:0:0:0:
256,188,67685,1,0,0:0:0:0:
256,188,67807,1,2,0:0:0:0:
256,188,68051,1,2,0:0:0:0:
256,188,68092,1,2,0:0:0:0:
256,188,68133,1,2,0:0:0:0:
256,188,68173,1,2,0:0:0:0:
256,188,68295,1,0,0:0:0:0:
256,188,68539,1,2,0:0:0:0:
256,188,68580,1,2,0:0:0:0:
256,188,68620,1,2,0:0:0:0:
256,188,68661,1,2,0:0:0:0:
256,188,68783,1,0,0:0:0:0:
256,188,68864,1,0,0:0:0:0:
256,188,68946,1,0,0:0:0:0:
256,188,69027,1,2,0:0:0:0:
256,188,69108,1,2,0:0:0:0:
256,188,69189,1,0,0:0:0:0:
256,188,69271,1,2,0:0:0:0:
256,188,69393,1,2,0:0:0:0:
256,188,69515,1,0,0:0:0:0:
256,188,69637,1,2,0:0:0:0:
256,188,69759,1,0,0:0:0:0:
256,188,69881,1,0,0:0:0:0:
256,188,70002,1,2,0:0:0:0:
256,188,70124,1,2,0:0:0:0:
256,188,70246,1,0,0:0:0:0:
256,188,70328,1,0,0:0:0:0:
256,188,70409,1,0,0:0:0:0:
256,188,70490,1,2,0:0:0:0:
256,188,70572,1,0,0:0:0:0:
256,188,70653,1,2,0:0:0:0:
256,188,70734,1,0,0:0:0:0:
256,188,70816,1,2,0:0:0:0:
256,188,70897,1,2,0:0:0:0:
256,188,70978,1,0,0:0:0:0:
256,188,71059,1,2,0:0:0:0:
256,188,71141,1,2,0:0:0:0:
256,188,71222,1,4,0:0:0:0:
256,188,71466,1,0,0:0:0:0:
256,188,71507,1,0,0:0:0:0:
256,188,71547,1,0,0:0:0:0:
256,188,71588,1,0,0:0:0:0:
256,188,71710,1,2,0:0:0:0:
256,188,71954,1,0,0:0:0:0:
256,188,72076,1,0,0:0:0:0:
256,188,72137,1,0,0:0:0:0:
256,188,72198,1,0,0:0:0:0:
256,188,72442,1,6,0:0:0:0:
256,188,72685,1,0,0:0:0:0:
256,192,72929,12,0,73051,0:0:0:0:
256,188,73173,5,0,0:0:0:0:
256,188,73539,1,0,0:0:0:0:
256,188,73661,1,2,0:0:0:0:
256,188,73905,1,0,0:0:0:0:
256,188,73966,1,0,0:0:0:0:
256,188,74027,1,0,0:0:0:0:
256,188,74088,1,0,0:0:0:0:
256,188,74149,1,0,0:0:0:0:
256,188,74271,1,2,0:0:0:0:
256,188,74393,1,2,0:0:0:0:
256,188,74515,1,2,0:0:0:0:
256,188,74637,1,0,0:0:0:0:
256,188,74759,1,2,0:0:0:0:
256,188,74881,1,2,0:0:0:0:
256,188,75002,1,2,0:0:0:0:
256,188,75124,1,0,0:0:0:0:
256,188,75206,1,2,0:0:0:0:
256,188,75287,1,0,0:0:0:0:
256,188,75368,1,2,0:0:0:0:
256,188,75612,1,2,0:0:0:0:
256,188,75673,1,2,0:0:0:0:
256,188,75734,1,0,0:0:0:0:
256,188,75795,1,0,0:0:0:0:
256,188,75856,1,2,0:0:0:0:
256,188,75917,1,2,0:0:0:0:
256,188,75978,1,2,0:0:0:0:
256,188,76039,1,0,0:0:0:0:
256,188,76100,1,2,0:0:0:0:
256,188,76161,1,0,0:0:0:0:
256,188,76222,1,0,0:0:0:0:
256,188,76283,1,0,0:0:0:0:
256,188,76344,1,2,0:0:0:0:
256,188,76405,1,2,0:0:0:0:
256,188,76466,1,0,0:0:0:0:
256,188,76527,1,0,0:0:0:0:
256,188,76588,1,2,0:0:0:0:
256,188,76649,1,0,0:0:0:0:
256,188,76710,1,0,0:0:0:0:
256,188,76771,1,0,0:0:0:0:
256,188,76832,1,2,0:0:0:0:
256,188,76893,1,2,0:0:0:0:
256,188,76954,1,0,0:0:0:0:
256,188,77015,1,0,0:0:0:0:
256,188,77076,1,0,0:0:0:0:
256,188,77320,1,2,0:0:0:0:
256,188,77442,1,0,0:0:0:0:
256,188,77685,1,2,0:0:0:0:
256,188,77929,1,0,0:0:0:0:
256,188,78173,1,2,0:0:0:0:
256,188,78295,1,0,0:0:0:0:
256,188,78417,1,0,0:0:0:0:
256,188,78539,1,0,0:0:0:0:
256,188,78661,1,2,0:0:0:0:
256,188,78783,1,6,0:0:0:0:
256,188,79027,1,4,0:0:0:0:
256,188,79271,1,2,0:0:0:0:
256,188,79311,1,2,0:0:0:0:
256,188,79352,1,2,0:0:0:0:
256,188,79393,1,2,0:0:0:0:
256,188,79515,1,0,0:0:0:0:
256,188,79576,1,0,0:0:0:0:
256,188,79637,1,0,0:0:0:0:
256,188,79698,1,0,0:0:0:0:
256,188,79759,1,2,0:0:0:0:
256,188,79820,1,2,0:0:0:0:
256,188,79881,1,0,0:0:0:0:
256,188,79942,1,2,0:0:0:0:
256,188,80002,1,0,0:0:0:0:
256,188,80124,1,0,0:0:0:0:
256,188,80185,1,0,0:0:0:0:
256,188,80246,1,2,0:0:0:0:
256,188,80287,1,2,0:0:0:0:
256,188,80328,1,2,0:0:0:0:
256,188,80368,1,2,0:0:0:0:
256,188,80429,1,2,0:0:0:0:
256,188,80490,1,0,0:0:0:0:
256,188,80734,1,0,0:0:0:0:
256,188,80978,1,0,0:0:0:0:
256,188,81222,1,2,0:0:0:0:
256,188,81263,1,0,0:0:0:0:
256,188,81303,1,0,0:0:0:0:
256,188,81344,1,0,0:0:0:0:
256,188,81405,1,0,0:0:0:0:
256,188,81466,1,2,0:0:0:0:
256,188,81710,1,0,0:0:0:0:
256,188,81954,1,0,0:0:0:0:
256,188,82076,1,2,0:0:0:0:
256,188,82198,1,0,0:0:0:0:
256,188,82320,1,0,0:0:0:0:
256,188,82442,1,0,0:0:0:0:
256,188,82502,1,0,0:0:0:0:
256,188,82563,1,0,0:0:0:0:
256,188,82624,1,0,0:0:0:0:
256,188,82685,1,2,0:0:0:0:
256,188,82746,1,2,0:0:0:0:
256,188,82807,1,2,0:0:0:0:
256,188,82868,1,2,0:0:0:0:
256,188,82929,1,0,0:0:0:0:
256,188,83173,1,2,0:0:0:0:
256,188,83295,1,2,0:0:0:0:
256,188,83417,1,2,0:0:0:0:
256,188,83661,1,2,0:0:0:0:
256,188,83702,1,2,0:0:0:0:
256,188,83742,1,2,0:0:0:0:
256,188,83783,1,2,0:0:0:0:
256,188,83905,1,0,0:0:0:0:
256,188,84149,1,0,0:0:0:0:
256,188,84189,1,0,0:0:0:0:
256,188,84230,1,0,0:0:0:0:
256,188,84271,1,0,0:0:0:0:
256,188,84393,1,0,0:0:0:0:
256,188,84474,1,0,0:0:0:0:
256,188,84555,1,0,0:0:0:0:
256,188,84637,1,2,0:0:0:0:
256,188,84718,1,2,0:0:0:0:
256,188,84799,1,0,0:0:0:0:
256,188,84881,1,2,0:0:0:0:
256,188,85002,1,2,0:0:0:0:
256,188,85124,1,0,0:0:0:0:
256,188,85246,1,2,0:0:0:0:
256,188,85368,1,0,0:0:0:0:
256,188,85429,1,0,0:0:0:0:
256,188,85490,1,0,0:0:0:0:
256,188,85551,1,0,0:0:0:0:
256,188,85612,1,2,0:0:0:0:
256,188,85673,1,2,0:0:0:0:
256,188,85734,1,0,0:0:0:0:
256,188,85795,1,2,0:0:0:0:
256,188,85856,1,0,0:0:0:0:
256,188,85917,1,0,0:0:0:0:
256,188,85978,1,2,0:0:0:0:
256,188,86039,1,0,0:0:0:0:
256,188,86100,1,2,0:0:0:0:
256,188,86161,1,2,0:0:0:0:
256,188,86222,1,0,0:0:0:0:
256,188,86283,1,2,0:0:0:0:
256,188,86344,1,0,0:0:0:0:
256,188,86405,1,0,0:0:0:0:
256,188,86466,1,2,0:0:0:0:
256,188,86527,1,2,0:0:0:0:
256,188,86588,1,0,0:0:0:0:
256,188,86649,1,2,0:0:0:0:
256,188,86710,1,2,0:0:0:0:
256,188,86771,1,2,0:0:0:0:
256,188,86832,1,0,0:0:0:0:
256,188,87076,1,0,0:0:0:0:
256,188,87116,1,0,0:0:0:0:
256,188,87157,1,0,0:0:0:0:
256,188,87198,1,0,0:0:0:0:
256,188,87320,1,2,0:0:0:0:
256,188,87563,1,0,0:0:0:0:
256,188,87685,1,0,0:0:0:0:
256,188,87746,1,0,0:0:0:0:
256,188,87807,1,0,0:0:0:0:
256,188,88051,1,6,0:0:0:0:
256,188,88295,1,0,0:0:0:0:
256,192,88539,12,0,88661,0:0:0:0:
256,188,88783,5,0,0:0:0:0:
256,188,89027,1,2,0:0:0:0:
256,188,89068,1,2,0:0:0:0:
256,188,89108,1,2,0:0:0:0:
256,188,89149,1,0,0:0:0:0:
256,188,89271,1,2,0:0:0:0:
256,188,89515,1,0,0:0:0:0:
256,188,89576,1,0,0:0:0:0:
256,188,89637,1,0,0:0:0:0:
256,188,89698,1,0,0:0:0:0:
256,188,89759,1,0,0:0:0:0:
256,188,89881,1,2,0:0:0:0:
256,188,90002,1,2,0:0:0:0:
256,188,90124,1,2,0:0:0:0:
256,188,90246,1,0,0:0:0:0:
256,188,90368,1,2,0:0:0:0:
256,188,90490,1,2,0:0:0:0:
256,188,90612,1,0,0:0:0:0:
256,188,90734,1,4,0:0:0:0:
256,188,90897,1,4,0:0:0:0:
256,188,91059,1,4,0:0:0:0:
256,188,91222,1,2,0:0:0:0:
256,188,91283,1,2,0:0:0:0:
256,188,91344,1,2,0:0:0:0:
256,188,91405,1,0,0:0:0:0:
256,188,91466,1,2,0:0:0:0:
256,188,91527,1,2,0:0:0:0:
256,188,91588,1,0,0:0:0:0:
256,188,91649,1,0,0:0:0:0:
256,188,91710,1,2,0:0:0:0:
256,188,91771,1,0,0:0:0:0:
256,188,91832,1,0,0:0:0:0:
256,188,91893,1,0,0:0:0:0:
256,188,91954,1,2,0:0:0:0:
256,188,92015,1,2,0:0:0:0:
256,188,92076,1,0,0:0:0:0:
256,188,92137,1,0,0:0:0:0:
256,188,92198,1,2,0:0:0:0:
256,188,92259,1,2,0:0:0:0:
256,188,92320,1,0,0:0:0:0:
256,188,92381,1,0,0:0:0:0:
256,188,92442,1,2,0:0:0:0:
256,188,92502,1,0,0:0:0:0:
256,188,92563,1,0,0:0:0:0:
256,188,92624,1,0,0:0:0:0:
256,188,92685,1,0,0:0:0:0:
256,188,92929,1,2,0:0:0:0:
256,188,93051,1,0,0:0:0:0:
256,188,93295,1,2,0:0:0:0:
256,188,93539,1,0,0:0:0:0:
256,188,93783,1,2,0:0:0:0:
256,188,93905,1,0,0:0:0:0:
256,188,94027,1,0,0:0:0:0:
256,188,94149,1,6,0:0:0:0:
256,188,94271,1,6,0:0:0:0:
256,188,94393,1,6,0:0:0:0:
256,188,94515,1,6,0:0:0:0:
256,188,94637,1,0,0:0:0:0:
256,188,94881,1,0,0:0:0:0:
256,188,95124,1,2,0:0:0:0:
256,188,95368,1,0,0:0:0:0:
256,188,95490,1,0,0:0:0:0:
256,188,95551,1,0,0:0:0:0:
256,188,95612,1,0,0:0:0:0:
256,188,95856,1,0,0:0:0:0:
256,188,95978,1,0,0:0:0:0:
256,188,96100,1,2,0:0:0:0:
256,188,96222,1,0,0:0:0:0:
256,188,96344,1,0,0:0:0:0:
256,188,96588,1,0,0:0:0:0:
256,188,96832,1,0,0:0:0:0:
256,188,97076,1,2,0:0:0:0:
256,188,97320,1,0,0:0:0:0:
256,188,97442,1,2,0:0:0:0:
256,188,97502,1,2,0:0:0:0:
256,188,97563,1,0,0:0:0:0:
256,188,97807,1,2,0:0:0:0:
256,188,97929,1,0,0:0:0:0:
256,188,98051,1,2,0:0:0:0:
256,188,98173,1,2,0:0:0:0:
256,188,98295,1,0,0:0:0:0:
256,188,98539,1,0,0:0:0:0:
256,188,98783,1,0,0:0:0:0:
256,188,99027,1,2,0:0:0:0:
256,188,99271,1,2,0:0:0:0:
256,188,99393,1,2,0:0:0:0:
256,188,99454,1,2,0:0:0:0:
256,188,99515,1,0,0:0:0:0:
256,188,99759,1,0,0:0:0:0:
256,188,99881,1,0,0:0:0:0:
256,188,100002,1,2,0:0:0:0:
256,188,100124,1,2,0:0:0:0:
256,188,100246,1,0,0:0:0:0:
256,188,100490,1,2,0:0:0:0:
256,188,100612,1,2,0:0:0:0:
256,188,100734,1,0,0:0:0:0:
256,188,100856,1,2,0:0:0:0:
256,188,100978,1,2,0:0:0:0:
256,188,101100,1,0,0:0:0:0:
256,188,101222,1,2,0:0:0:0:
256,188,101344,1,0,0:0:0:0:
256,188,101466,1,0,0:0:0:0:
256,188,101588,1,2,0:0:0:0:
256,188,101710,1,0,0:0:0:0:
256,188,101832,1,0,0:0:0:0:
256,188,101893,1,0,0:0:0:0:
256,188,101954,1,2,0:0:0:0:
256,188,102076,1,0,0:0:0:0:
256,188,102198,1,2,0:0:0:0:
256,188,102320,1,0,0:0:0:0:
256,188,102442,1,0,0:0:0:0:
256,188,102685,1,0,0:0:0:0:
256,188,102929,1,2,0:0:0:0:
256,188,103173,1,0,0:0:0:0:
256,188,103295,1,0,0:0:0:0:
256,188,103356,1,0,0:0:0:0:
256,188,103417,1,0,0:0:0:0:
256,188,103539,1,0,0:0:0:0:
256,188,103661,1,0,0:0:0:0:
256,188,103783,1,0,0:0:0:0:
256,188,103905,1,2,0:0:0:0:
256,188,104149,1,0,0:0:0:0:
256,188,104393,1,0,0:0:0:0:
256,188,104637,1,0,0:0:0:0:
256,188,104881,1,2,0:0:0:0:
256,188,105124,1,0,0:0:0:0:
256,188,105246,1,0,0:0:0:0:
256,188,105307,1,0,0:0:0:0:
256,188,105368,1,0,0:0:0:0:
256,188,105429,1,2,0:0:0:0:
256,188,105490,1,2,0:0:0:0:
256,188,105612,1,0,0:0:0:0:
256,188,105734,1,0,0:0:0:0:
256,188,105856,1,0,0:0:0:0:
256,188,106100,1,0,0:0:0:0:
256,188,106222,1,0,0:0:0:0:
256,188,106344,1,0,0:0:0:0:
256,188,106588,1,0,0:0:0:0:
256,188,106832,1,2,0:0:0:0:
256,188,107076,1,0,0:0:0:0:
256,188,107198,1,0,0:0:0:0:
256,188,107259,1,0,0:0:0:0:
256,188,107320,1,0,0:0:0:0:
256,188,107442,1,0,0:0:0:0:
256,188,107563,1,0,0:0:0:0:
256,188,107685,1,0,0:0:0:0:
256,188,107807,1,2,0:0:0:0:
256,188,107929,1,0,0:0:0:0:
256,188,108051,1,0,0:0:0:0:
256,188,108173,1,0,0:0:0:0:
256,188,108295,1,2,0:0:0:0:
256,188,108417,1,0,0:0:0:0:
256,188,108539,1,0,0:0:0:0:
256,188,108661,1,2,0:0:0:0:
256,188,108783,1,0,0:0:0:0:
256,188,108905,1,0,0:0:0:0:
256,188,109027,1,2,0:0:0:0:
256,188,109149,1,0,0:0:0:0:
256,188,109271,1,2,0:0:0:0:
256,188,109393,1,2,0:0:0:0:
256,188,109454,1,2,0:0:0:0:
256,188,109515,1,0,0:0:0:0:
256,188,109759,1,0,0:0:0:0:
256,188,110002,1,6,0:0:0:0:
256,188,110246,1,4,0:0:0:0:
256,192,110490,1,0,0:0:0:0:
256,192,110734,1,2,0:0:0:0:
256,192,110978,1,0,0:0:0:0:
256,192,111100,1,0,0:0:0:0:
256,192,111222,1,0,0:0:0:0:
256,192,111344,1,2,0:0:0:0:
256,192,111466,1,0,0:0:0:0:
256,192,111588,1,2,0:0:0:0:
256,192,111710,1,0,0:0:0:0:
256,192,111832,1,0,0:0:0:0:
256,192,111954,1,2,0:0:0:0:
256,192,112076,1,2,0:0:0:0:
256,192,112198,1,0,0:0:0:0:
256,192,112442,1,2,0:0:0:0:
256,192,112502,1,2,0:0:0:0:
256,192,112563,1,2,0:0:0:0:
256,192,112624,1,2,0:0:0:0:
256,192,112685,1,2,0:0:0:0:
256,192,112807,1,0,0:0:0:0:
256,192,112929,1,2,0:0:0:0:
256,192,112990,1,0,0:0:0:0:
256,192,113051,1,0,0:0:0:0:
256,192,113112,1,0,0:0:0:0:
256,192,113173,1,2,0:0:0:0:
256,192,113417,1,0,0:0:0:0:
256,192,113539,1,2,0:0:0:0:
256,192,113661,1,0,0:0:0:0:
256,192,113783,1,0,0:0:0:0:
256,192,113905,1,2,0:0:0:0:
256,192,114027,1,0,0:0:0:0:
256,192,114149,1,4,0:0:0:0:
256,192,114393,1,2,0:0:0:0:
256,192,114637,1,0,0:0:0:0:
256,192,114881,1,2,0:0:0:0:
256,192,115002,1,0,0:0:0:0:
256,192,115124,1,2,0:0:0:0:
256,192,115155,1,0,0:0:0:0:
256,192,115246,1,2,0:0:0:0:
256,192,115277,1,2,0:0:0:0:
256,192,115368,1,0,0:0:0:0:
256,192,115399,1,0,0:0:0:0:
256,192,115490,1,0,0:0:0:0:
256,192,115521,1,0,0:0:0:0:
256,192,115612,1,2,0:0:0:0:
256,192,115643,1,0,0:0:0:0:
256,192,115734,1,2,0:0:0:0:
256,192,115765,1,2,0:0:0:0:
256,192,115856,1,0,0:0:0:0:
256,192,115887,1,0,0:0:0:0:
256,192,115978,1,0,0:0:0:0:
256,192,116009,1,0,0:0:0:0:
256,192,116100,1,0,0:0:0:0:
256,192,116344,1,0,0:0:0:0:
256,192,116385,1,0,0:0:0:0:
256,192,116425,1,0,0:0:0:0:
256,192,116466,1,0,0:0:0:0:
256,192,116507,1,0,0:0:0:0:
256,192,116547,1,0,0:0:0:0:
256,192,116588,1,0,0:0:0:0:
256,192,116710,1,0,0:0:0:0:
256,192,116832,1,2,0:0:0:0:
256,192,116893,1,0,0:0:0:0:
256,192,116954,1,0,0:0:0:0:
256,192,117015,1,0,0:0:0:0:
256,192,117076,1,2,0:0:0:0:
256,192,117198,1,0,0:0:0:0:
256,192,117259,1,0,0:0:0:0:
256,192,117320,1,2,0:0:0:0:
256,192,117442,1,2,0:0:0:0:
256,192,117502,1,2,0:0:0:0:
256,192,117563,1,0,0:0:0:0:
256,192,117604,1,0,0:0:0:0:
256,192,117645,1,0,0:0:0:0:
256,192,117685,1,0,0:0:0:0:
256,192,117807,1,0,0:0:0:0:
256,192,117848,1,0,0:0:0:0:
256,192,117889,1,0,0:0:0:0:
256,192,117929,1,2,0:0:0:0:
256,192,118051,1,4,0:0:0:0:
256,192,118295,1,0,0:0:0:0:
256,192,118539,1,2,0:0:0:0:
256,192,118783,1,0,0:0:0:0:
256,192,118905,1,2,0:0:0:0:
256,192,119027,1,0,0:0:0:0:
256,192,119149,1,2,0:0:0:0:
256,192,119271,1,0,0:0:0:0:
256,192,119393,1,2,0:0:0:0:
256,192,119515,1,0,0:0:0:0:
256,192,119637,1,2,0:0:0:0:
256,192,119759,1,2,0:0:0:0:
256,192,119881,1,2,0:0:0:0:
256,192,120002,1,0,0:0:0:0:
256,192,120246,1,2,0:0:0:0:
256,192,120307,1,2,0:0:0:0:
256,192,120368,1,0,0:0:0:0:
256,192,120429,1,0,0:0:0:0:
256,192,120490,1,0,0:0:0:0:
256,192,120612,1,0,0:0:0:0:
256,192,120734,1,2,0:0:0:0:
256,192,120795,1,2,0:0:0:0:
256,192,120856,1,0,0:0:0:0:
256,192,120917,1,0,0:0:0:0:
256,192,120978,1,2,0:0:0:0:
256,192,121222,1,0,0:0:0:0:
256,192,121344,1,2,0:0:0:0:
256,192,121466,1,0,0:0:0:0:
256,192,121588,1,0,0:0:0:0:
256,192,121710,1,2,0:0:0:0:
256,192,121832,1,2,0:0:0:0:
256,192,121954,1,4,0:0:0:0:
256,192,122198,1,0,0:0:0:0:
256,192,122442,1,0,0:0:0:0:
256,192,122502,1,0,0:0:0:0:
256,192,122563,1,0,0:0:0:0:
256,192,122624,1,0,0:0:0:0:
256,192,122685,1,2,0:0:0:0:
256,192,122807,1,2,0:0:0:0:
256,192,122929,1,0,0:0:0:0:
256,192,123051,1,2,0:0:0:0:
256,192,123082,1,0,0:0:0:0:
256,192,123173,1,2,0:0:0:0:
256,192,123204,1,2,0:0:0:0:
256,192,123295,1,2,0:0:0:0:
256,192,123326,1,2,0:0:0:0:
256,192,123417,1,0,0:0:0:0:
256,192,123539,1,2,0:0:0:0:
256,192,123570,1,0,0:0:0:0:
256,192,123661,1,0,0:0:0:0:
256,192,123692,1,0,0:0:0:0:
256,192,123782,1,0,0:0:0:0:
256,192,123813,1,0,0:0:0:0:
256,192,123905,1,0,0:0:0:0:
256,192,124149,1,2,0:0:0:0:
256,192,124271,1,0,0:0:0:0:
256,192,124515,1,2,0:0:0:0:
256,192,124637,1,0,0:0:0:0:
256,192,124881,1,0,0:0:0:0:
256,192,125002,1,0,0:0:0:0:
256,192,125124,1,2,0:0:0:0:
256,192,125185,1,2,0:0:0:0:
256,192,125246,1,2,0:0:0:0:
256,192,125307,1,2,0:0:0:0:
256,192,125368,1,2,0:0:0:0:
256,192,125490,1,2,0:0:0:0:
256,192,125612,1,0,0:0:0:0:
256,192,125734,1,0,0:0:0:0:
256,192,125856,1,4,0:0:0:0:
256,192,126100,1,0,0:0:0:0:
256,192,126344,1,2,0:0:0:0:
256,192,126588,1,0,0:0:0:0:
256,192,126710,1,0,0:0:0:0:
256,192,126832,1,0,0:0:0:0:
256,192,126954,1,2,0:0:0:0:
256,192,127076,1,0,0:0:0:0:
256,192,127198,1,2,0:0:0:0:
256,192,127320,1,0,0:0:0:0:
256,192,127442,1,0,0:0:0:0:
256,192,127563,1,2,0:0:0:0:
256,192,127685,1,2,0:0:0:0:
256,192,127807,1,0,0:0:0:0:
256,192,128051,1,2,0:0:0:0:
256,192,128112,1,2,0:0:0:0:
256,192,128173,1,2,0:0:0:0:
256,192,128234,1,2,0:0:0:0:
256,192,128295,1,0,0:0:0:0:
256,192,128417,1,0,0:0:0:0:
256,192,128539,1,2,0:0:0:0:
256,192,128600,1,0,0:0:0:0:
256,192,128661,1,0,0:0:0:0:
256,192,128722,1,0,0:0:0:0:
256,192,128783,1,2,0:0:0:0:
256,192,129027,1,0,0:0:0:0:
256,192,129149,1,2,0:0:0:0:
256,192,129271,1,0,0:0:0:0:
256,192,129393,1,0,0:0:0:0:
256,192,129515,1,2,0:0:0:0:
256,192,129637,1,0,0:0:0:0:
256,192,129759,1,4,0:0:0:0:
256,192,130002,1,2,0:0:0:0:
256,192,130246,1,0,0:0:0:0:
256,192,130490,1,2,0:0:0:0:
256,192,130612,1,0,0:0:0:0:
256,192,130734,1,2,0:0:0:0:
256,192,130765,1,0,0:0:0:0:
256,192,130856,1,2,0:0:0:0:
256,192,130887,1,2,0:0:0:0:
256,192,130978,1,0,0:0:0:0:
256,192,131009,1,0,0:0:0:0:
256,192,131100,1,0,0:0:0:0:
256,192,131131,1,0,0:0:0:0:
256,192,131222,1,2,0:0:0:0:
256,192,131252,1,0,0:0:0:0:
256,192,131344,1,2,0:0:0:0:
256,192,131374,1,2,0:0:0:0:
256,192,131466,1,0,0:0:0:0:
256,192,131496,1,0,0:0:0:0:
256,192,131588,1,0,0:0:0:0:
256,192,131618,1,0,0:0:0:0:
256,192,131710,1,0,0:0:0:0:
256,192,131954,1,2,0:0:0:0:
256,192,132015,1,2,0:0:0:0:
256,192,132076,1,2,0:0:0:0:
256,192,132137,1,2,0:0:0:0:
256,192,132198,1,0,0:0:0:0:
256,192,132259,1,0,0:0:0:0:
256,192,132320,1,0,0:0:0:0:
256,192,132381,1,0,0:0:0:0:
256,192,132442,1,2,0:0:0:0:
256,192,132502,1,2,0:0:0:0:
256,192,132563,1,2,0:0:0:0:
256,192,132624,1,2,0:0:0:0:
256,192,132685,1,0,0:0:0:0:
256,192,132807,1,0,0:0:0:0:
256,192,132868,1,0,0:0:0:0:
256,192,132929,1,2,0:0:0:0:
256,192,132990,1,0,0:0:0:0:
256,192,133051,1,2,0:0:0:0:
256,192,133112,1,2,0:0:0:0:
256,192,133173,1,0,0:0:0:0:
256,192,133214,1,0,0:0:0:0:
256,192,133255,1,0,0:0:0:0:
256,192,133295,1,2,0:0:0:0:
256,192,133417,1,2,0:0:0:0:
256,192,133458,1,2,0:0:0:0:
256,192,133498,1,2,0:0:0:0:
256,192,133539,1,0,0:0:0:0:
256,192,133661,1,4,0:0:0:0:
256,192,133905,1,0,0:0:0:0:
256,192,134149,1,2,0:0:0:0:
256,192,134393,1,0,0:0:0:0:
256,192,134515,1,2,0:0:0:0:
256,192,134637,1,0,0:0:0:0:
256,192,134759,1,2,0:0:0:0:
256,192,134881,1,0,0:0:0:0:
256,192,135002,1,2,0:0:0:0:
256,192,135124,1,0,0:0:0:0:
256,192,135246,1,2,0:0:0:0:
256,192,135368,1,2,0:0:0:0:
256,192,135490,1,2,0:0:0:0:
256,192,135612,1,0,0:0:0:0:
256,192,135856,1,2,0:0:0:0:
256,192,135917,1,2,0:0:0:0:
256,192,135978,1,0,0:0:0:0:
256,192,136039,1,0,0:0:0:0:
256,192,136100,1,0,0:0:0:0:
256,192,136222,1,0,0:0:0:0:
256,192,136344,1,2,0:0:0:0:
256,192,136405,1,2,0:0:0:0:
256,192,136466,1,0,0:0:0:0:
256,192,136527,1,0,0:0:0:0:
256,192,136588,1,2,0:0:0:0:
256,192,136832,1,0,0:0:0:0:
256,192,136954,1,2,0:0:0:0:
256,192,137076,1,0,0:0:0:0:
256,192,137198,1,0,0:0:0:0:
256,192,137320,1,2,0:0:0:0:
256,192,137442,1,2,0:0:0:0:
256,192,137563,1,4,0:0:0:0:
256,192,137807,1,0,0:0:0:0:
256,192,138051,1,2,0:0:0:0:
256,192,138112,1,2,0:0:0:0:
256,192,138173,1,0,0:0:0:0:
256,192,138234,1,0,0:0:0:0:
256,192,138295,1,2,0:0:0:0:
256,192,138417,1,2,0:0:0:0:
256,192,138539,1,0,0:0:0:0:
256,192,138661,1,2,0:0:0:0:
256,192,138692,1,0,0:0:0:0:
256,192,138783,1,2,0:0:0:0:
256,192,138814,1,2,0:0:0:0:
256,192,138905,1,2,0:0:0:0:
256,192,138936,1,2,0:0:0:0:
256,192,139027,1,0,0:0:0:0:
256,192,139149,1,2,0:0:0:0:
256,192,139180,1,0,0:0:0:0:
256,192,139271,1,0,0:0:0:0:
256,192,139302,1,0,0:0:0:0:
256,192,139392,1,0,0:0:0:0:
256,192,139423,1,0,0:0:0:0:
256,192,139515,1,0,0:0:0:0:
256,192,139759,1,0,0:0:0:0:
256,192,139881,1,0,0:0:0:0:
256,192,140002,1,2,0:0:0:0:
256,192,140246,1,0,0:0:0:0:
256,192,140368,1,2,0:0:0:0:
256,192,140490,1,0,0:0:0:0:
256,192,140572,1,0,0:0:0:0:
256,192,140653,1,0,0:0:0:0:
256,192,140734,1,2,0:0:0:0:
256,192,140816,1,0,0:0:0:0:
256,192,140897,1,0,0:0:0:0:
256,192,140978,1,2,0:0:0:0:
256,192,141059,1,0,0:0:0:0:
256,192,141141,1,0,0:0:0:0:
256,192,141222,1,2,0:0:0:0:
256,192,141303,1,2,0:0:0:0:
256,192,141385,1,2,0:0:0:0:
256,192,141466,1,0,0:0:0:0:
256,192,141710,1,2,0:0:0:0:
256,192,141832,1,2,0:0:0:0:
256,192,141954,1,0,0:0:0:0:
256,192,142198,1,2,0:0:0:0:
256,192,142442,1,0,0:0:0:0:
256,192,142686,1,2,0:0:0:0:
256,192,142808,1,2,0:0:0:0:
256,192,142930,1,0,0:0:0:0:
256,192,143174,1,2,0:0:0:0:
256,192,143418,1,2,0:0:0:0:
256,192,143661,1,0,0:0:0:0:
256,192,143783,1,2,0:0:0:0:
256,192,143905,1,0,0:0:0:0:
256,192,144149,1,2,0:0:0:0:
256,192,144393,1,0,0:0:0:0:
256,192,144637,1,0,0:0:0:0:
256,192,144759,1,2,0:0:0:0:
256,192,145125,1,2,0:0:0:0:
256,192,145186,1,2,0:0:0:0:
256,192,145247,1,2,0:0:0:0:
256,192,145308,1,2,0:0:0:0:
256,192,145369,1,0,0:0:0:0:
256,192,145613,1,2,0:0:0:0:
256,192,145735,1,2,0:0:0:0:
256,192,145857,1,0,0:0:0:0:
256,192,146101,1,2,0:0:0:0:
256,192,146344,1,0,0:0:0:0:
256,192,146588,1,2,0:0:0:0:
256,192,146710,1,2,0:0:0:0:
256,192,146832,1,0,0:0:0:0:
256,192,147076,1,2,0:0:0:0:
256,192,147320,1,0,0:0:0:0:
256,192,147442,1,0,0:0:0:0:
256,192,147564,1,0,0:0:0:0:
256,192,147686,1,0,0:0:0:0:
256,192,147808,1,0,0:0:0:0:
256,192,147930,1,0,0:0:0:0:
256,192,148052,1,0,0:0:0:0:
256,192,148174,1,0,0:0:0:0:
256,192,148296,1,6,0:0:0:0:
256,192,148783,1,2,0:0:0:0:
256,192,148844,1,2,0:0:0:0:
256,192,148905,1,2,0:0:0:0:
256,192,148966,1,2,0:0:0:0:
256,192,149027,1,0,0:0:0:0:
256,192,149088,1,0,0:0:0:0:
256,192,149149,1,0,0:0:0:0:
256,192,149271,1,0,0:0:0:0:
256,192,149332,1,0,0:0:0:0:
256,192,149393,1,2,0:0:0:0:
256,192,149454,1,2,0:0:0:0:
256,192,149515,1,2,0:0:0:0:
256,192,149637,1,2,0:0:0:0:
256,192,149759,1,0,0:0:0:0:
256,192,150002,1,2,0:0:0:0:
256,192,150063,1,2,0:0:0:0:
256,192,150124,1,2,0:0:0:0:
256,192,150246,1,0,0:0:0:0:
256,192,150307,1,0,0:0:0:0:
256,192,150368,1,2,0:0:0:0:
256,192,150429,1,2,0:0:0:0:
256,192,150490,1,2,0:0:0:0:
256,192,150612,1,2,0:0:0:0:
256,192,150673,1,2,0:0:0:0:
256,192,150734,1,0,0:0:0:0:
256,192,150978,1,2,0:0:0:0:
256,192,151039,1,2,0:0:0:0:
256,192,151100,1,2,0:0:0:0:
256,192,151222,1,0,0:0:0:0:
256,192,151283,1,0,0:0:0:0:
256,192,151344,1,2,0:0:0:0:
256,192,151405,1,2,0:0:0:0:
256,192,151466,1,2,0:0:0:0:
256,192,151588,1,2,0:0:0:0:
256,192,151710,1,0,0:0:0:0:
256,192,151954,1,2,0:0:0:0:
256,192,152015,1,2,0:0:0:0:
256,192,152076,1,2,0:0:0:0:
256,192,152198,1,0,0:0:0:0:
256,192,152259,1,0,0:0:0:0:
256,192,152320,1,2,0:0:0:0:
256,192,152381,1,2,0:0:0:0:
256,192,152442,1,2,0:0:0:0:
256,192,152563,1,0,0:0:0:0:
256,192,152624,1,0,0:0:0:0:
256,192,152685,1,6,0:0:0:0:
256,192,152807,1,4,0:0:0:0:
256,192,152929,1,6,0:0:0:0:
256,192,153051,1,4,0:0:0:0:
256,188,153173,1,2,0:0:0:0:
256,192,153234,1,2,0:0:0:0:
256,192,153295,1,2,0:0:0:0:
256,192,153356,1,2,0:0:0:0:
256,192,153417,1,0,0:0:0:0:
256,192,153478,1,0,0:0:0:0:
256,192,153539,1,2,0:0:0:0:
256,188,153661,1,2,0:0:0:0:
256,192,153722,1,2,0:0:0:0:
256,192,153783,1,2,0:0:0:0:
256,192,153844,1,2,0:0:0:0:
256,192,153905,1,0,0:0:0:0:
256,192,153966,1,0,0:0:0:0:
256,192,154027,1,2,0:0:0:0:
256,188,154149,1,2,0:0:0:0:
256,192,154210,1,2,0:0:0:0:
256,192,154271,1,2,0:0:0:0:
256,192,154332,1,2,0:0:0:0:
256,192,154393,1,0,0:0:0:0:
256,192,154454,1,0,0:0:0:0:
256,192,154515,1,2,0:0:0:0:
256,188,154637,1,2,0:0:0:0:
256,192,154698,1,2,0:0:0:0:
256,192,154759,1,2,0:0:0:0:
256,192,154820,1,2,0:0:0:0:
256,192,154881,1,0,0:0:0:0:
256,192,154942,1,0,0:0:0:0:
256,192,155003,1,2,0:0:0:0:
256,188,155124,1,2,0:0:0:0:
256,188,155185,1,2,0:0:0:0:
256,188,155246,1,2,0:0:0:0:
256,188,155307,1,2,0:0:0:0:
256,188,155368,1,2,0:0:0:0:
256,188,155429,1,2,0:0:0:0:
256,188,155490,1,2,0:0:0:0:
256,188,155551,1,2,0:0:0:0:
256,188,155612,1,2,0:0:0:0:
256,188,155673,1,2,0:0:0:0:
256,188,155734,1,2,0:0:0:0:
256,188,155795,1,2,0:0:0:0:
256,188,155856,1,2,0:0:0:0:
256,188,155917,1,2,0:0:0:0:
256,188,155978,1,2,0:0:0:0:
256,188,156039,1,2,0:0:0:0:
256,188,156100,1,2,0:0:0:0:
256,188,156588,1,6,0:0:0:0:
256,188,157076,1,4,0:0:0:0:
256,188,157320,1,2,0:0:0:0:
256,188,157360,1,2,0:0:0:0:
256,188,157401,1,2,0:0:0:0:
256,188,157442,1,2,0:0:0:0:
256,188,157563,1,0,0:0:0:0:
256,188,157624,1,0,0:0:0:0:
256,188,157685,1,0,0:0:0:0:
256,188,157746,1,0,0:0:0:0:
256,188,157807,1,2,0:0:0:0:
256,188,157868,1,2,0:0:0:0:
256,188,157929,1,0,0:0:0:0:
256,188,157990,1,2,0:0:0:0:
256,188,158051,1,0,0:0:0:0:
256,188,158173,1,0,0:0:0:0:
256,188,158234,1,0,0:0:0:0:
256,188,158295,1,2,0:0:0:0:
256,188,158356,1,2,0:0:0:0:
256,188,158417,1,2,0:0:0:0:
256,188,158539,1,2,0:0:0:0:
256,188,158600,1,2,0:0:0:0:
256,188,158661,1,2,0:0:0:0:
256,188,158722,1,0,0:0:0:0:
256,188,158783,1,2,0:0:0:0:
256,188,158824,1,0,0:0:0:0:
256,188,158864,1,0,0:0:0:0:
256,188,158905,1,0,0:0:0:0:
256,188,158966,1,0,0:0:0:0:
256,188,159027,1,0,0:0:0:0:
256,188,159271,1,2,0:0:0:0:
256,188,159312,1,0,0:0:0:0:
256,188,159353,1,0,0:0:0:0:
256,188,159393,1,0,0:0:0:0:
256,188,159454,1,0,0:0:0:0:
256,188,159515,1,2,0:0:0:0:
256,188,159759,1,0,0:0:0:0:
256,188,160002,1,0,0:0:0:0:
256,188,160246,1,0,0:0:0:0:
256,188,160368,1,2,0:0:0:0:
256,188,160490,1,0,0:0:0:0:
256,188,160734,1,2,0:0:0:0:
256,188,160775,1,2,0:0:0:0:
256,188,160816,1,2,0:0:0:0:
256,188,160856,1,2,0:0:0:0:
256,188,160897,1,2,0:0:0:0:
256,188,160937,1,2,0:0:0:0:
256,188,160978,1,0,0:0:0:0:
256,188,161222,1,2,0:0:0:0:
256,188,161344,1,2,0:0:0:0:
256,188,161466,1,0,0:0:0:0:
256,188,161710,1,2,0:0:0:0:
256,188,161751,1,2,0:0:0:0:
256,188,161792,1,2,0:0:0:0:
256,188,161832,1,2,0:0:0:0:
256,188,161954,1,0,0:0:0:0:
256,188,162198,1,2,0:0:0:0:
256,188,162239,1,2,0:0:0:0:
256,188,162279,1,2,0:0:0:0:
256,188,162320,1,2,0:0:0:0:
256,188,162442,1,0,0:0:0:0:
256,188,162523,1,0,0:0:0:0:
256,188,162604,1,0,0:0:0:0:
256,188,162685,1,2,0:0:0:0:
256,188,162767,1,2,0:0:0:0:
256,188,162848,1,0,0:0:0:0:
256,188,162929,1,2,0:0:0:0:
256,188,163011,1,2,0:0:0:0:
256,188,163092,1,0,0:0:0:0:
256,188,163173,1,2,0:0:0:0:
256,188,163255,1,2,0:0:0:0:
256,188,163336,1,0,0:0:0:0:
256,188,163417,1,0,0:0:0:0:
256,188,163498,1,0,0:0:0:0:
256,188,163580,1,0,0:0:0:0:
256,188,163661,1,2,0:0:0:0:
256,188,163742,1,0,0:0:0:0:
256,188,163824,1,2,0:0:0:0:
256,188,163905,1,0,0:0:0:0:
256,188,163966,1,0,0:0:0:0:
256,188,164027,1,0,0:0:0:0:
256,188,164088,1,0,0:0:0:0:
256,188,164149,1,2,0:0:0:0:
256,188,164210,1,2,0:0:0:0:
256,188,164271,1,0,0:0:0:0:
256,188,164332,1,2,0:0:0:0:
256,188,164393,1,0,0:0:0:0:
256,188,164454,1,0,0:0:0:0:
256,188,164515,1,2,0:0:0:0:
256,188,164576,1,0,0:0:0:0:
256,188,164637,1,2,0:0:0:0:
256,188,164698,1,2,0:0:0:0:
256,188,164759,1,2,0:0:0:0:
256,188,164820,1,2,0:0:0:0:
256,188,164881,1,0,0:0:0:0:
256,188,165125,1,0,0:0:0:0:
256,188,165166,1,0,0:0:0:0:
256,188,165206,1,0,0:0:0:0:
256,188,165247,1,0,0:0:0:0:
256,188,165369,1,2,0:0:0:0:
256,188,165612,1,0,0:0:0:0:
256,188,165734,1,0,0:0:0:0:
256,188,165795,1,0,0:0:0:0:
256,188,165856,1,0,0:0:0:0:
256,188,166100,1,2,0:0:0:0:
256,188,166141,1,2,0:0:0:0:
256,188,166181,1,2,0:0:0:0:
256,188,166222,1,2,0:0:0:0:
256,188,166263,1,2,0:0:0:0:
256,188,166303,1,2,0:0:0:0:
256,188,166344,1,0,0:0:0:0:
256,192,166588,12,0,166710,0:0:0:0:
256,188,166832,5,0,0:0:0:0:
256,188,167198,1,0,0:0:0:0:
256,188,167320,1,2,0:0:0:0:
256,188,167562,1,0,0:0:0:0:
256,188,167624,1,0,0:0:0:0:
256,188,167685,1,0,0:0:0:0:
256,188,167746,1,0,0:0:0:0:
256,188,167807,1,0,0:0:0:0:
256,188,167930,1,2,0:0:0:0:
256,188,168052,1,2,0:0:0:0:
256,188,168174,1,2,0:0:0:0:
256,188,168296,1,0,0:0:0:0:
256,188,168418,1,2,0:0:0:0:
256,188,168540,1,2,0:0:0:0:
256,188,168661,1,2,0:0:0:0:
256,188,168783,1,0,0:0:0:0:
256,188,168865,1,2,0:0:0:0:
256,188,168946,1,0,0:0:0:0:
256,188,169027,1,2,0:0:0:0:
256,188,169271,1,2,0:0:0:0:
256,188,169331,1,2,0:0:0:0:
256,188,169392,1,0,0:0:0:0:
256,188,169453,1,0,0:0:0:0:
256,188,169514,1,2,0:0:0:0:
256,188,169575,1,2,0:0:0:0:
256,188,169636,1,2,0:0:0:0:
256,188,169697,1,0,0:0:0:0:
256,188,169758,1,2,0:0:0:0:
256,188,169819,1,0,0:0:0:0:
256,188,169880,1,0,0:0:0:0:
256,188,169941,1,0,0:0:0:0:
256,188,170002,1,2,0:0:0:0:
256,188,170063,1,2,0:0:0:0:
256,188,170124,1,0,0:0:0:0:
256,188,170185,1,0,0:0:0:0:
256,188,170246,1,2,0:0:0:0:
256,188,170307,1,0,0:0:0:0:
256,188,170368,1,0,0:0:0:0:
256,188,170429,1,0,0:0:0:0:
256,188,170490,1,2,0:0:0:0:
256,188,170551,1,2,0:0:0:0:
256,188,170612,1,0,0:0:0:0:
256,188,170673,1,0,0:0:0:0:
256,188,170734,1,0,0:0:0:0:
256,188,170978,1,2,0:0:0:0:
256,188,171100,1,0,0:0:0:0:
256,188,171344,1,2,0:0:0:0:
256,188,171588,1,0,0:0:0:0:
256,188,171832,1,2,0:0:0:0:
256,188,171954,1,0,0:0:0:0:
256,188,172076,1,0,0:0:0:0:
256,188,172198,1,2,0:0:0:0:
256,188,172238,1,2,0:0:0:0:
256,188,172279,1,2,0:0:0:0:
256,188,172320,1,2,0:0:0:0:
256,188,172360,1,2,0:0:0:0:
256,188,172401,1,2,0:0:0:0:
256,188,172442,1,2,0:0:0:0:
256,188,172482,1,2,0:0:0:0:
256,188,172523,1,2,0:0:0:0:
256,188,172563,1,2,0:0:0:0:
256,188,172604,1,2,0:0:0:0:
256,188,172645,1,2,0:0:0:0:
256,188,172685,1,0,0:0:0:0:
256,188,172930,1,2,0:0:0:0:
256,188,172970,1,2,0:0:0:0:
256,188,173011,1,2,0:0:0:0:
256,188,173052,1,2,0:0:0:0:
256,188,173173,1,0,0:0:0:0:
256,188,173234,1,0,0:0:0:0:
256,188,173295,1,0,0:0:0:0:
256,188,173356,1,0,0:0:0:0:
256,188,173417,1,2,0:0:0:0:
256,188,173478,1,2,0:0:0:0:
256,188,173539,1,0,0:0:0:0:
256,188,173600,1,2,0:0:0:0:
256,188,173660,1,0,0:0:0:0:
256,188,173783,1,0,0:0:0:0:
256,188,173844,1,0,0:0:0:0:
256,188,173905,1,2,0:0:0:0:
256,188,173966,1,0,0:0:0:0:
256,188,174027,1,2,0:0:0:0:
256,188,174088,1,0,0:0:0:0:
256,188,174149,1,2,0:0:0:0:
256,188,174210,1,2,0:0:0:0:
256,188,174271,1,0,0:0:0:0:
256,188,174332,1,0,0:0:0:0:
256,188,174393,1,0,0:0:0:0:
256,188,174433,1,0,0:0:0:0:
256,188,174474,1,0,0:0:0:0:
256,188,174515,1,0,0:0:0:0:
256,188,174555,1,0,0:0:0:0:
256,188,174596,1,0,0:0:0:0:
256,188,174637,1,0,0:0:0:0:
256,188,174881,1,2,0:0:0:0:
256,188,174922,1,0,0:0:0:0:
256,188,174962,1,0,0:0:0:0:
256,188,175003,1,0,0:0:0:0:
256,188,175064,1,0,0:0:0:0:
256,188,175125,1,2,0:0:0:0:
256,188,175246,1,0,0:0:0:0:
256,188,175368,1,0,0:0:0:0:
256,188,175612,1,0,0:0:0:0:
256,188,175856,1,0,0:0:0:0:
256,188,175978,1,2,0:0:0:0:
256,188,176039,1,2,0:0:0:0:
256,188,176101,1,0,0:0:0:0:
256,188,176222,1,0,0:0:0:0:
256,188,176344,1,2,0:0:0:0:
256,188,176385,1,2,0:0:0:0:
256,188,176425,1,2,0:0:0:0:
256,188,176466,1,2,0:0:0:0:
256,188,176507,1,2,0:0:0:0:
256,188,176547,1,2,0:0:0:0:
256,188,176588,1,0,0:0:0:0:
256,188,176832,1,2,0:0:0:0:
256,188,176954,1,2,0:0:0:0:
256,188,177076,1,2,0:0:0:0:
256,188,177320,1,2,0:0:0:0:
256,188,177361,1,2,0:0:0:0:
256,188,177401,1,2,0:0:0:0:
256,188,177442,1,2,0:0:0:0:
256,188,177564,1,0,0:0:0:0:
256,188,177808,1,2,0:0:0:0:
256,188,177848,1,2,0:0:0:0:
256,188,177889,1,2,0:0:0:0:
256,188,177929,1,2,0:0:0:0:
256,188,178051,1,0,0:0:0:0:
256,188,178133,1,0,0:0:0:0:
256,188,178214,1,0,0:0:0:0:
256,188,178295,1,2,0:0:0:0:
256,188,178376,1,2,0:0:0:0:
256,188,178458,1,0,0:0:0:0:
256,188,178539,1,2,0:0:0:0:
256,188,178600,1,2,0:0:0:0:
256,188,178661,1,0,0:0:0:0:
256,188,178722,1,2,0:0:0:0:
256,188,178783,1,0,0:0:0:0:
256,188,178844,1,0,0:0:0:0:
256,188,178905,1,2,0:0:0:0:
256,188,178966,1,2,0:0:0:0:
256,188,179027,1,0,0:0:0:0:
256,188,179087,1,0,0:0:0:0:
256,188,179148,1,0,0:0:0:0:
256,188,179209,1,0,0:0:0:0:
256,188,179270,1,2,0:0:0:0:
256,188,179331,1,2,0:0:0:0:
256,188,179392,1,0,0:0:0:0:
256,188,179453,1,2,0:0:0:0:
256,188,179514,1,0,0:0:0:0:
256,188,179575,1,0,0:0:0:0:
256,188,179636,1,2,0:0:0:0:
256,188,179697,1,0,0:0:0:0:
256,188,179758,1,2,0:0:0:0:
256,188,179819,1,2,0:0:0:0:
256,188,179880,1,0,0:0:0:0:
256,188,179941,1,2,0:0:0:0:
256,188,180002,1,0,0:0:0:0:
256,188,180063,1,0,0:0:0:0:
256,188,180124,1,2,0:0:0:0:
256,188,180185,1,2,0:0:0:0:
256,188,180246,1,0,0:0:0:0:
256,188,180307,1,2,0:0:0:0:
256,188,180368,1,2,0:0:0:0:
256,188,180429,1,2,0:0:0:0:
256,188,180490,1,0,0:0:0:0:
256,188,180735,1,0,0:0:0:0:
256,188,180775,1,0,0:0:0:0:
256,188,180816,1,0,0:0:0:0:
256,188,180857,1,0,0:0:0:0:
256,188,180978,1,2,0:0:0:0:
256,188,181222,1,0,0:0:0:0:
256,188,181344,1,0,0:0:0:0:
256,188,181405,1,0,0:0:0:0:
256,188,181466,1,0,0:0:0:0:
256,188,181710,1,2,0:0:0:0:
256,188,181750,1,2,0:0:0:0:
256,188,181791,1,2,0:0:0:0:
256,188,181832,1,2,0:0:0:0:
256,188,181872,1,2,0:0:0:0:
256,188,181913,1,2,0:0:0:0:
256,188,181954,1,0,0:0:0:0:
256,188,182076,1,0,0:0:0:0:
256,192,182198,12,0,182320,0:0:0:0:
256,188,182442,5,0,0:0:0:0:
256,188,182686,1,2,0:0:0:0:
256,188,182727,1,2,0:0:0:0:
256,188,182767,1,2,0:0:0:0:
256,188,182808,1,0,0:0:0:0:
256,188,182930,1,2,0:0:0:0:
256,188,183173,1,0,0:0:0:0:
256,188,183234,1,0,0:0:0:0:
256,188,183295,1,0,0:0:0:0:
256,188,183356,1,0,0:0:0:0:
256,188,183417,1,0,0:0:0:0:
256,188,183539,1,2,0:0:0:0:
256,188,183661,1,2,0:0:0:0:
256,188,183783,1,2,0:0:0:0:
256,188,183905,1,0,0:0:0:0:
256,188,184027,1,2,0:0:0:0:
256,188,184149,1,2,0:0:0:0:
256,188,184271,1,0,0:0:0:0:
256,188,184393,1,4,0:0:0:0:
256,188,184556,1,4,0:0:0:0:
256,188,184718,1,4,0:0:0:0:
256,188,184881,1,2,0:0:0:0:
256,188,184941,1,2,0:0:0:0:
256,188,185002,1,2,0:0:0:0:
256,188,185063,1,0,0:0:0:0:
256,188,185124,1,2,0:0:0:0:
256,188,185185,1,2,0:0:0:0:
256,188,185246,1,0,0:0:0:0:
256,188,185307,1,0,0:0:0:0:
256,188,185368,1,2,0:0:0:0:
256,188,185429,1,0,0:0:0:0:
256,188,185490,1,0,0:0:0:0:
256,188,185551,1,0,0:0:0:0:
256,188,185612,1,2,0:0:0:0:
256,188,185673,1,2,0:0:0:0:
256,188,185734,1,0,0:0:0:0:
256,188,185795,1,0,0:0:0:0:
256,188,185856,1,2,0:0:0:0:
256,188,185917,1,2,0:0:0:0:
256,188,185978,1,0,0:0:0:0:
256,188,186039,1,0,0:0:0:0:
256,188,186100,1,2,0:0:0:0:
256,188,186160,1,0,0:0:0:0:
256,188,186221,1,0,0:0:0:0:
256,188,186282,1,0,0:0:0:0:
256,192,186344,12,0,188173,0:0:0:0:
256,192,188295,5,4,0:0:0:0:
256,192,188783,1,2,0:0:0:0:
256,192,189027,1,0,0:0:0:0:
256,192,189149,1,2,0:0:0:0:
256,192,189271,1,0,0:0:0:0:
256,192,189393,1,2,0:0:0:0:
256,192,189637,1,2,0:0:0:0:
256,192,189759,1,0,0:0:0:0:
256,192,189881,1,0,0:0:0:0:
256,192,190002,1,2,0:0:0:0:
256,192,190124,1,0,0:0:0:0:
256,192,190246,1,2,0:0:0:0:
256,192,190490,1,0,0:0:0:0:
256,192,190734,1,0,0:0:0:0:
256,192,190856,1,0,0:0:0:0:
256,192,190978,1,2,0:0:0:0:
256,192,191222,1,2,0:0:0:0:
256,192,191588,1,0,0:0:0:0:
256,192,191954,1,2,0:0:0:0:
256,192,192076,1,0,0:0:0:0:
256,192,192198,1,0,0:0:0:0:
256,192,192685,1,0,0:0:0:0:
256,192,193173,1,2,0:0:0:0:
256,192,193295,1,2,0:0:0:0:
256,192,193417,1,0,0:0:0:0:
256,192,193539,1,0,0:0:0:0:
256,192,193661,1,2,0:0:0:0:
256,192,193783,1,2,0:0:0:0:
256,192,193905,1,0,0:0:0:0:
256,192,194027,1,0,0:0:0:0:
256,192,194149,1,0,0:0:0:0:
256,192,194271,1,2,0:0:0:0:
256,192,194515,1,0,0:0:0:0:
256,192,194759,1,2,0:0:0:0:
256,192,194881,1,0,0:0:0:0:
256,192,195002,1,0,0:0:0:0:
256,192,195063,1,0,0:0:0:0:
256,192,195124,1,2,0:0:0:0:
256,192,195185,1,2,0:0:0:0:
256,192,195246,1,2,0:0:0:0:
256,192,195307,1,2,0:0:0:0:
256,192,195368,1,2,0:0:0:0:
256,192,195429,1,2,0:0:0:0:
256,192,195490,1,2,0:0:0:0:
256,192,195612,1,2,0:0:0:0:
256,192,195653,1,2,0:0:0:0:
256,192,195694,1,2,0:0:0:0:
256,192,195734,1,2,0:0:0:0:
256,192,195856,1,0,0:0:0:0:
256,192,195978,1,0,0:0:0:0:
256,192,196100,1,0,0:0:0:0:
256,192,196588,1,2,0:0:0:0:
256,192,196832,1,0,0:0:0:0:
256,192,196954,1,2,0:0:0:0:
256,192,197076,1,0,0:0:0:0:
256,192,197198,1,2,0:0:0:0:
256,192,197442,1,2,0:0:0:0:
256,192,197564,1,0,0:0:0:0:
256,192,197686,1,0,0:0:0:0:
256,192,197807,1,2,0:0:0:0:
256,192,197929,1,0,0:0:0:0:
256,192,198051,1,2,0:0:0:0:
256,192,198295,1,0,0:0:0:0:
256,192,198539,1,0,0:0:0:0:
256,192,198620,1,0,0:0:0:0:
256,192,198702,1,0,0:0:0:0:
256,192,198783,1,2,0:0:0:0:
256,192,199027,1,2,0:0:0:0:
256,192,199393,1,0,0:0:0:0:
256,192,199759,1,2,0:0:0:0:
256,192,199881,1,0,0:0:0:0:
256,192,200002,1,2,0:0:0:0:
256,192,200368,1,0,0:0:0:0:
256,192,200409,1,0,0:0:0:0:
256,192,200450,1,0,0:0:0:0:
256,192,200490,1,2,0:0:0:0:
256,192,200856,1,0,0:0:0:0:
256,192,200978,1,2,0:0:0:0:
256,192,201100,1,2,0:0:0:0:
256,192,201222,1,0,0:0:0:0:
256,192,201344,1,0,0:0:0:0:
256,192,201466,1,2,0:0:0:0:
256,192,201588,1,2,0:0:0:0:
256,192,201710,1,0,0:0:0:0:
256,192,201832,1,0,0:0:0:0:
256,192,201954,1,6,0:0:0:0:
