osu file format v14

[General]
AudioFilename: audio.ogg
AudioLeadIn: 0
PreviewTime: 62442
Countdown: 0
SampleSet: Soft
StackLeniency: 0.7
Mode: 3
LetterboxInBreaks: 0
SpecialStyle: 0
WidescreenStoryboard: 1

[Editor]
Bookmarks: 47807,54637
DistanceSpacing: 0.6
BeatDivisor: 4
GridSize: 4
TimelineZoom: 2.3

[Metadata]
Title:Press Start
TitleUnicode:Press Start
Artist:MDK
ArtistUnicode:MDK
Creator:juankristal
Version:Legend
Source:
Tags:mipha- -mint- RuleBlazing Antalf long notes ln releases electronic instrumental chiptune dubstep 8-bit 8bit The Singles Morgan David King osu!mania 4K World Cup 2018 MWC 4K 2018 MWC18 semifinals
BeatmapID:2282076
BeatmapSetID:850118

[Difficulty]
HPDrainRate:7
CircleSize:4
OverallDifficulty:7
ApproachRate:5
SliderMultiplier:1.4
SliderTickRate:1

[Events]
//Background and Video events
0,0,"pressstart.png",0,0
//Break Periods
//Storyboard Layer 0 (Background)
//Storyboard Layer 1 (Fail)
//Storyboard Layer 2 (Pass)
//Storyboard Layer 3 (Foreground)
//Storyboard Layer 4 (Overlay)
//Storyboard Sound Samples

[TimingPoints]
-15,243.90243902439,4,2,1,60,1,0

[HitObjects]
192,192,960,128,0,2911:0:0:0:0:
64,192,2911,128,0,3887:0:0:0:0:
320,192,3887,128,0,4863:0:0:0:0:
64,192,4863,128,0,8277:0:0:0:0:
448,192,4863,128,0,6814:0:0:0:0:
192,192,6814,128,0,7789:0:0:0:0:
320,192,7789,128,0,7911:0:0:0:0:
192,192,7911,128,0,8033:0:0:0:0:
448,192,8033,128,0,8277:0:0:0:0:
320,192,8277,128,0,8765:0:0:0:0:
192,192,8521,128,0,8765:0:0:0:0:
64,192,8765,128,0,8887:0:0:0:0:
448,192,8765,128,0,9497:0:0:0:0:
320,192,8887,128,0,9009:0:0:0:0:
64,192,9009,128,0,9131:0:0:0:0:
320,192,9131,128,0,9253:0:0:0:0:
64,192,9253,1,0,0:0:0:0:
192,192,9253,1,0,0:0:0:0:
64,192,9497,128,0,9619:0:0:0:0:
192,192,9497,1,0,0:0:0:0:
320,192,9619,1,0,0:0:0:0:
448,192,9619,128,0,9741:0:0:0:0:
64,192,9741,128,0,9984:0:0:0:0:
192,192,9741,1,0,0:0:0:0:
320,192,9863,1,0,0:0:0:0:
192,192,9984,1,0,0:0:0:0:
448,192,9984,128,0,10106:0:0:0:0:
64,192,10106,128,0,10228:0:0:0:0:
320,192,10106,1,0,0:0:0:0:
192,192,10228,128,0,10716:0:0:0:0:
448,192,10228,128,0,10472:0:0:0:0:
64,192,10472,1,0,0:0:0:0:
320,192,10472,128,0,10716:0:0:0:0:
64,192,10716,128,0,11448:0:0:0:0:
448,192,10716,128,0,10838:0:0:0:0:
192,192,10838,128,0,10960:0:0:0:0:
448,192,10960,128,0,11082:0:0:0:0:
192,192,11082,128,0,11204:0:0:0:0:
320,192,11204,1,0,0:0:0:0:
448,192,11204,1,0,0:0:0:0:
192,192,11326,1,0,0:0:0:0:
320,192,11448,1,0,0:0:0:0:
448,192,11448,128,0,11570:0:0:0:0:
64,192,11570,128,0,11692:0:0:0:0:
192,192,11570,1,0,0:0:0:0:
320,192,11692,1,0,0:0:0:0:
448,192,11692,128,0,11814:0:0:0:0:
64,192,11814,1,0,0:0:0:0:
192,192,11814,128,0,11936:0:0:0:0:
320,192,11936,128,0,12058:0:0:0:0:
448,192,11936,128,0,12058:0:0:0:0:
192,192,12058,128,0,12180:0:0:0:0:
64,192,12180,128,0,12424:0:0:0:0:
320,192,12180,128,0,12424:0:0:0:0:
448,192,12424,128,0,12545:0:0:0:0:
192,192,12545,128,0,12667:0:0:0:0:
320,192,12545,128,0,12667:0:0:0:0:
64,192,12667,128,0,12789:0:0:0:0:
448,192,12667,128,0,13155:0:0:0:0:
320,192,12911,128,0,13033:0:0:0:0:
192,192,13033,128,0,13155:0:0:0:0:
64,192,13155,128,0,13643:0:0:0:0:
320,192,13155,128,0,13399:0:0:0:0:
448,192,13399,128,0,13521:0:0:0:0:
192,192,13521,128,0,13582:0:0:0:0:
320,192,13643,128,0,13704:0:0:0:0:
448,192,13643,128,0,14070:0:0:0:0:
192,192,13765,128,0,13826:0:0:0:0:
64,192,13887,128,0,13948:0:0:0:0:
64,192,14009,128,0,14070:0:0:0:0:
320,192,14131,128,0,14497:0:0:0:0:
448,192,14131,128,0,14375:0:0:0:0:
64,192,14375,1,0,0:0:0:0:
192,192,14497,128,0,14619:0:0:0:0:
448,192,14497,1,0,0:0:0:0:
64,192,14619,1,0,0:0:0:0:
320,192,14619,128,0,14741:0:0:0:0:
192,192,14741,128,0,14863:0:0:0:0:
448,192,14741,1,0,0:0:0:0:
64,192,14863,128,0,14984:0:0:0:0:
448,192,14863,128,0,14924:0:0:0:0:
448,192,14984,128,0,15045:0:0:0:0:
64,192,15106,1,0,0:0:0:0:
320,192,15106,128,0,15228:0:0:0:0:
192,192,15228,128,0,15350:0:0:0:0:
448,192,15228,1,0,0:0:0:0:
64,192,15350,128,0,15472:0:0:0:0:
448,192,15350,128,0,15411:0:0:0:0:
448,192,15472,128,0,15533:0:0:0:0:
64,192,15594,128,0,15655:0:0:0:0:
192,192,15655,128,0,15716:0:0:0:0:
320,192,15716,128,0,15777:0:0:0:0:
448,192,15777,128,0,15838:0:0:0:0:
192,192,15838,1,0,0:0:0:0:
64,192,15879,128,0,16082:0:0:0:0:
448,192,15960,128,0,16082:0:0:0:0:
320,192,16041,128,0,16082:0:0:0:0:
192,192,16082,128,0,16570:0:0:0:0:
64,192,16570,128,4,16814:0:0:0:0:
320,192,16570,128,2,16692:0:0:0:0:
448,192,16570,128,0,16692:0:0:0:0:
192,192,16814,128,0,16936:0:0:0:0:
320,192,16814,128,0,16936:0:0:0:0:
448,192,16814,128,0,16936:0:0:0:0:
64,192,17058,128,8,17180:0:0:0:0:
320,192,17058,128,0,17302:0:0:0:0:
448,192,17058,128,0,17180:0:0:0:0:
192,192,17302,1,0,0:0:0:0:
448,192,17302,128,0,17424:0:0:0:0:
64,192,17424,128,0,17667:0:0:0:0:
192,192,17424,1,0,0:0:0:0:
320,192,17545,1,2,0:0:0:0:
448,192,17545,128,0,17667:0:0:0:0:
192,192,17667,128,0,17850:0:0:0:0:
320,192,17667,1,0,0:0:0:0:
64,192,17789,1,0,0:0:0:0:
192,192,17911,128,0,17972:0:0:0:0:
448,192,17911,128,0,18033:0:0:0:0:
320,192,18033,1,8,0:0:0:0:
64,192,18155,1,0,0:0:0:0:
448,192,18155,128,0,18277:0:0:0:0:
64,192,18277,1,0,0:0:0:0:
320,192,18277,128,0,18338:0:0:0:0:
64,192,18399,128,0,18521:0:0:0:0:
448,192,18399,128,0,18460:0:0:0:0:
192,192,18521,128,2,18765:0:0:0:0:
320,192,18521,128,0,18643:0:0:0:0:
448,192,18521,128,0,18643:0:0:0:0:
64,192,18765,128,0,18887:0:0:0:0:
448,192,18765,128,0,19009:0:0:0:0:
64,192,19009,128,8,19253:0:0:0:0:
192,192,19009,128,0,19131:0:0:0:0:
320,192,19009,128,0,19131:0:0:0:0:
320,192,19253,128,0,19314:0:0:0:0:
448,192,19253,128,0,19436:0:0:0:0:
64,192,19497,128,2,19863:0:0:0:0:
192,192,19497,128,0,19619:0:0:0:0:
448,192,19497,128,0,19619:0:0:0:0:
192,192,19863,128,0,19984:0:0:0:0:
448,192,19863,128,0,19984:0:0:0:0:
64,192,19984,128,8,20045:0:0:0:0:
320,192,19984,128,0,20045:0:0:0:0:
448,192,20228,128,0,20350:0:0:0:0:
320,192,20350,128,0,20472:0:0:0:0:
64,192,20472,128,2,20716:0:0:0:0:
192,192,20472,128,0,20594:0:0:0:0:
192,192,20716,128,0,20838:0:0:0:0:
320,192,20716,128,0,20960:0:0:0:0:
448,192,20716,128,0,20838:0:0:0:0:
64,192,20960,128,8,21204:0:0:0:0:
192,192,20960,128,0,21082:0:0:0:0:
448,192,20960,128,0,21082:0:0:0:0:
192,192,21204,128,0,21326:0:0:0:0:
320,192,21204,128,0,21326:0:0:0:0:
192,192,21448,128,2,21570:0:0:0:0:
448,192,21448,1,0,0:0:0:0:
64,192,21570,128,0,21692:0:0:0:0:
448,192,21570,1,0,0:0:0:0:
192,192,21692,128,0,21753:0:0:0:0:
320,192,21692,128,0,21814:0:0:0:0:
64,192,21814,128,0,21936:0:0:0:0:
448,192,21814,128,0,21875:0:0:0:0:
192,192,21936,1,8,0:0:0:0:
320,192,21936,128,0,22058:0:0:0:0:
192,192,22058,1,0,0:0:0:0:
448,192,22058,128,0,22180:0:0:0:0:
64,192,22180,128,0,22302:0:0:0:0:
320,192,22180,128,0,22241:0:0:0:0:
192,192,22302,128,0,22424:0:0:0:0:
448,192,22302,128,0,22363:0:0:0:0:
64,192,22424,1,2,0:0:0:0:
320,192,22424,128,0,22667:0:0:0:0:
192,192,22545,128,0,22667:0:0:0:0:
64,192,22667,128,0,22911:0:0:0:0:
448,192,22667,128,0,22911:0:0:0:0:
320,192,22789,128,0,22911:0:0:0:0:
192,192,22911,128,8,23033:0:0:0:0:
64,192,23033,128,0,23399:0:0:0:0:
320,192,23033,128,0,23155:0:0:0:0:
192,192,23155,1,0,0:0:0:0:
448,192,23155,128,0,23399:0:0:0:0:
192,192,23399,128,2,23643:0:0:0:0:
320,192,23399,128,0,23521:0:0:0:0:
448,192,23521,128,0,23643:0:0:0:0:
64,192,23643,1,0,0:0:0:0:
320,192,23643,128,0,23826:0:0:0:0:
64,192,23765,1,0,0:0:0:0:
192,192,23765,128,0,23826:0:0:0:0:
320,192,23887,128,8,24009:0:0:0:0:
448,192,23887,128,0,24131:0:0:0:0:
64,192,24131,128,0,24192:0:0:0:0:
64,192,24253,128,0,24314:0:0:0:0:
192,192,24375,128,2,24497:0:0:0:0:
320,192,24375,128,4,24497:0:0:0:0:
448,192,24375,128,0,24619:0:0:0:0:
64,192,24619,128,0,24863:0:0:0:0:
192,192,24619,128,0,24741:0:0:0:0:
320,192,24619,128,0,24741:0:0:0:0:
192,192,24863,128,8,24984:0:0:0:0:
320,192,24863,128,0,25106:0:0:0:0:
448,192,24863,128,0,24984:0:0:0:0:
64,192,25106,128,0,25228:0:0:0:0:
192,192,25106,128,0,25167:0:0:0:0:
320,192,25228,128,0,25350:0:0:0:0:
448,192,25228,128,0,25472:0:0:0:0:
64,192,25350,128,2,25472:0:0:0:0:
192,192,25350,1,0,0:0:0:0:
192,192,25472,1,0,0:0:0:0:
320,192,25472,128,0,25594:0:0:0:0:
64,192,25594,128,0,25716:0:0:0:0:
448,192,25594,128,0,25655:0:0:0:0:
192,192,25716,128,0,25777:0:0:0:0:
320,192,25716,128,0,25838:0:0:0:0:
64,192,25838,128,8,25960:0:0:0:0:
448,192,25838,128,0,26082:0:0:0:0:
192,192,25960,128,0,26082:0:0:0:0:
320,192,25960,1,0,0:0:0:0:
64,192,26082,128,0,26143:0:0:0:0:
320,192,26082,1,0,0:0:0:0:
448,192,26204,128,0,26326:0:0:0:0:
64,192,26326,128,2,26448:0:0:0:0:
192,192,26326,128,0,26448:0:0:0:0:
320,192,26326,128,0,26570:0:0:0:0:
64,192,26570,128,0,26692:0:0:0:0:
192,192,26570,128,0,26814:0:0:0:0:
64,192,26814,128,8,26936:0:0:0:0:
320,192,26814,128,0,27058:0:0:0:0:
448,192,26814,128,0,26936:0:0:0:0:
192,192,27058,128,0,27302:0:0:0:0:
448,192,27058,128,0,27180:0:0:0:0:
64,192,27302,128,2,27667:0:0:0:0:
320,192,27302,128,0,27424:0:0:0:0:
448,192,27302,128,0,27424:0:0:0:0:
192,192,27667,128,0,27789:0:0:0:0:
448,192,27667,128,0,27789:0:0:0:0:
64,192,27789,128,8,27850:0:0:0:0:
320,192,27789,128,0,27850:0:0:0:0:
64,192,28033,128,0,28155:0:0:0:0:
192,192,28033,128,0,28155:0:0:0:0:
320,192,28155,128,0,28277:0:0:0:0:
64,192,28277,128,2,28521:0:0:0:0:
192,192,28277,128,0,28399:0:0:0:0:
448,192,28277,128,0,28399:0:0:0:0:
192,192,28521,128,0,28643:0:0:0:0:
320,192,28521,128,0,28643:0:0:0:0:
448,192,28521,128,0,28765:0:0:0:0:
64,192,28765,128,8,28887:0:0:0:0:
192,192,28765,128,0,29009:0:0:0:0:
320,192,28765,128,0,28887:0:0:0:0:
448,192,28887,128,0,29009:0:0:0:0:
64,192,29009,128,0,29131:0:0:0:0:
320,192,29009,128,0,29131:0:0:0:0:
192,192,29131,128,0,29253:0:0:0:0:
320,192,29253,1,2,0:0:0:0:
448,192,29253,128,0,29375:0:0:0:0:
64,192,29375,128,0,29497:0:0:0:0:
192,192,29375,1,0,0:0:0:0:
320,192,29497,1,0,0:0:0:0:
448,192,29497,128,0,29619:0:0:0:0:
64,192,29619,128,0,29741:0:0:0:0:
192,192,29619,1,0,0:0:0:0:
320,192,29741,128,8,29863:0:0:0:0:
448,192,29741,1,0,0:0:0:0:
192,192,29863,128,0,29984:0:0:0:0:
448,192,29863,1,0,0:0:0:0:
64,192,29984,128,0,30228:0:0:0:0:
320,192,29984,1,0,0:0:0:0:
192,192,30106,128,0,30228:0:0:0:0:
448,192,30106,1,0,0:0:0:0:
320,192,30228,128,0,30472:0:0:0:0:
64,192,30472,128,0,30594:0:0:0:0:
448,192,30594,128,0,30838:0:0:0:0:
320,192,30838,128,0,30960:0:0:0:0:
64,192,30960,128,0,31082:0:0:0:0:
192,192,30960,128,0,31082:0:0:0:0:
320,192,31082,128,0,31204:0:0:0:0:
448,192,31082,128,0,31326:0:0:0:0:
64,192,31204,128,0,31326:0:0:0:0:
192,192,31204,128,0,31326:0:0:0:0:
320,192,31326,1,0,0:0:0:0:
192,192,31448,128,0,31509:0:0:0:0:
320,192,31509,128,0,31570:0:0:0:0:
192,192,31570,128,0,31631:0:0:0:0:
320,192,31631,128,0,31692:0:0:0:0:
64,192,31692,128,0,32058:0:0:0:0:
192,192,31692,128,0,32058:0:0:0:0:
320,192,31814,128,0,31936:0:0:0:0:
448,192,31814,128,0,31936:0:0:0:0:
192,192,32180,128,4,32302:0:0:0:0:
320,192,32180,128,2,32302:0:0:0:0:
448,192,32180,128,0,32424:0:0:0:0:
64,192,32424,128,0,32545:0:0:0:0:
192,192,32424,128,0,32545:0:0:0:0:
320,192,32424,128,0,32667:0:0:0:0:
64,192,32667,128,8,32789:0:0:0:0:
192,192,32667,128,0,32911:0:0:0:0:
448,192,32667,128,0,32789:0:0:0:0:
64,192,32911,128,0,33033:0:0:0:0:
448,192,32911,1,0,0:0:0:0:
320,192,33033,1,0,0:0:0:0:
448,192,33033,128,0,33277:0:0:0:0:
64,192,33155,128,2,33277:0:0:0:0:
192,192,33155,1,0,0:0:0:0:
192,192,33277,1,0,0:0:0:0:
320,192,33277,128,0,33460:0:0:0:0:
448,192,33399,1,0,0:0:0:0:
64,192,33521,128,0,33643:0:0:0:0:
320,192,33521,128,0,33582:0:0:0:0:
192,192,33643,1,8,0:0:0:0:
64,192,33765,128,0,33887:0:0:0:0:
448,192,33765,1,0,0:0:0:0:
192,192,33887,128,0,33948:0:0:0:0:
448,192,33887,1,0,0:0:0:0:
64,192,34009,128,0,34070:0:0:0:0:
448,192,34009,128,0,34131:0:0:0:0:
64,192,34131,128,2,34253:0:0:0:0:
192,192,34131,128,0,34253:0:0:0:0:
320,192,34131,128,0,34375:0:0:0:0:
64,192,34375,128,0,34619:0:0:0:0:
448,192,34375,128,0,34497:0:0:0:0:
192,192,34619,128,8,34741:0:0:0:0:
320,192,34619,128,0,34741:0:0:0:0:
448,192,34619,128,0,34863:0:0:0:0:
64,192,34863,128,0,35045:0:0:0:0:
192,192,34863,128,0,34924:0:0:0:0:
64,192,35106,128,2,35228:0:0:0:0:
320,192,35106,128,0,35228:0:0:0:0:
448,192,35106,128,0,35472:0:0:0:0:
192,192,35350,128,0,35411:0:0:0:0:
64,192,35472,128,0,35594:0:0:0:0:
320,192,35472,128,0,35594:0:0:0:0:
192,192,35594,128,8,35655:0:0:0:0:
448,192,35594,128,0,35655:0:0:0:0:
64,192,35838,128,0,35960:0:0:0:0:
192,192,35960,128,0,36082:0:0:0:0:
320,192,36082,128,2,36204:0:0:0:0:
448,192,36082,128,0,36326:0:0:0:0:
64,192,36326,128,0,36448:0:0:0:0:
192,192,36326,128,0,36570:0:0:0:0:
320,192,36326,128,0,36448:0:0:0:0:
64,192,36570,128,8,36692:0:0:0:0:
320,192,36570,128,0,36692:0:0:0:0:
448,192,36570,128,0,36814:0:0:0:0:
192,192,36814,128,0,36936:0:0:0:0:
320,192,36814,128,0,36936:0:0:0:0:
64,192,37058,1,2,0:0:0:0:
320,192,37058,128,0,37180:0:0:0:0:
64,192,37180,1,0,0:0:0:0:
448,192,37180,128,0,37302:0:0:0:0:
192,192,37302,128,0,37424:0:0:0:0:
320,192,37302,128,0,37363:0:0:0:0:
64,192,37424,128,0,37484:0:0:0:0:
448,192,37424,128,0,37545:0:0:0:0:
192,192,37545,128,8,37667:0:0:0:0:
320,192,37545,1,0,0:0:0:0:
64,192,37667,128,0,37789:0:0:0:0:
320,192,37667,1,0,0:0:0:0:
192,192,37789,128,0,37850:0:0:0:0:
448,192,37789,128,0,37911:0:0:0:0:
64,192,37911,128,0,37972:0:0:0:0:
320,192,37911,128,0,38033:0:0:0:0:
192,192,38033,128,2,38277:0:0:0:0:
448,192,38033,1,0,0:0:0:0:
320,192,38155,128,0,38277:0:0:0:0:
64,192,38277,128,0,38521:0:0:0:0:
448,192,38277,128,0,38521:0:0:0:0:
192,192,38399,128,0,38521:0:0:0:0:
320,192,38521,128,8,38643:0:0:0:0:
192,192,38643,128,0,38765:0:0:0:0:
448,192,38643,128,0,39009:0:0:0:0:
64,192,38765,128,0,39009:0:0:0:0:
320,192,38765,1,0,0:0:0:0:
192,192,39009,128,2,39131:0:0:0:0:
320,192,39009,128,0,39253:0:0:0:0:
64,192,39131,128,0,39253:0:0:0:0:
192,192,39253,128,0,39436:0:0:0:0:
448,192,39253,1,0,0:0:0:0:
320,192,39375,128,0,39436:0:0:0:0:
448,192,39375,1,0,0:0:0:0:
64,192,39497,128,8,39741:0:0:0:0:
192,192,39497,128,0,39619:0:0:0:0:
448,192,39741,128,0,39802:0:0:0:0:
448,192,39863,128,0,39924:0:0:0:0:
64,192,39984,128,2,40228:0:0:0:0:
192,192,39984,128,4,40106:0:0:0:0:
320,192,39984,128,0,40106:0:0:0:0:
192,192,40228,128,0,40350:0:0:0:0:
320,192,40228,128,0,40350:0:0:0:0:
448,192,40228,128,0,40472:0:0:0:0:
64,192,40472,128,8,40594:0:0:0:0:
192,192,40472,128,0,40716:0:0:0:0:
320,192,40472,128,0,40594:0:0:0:0:
320,192,40716,128,0,40777:0:0:0:0:
448,192,40716,128,0,40838:0:0:0:0:
64,192,40838,128,0,41082:0:0:0:0:
192,192,40838,128,0,40960:0:0:0:0:
320,192,40960,1,2,0:0:0:0:
448,192,40960,128,0,41082:0:0:0:0:
192,192,41082,128,0,41204:0:0:0:0:
320,192,41082,1,0,0:0:0:0:
64,192,41204,128,0,41265:0:0:0:0:
448,192,41204,128,0,41326:0:0:0:0:
192,192,41326,128,0,41448:0:0:0:0:
320,192,41326,128,0,41387:0:0:0:0:
64,192,41448,128,8,41692:0:0:0:0:
448,192,41448,128,0,41570:0:0:0:0:
192,192,41570,1,0,0:0:0:0:
320,192,41570,128,0,41692:0:0:0:0:
192,192,41692,1,0,0:0:0:0:
448,192,41692,128,0,41753:0:0:0:0:
64,192,41814,128,0,41936:0:0:0:0:
192,192,41936,128,2,42180:0:0:0:0:
320,192,41936,128,0,42058:0:0:0:0:
448,192,41936,128,0,42058:0:0:0:0:
320,192,42180,128,0,42424:0:0:0:0:
448,192,42180,128,0,42302:0:0:0:0:
64,192,42424,128,8,42545:0:0:0:0:
192,192,42424,128,0,42667:0:0:0:0:
448,192,42424,128,0,42545:0:0:0:0:
64,192,42667,128,0,42789:0:0:0:0:
320,192,42667,128,0,42911:0:0:0:0:
64,192,42911,128,2,43033:0:0:0:0:
192,192,42911,128,0,43033:0:0:0:0:
448,192,42911,128,0,43277:0:0:0:0:
192,192,43155,128,0,43216:0:0:0:0:
64,192,43277,128,0,43399:0:0:0:0:
320,192,43277,128,0,43399:0:0:0:0:
192,192,43399,128,8,43460:0:0:0:0:
448,192,43399,128,0,43460:0:0:0:0:
320,192,43643,128,0,43765:0:0:0:0:
448,192,43643,128,0,43765:0:0:0:0:
192,192,43765,128,0,43887:0:0:0:0:
64,192,43887,128,2,44009:0:0:0:0:
320,192,43887,128,0,44009:0:0:0:0:
448,192,43887,128,0,44131:0:0:0:0:
64,192,44131,128,0,44375:0:0:0:0:
192,192,44131,128,0,44253:0:0:0:0:
320,192,44131,128,0,44253:0:0:0:0:
192,192,44375,128,8,44497:0:0:0:0:
320,192,44375,128,0,44619:0:0:0:0:
448,192,44375,128,0,44497:0:0:0:0:
64,192,44497,128,0,44619:0:0:0:0:
192,192,44619,128,0,44741:0:0:0:0:
448,192,44619,128,0,44741:0:0:0:0:
320,192,44741,128,0,44863:0:0:0:0:
64,192,44863,128,2,44984:0:0:0:0:
192,192,44863,1,0,0:0:0:0:
320,192,44984,1,0,0:0:0:0:
448,192,44984,128,0,45106:0:0:0:0:
64,192,45106,128,0,45228:0:0:0:0:
192,192,45106,1,0,0:0:0:0:
320,192,45228,1,0,0:0:0:0:
448,192,45228,128,0,45350:0:0:0:0:
64,192,45350,1,8,0:0:0:0:
192,192,45350,128,0,45472:0:0:0:0:
320,192,45472,128,0,45594:0:0:0:0:
448,192,45472,1,0,0:0:0:0:
64,192,45594,1,0,0:0:0:0:
448,192,45594,128,0,45838:0:0:0:0:
192,192,45716,1,0,0:0:0:0:
320,192,45716,128,0,45838:0:0:0:0:
64,192,45838,1,0,0:0:0:0:
192,192,45899,1,0,0:0:0:0:
320,192,45960,1,0,0:0:0:0:
64,192,46082,1,0,0:0:0:0:
64,192,46204,1,0,0:0:0:0:
192,192,46265,1,0,0:0:0:0:
448,192,46326,1,0,0:0:0:0:
320,192,46448,1,0,0:0:0:0:
320,192,46570,1,0,0:0:0:0:
64,192,46692,1,0,0:0:0:0:
448,192,46814,1,0,0:0:0:0:
192,192,46936,1,0,0:0:0:0:
192,192,47058,1,0,0:0:0:0:
448,192,47119,1,0,0:0:0:0:
64,192,47180,1,0,0:0:0:0:
320,192,47302,1,0,0:0:0:0:
192,192,47383,1,0,0:0:0:0:
448,192,47464,1,0,0:0:0:0:
192,192,47545,1,0,0:0:0:0:
320,192,47627,1,0,0:0:0:0:
192,192,47708,1,0,0:0:0:0:
64,192,47789,128,4,50716:0:0:0:0:
448,192,47789,1,0,0:0:0:0:
192,192,47911,1,0,0:0:0:0:
320,192,48033,1,0,0:0:0:0:
320,192,48155,128,0,48216:0:0:0:0:
448,192,48277,128,0,48399:0:0:0:0:
192,192,48399,1,0,0:0:0:0:
320,192,48521,128,0,48582:0:0:0:0:
320,192,48643,1,0,0:0:0:0:
448,192,48765,128,0,48826:0:0:0:0:
320,192,48887,128,0,48948:0:0:0:0:
448,192,49009,1,0,0:0:0:0:
192,192,49131,128,0,49253:0:0:0:0:
320,192,49253,128,0,49314:0:0:0:0:
192,192,49375,1,0,0:0:0:0:
448,192,49497,128,0,49619:0:0:0:0:
320,192,49619,128,0,49680:0:0:0:0:
192,192,49741,128,0,49802:0:0:0:0:
448,192,49863,1,0,0:0:0:0:
320,192,49984,128,0,50045:0:0:0:0:
192,192,50106,128,0,50167:0:0:0:0:
448,192,50228,1,0,0:0:0:0:
320,192,50350,128,0,50411:0:0:0:0:
448,192,50472,128,0,50533:0:0:0:0:
192,192,50594,1,0,0:0:0:0:
320,192,50716,128,0,50777:0:0:0:0:
320,192,50838,128,0,50960:0:0:0:0:
448,192,50960,128,0,51021:0:0:0:0:
192,192,51082,128,0,51204:0:0:0:0:
64,192,51204,128,0,51265:0:0:0:0:
448,192,51204,128,0,51692:0:0:0:0:
64,192,51326,128,0,51448:0:0:0:0:
320,192,51448,1,0,0:0:0:0:
192,192,51509,1,0,0:0:0:0:
64,192,51570,1,0,0:0:0:0:
320,192,51631,1,0,0:0:0:0:
192,192,51692,128,0,51753:0:0:0:0:
192,192,51814,1,0,0:0:0:0:
320,192,51814,128,0,51875:0:0:0:0:
448,192,51936,1,0,0:0:0:0:
64,192,52058,128,0,52119:0:0:0:0:
448,192,52058,1,0,0:0:0:0:
192,192,52180,1,0,0:0:0:0:
192,192,52302,1,0,0:0:0:0:
320,192,52424,1,0,0:0:0:0:
448,192,52424,128,0,52484:0:0:0:0:
320,192,52545,1,0,0:0:0:0:
64,192,52667,128,0,52728:0:0:0:0:
448,192,52667,128,0,52728:0:0:0:0:
64,192,52789,128,0,52850:0:0:0:0:
448,192,52911,128,0,52972:0:0:0:0:
192,192,53033,128,0,53094:0:0:0:0:
448,192,53033,128,0,53094:0:0:0:0:
320,192,53155,128,0,53216:0:0:0:0:
320,192,53277,128,0,53338:0:0:0:0:
64,192,53399,128,0,53460:0:0:0:0:
448,192,53399,128,0,53460:0:0:0:0:
64,192,53521,128,0,53582:0:0:0:0:
192,192,53643,128,0,53704:0:0:0:0:
320,192,53643,128,0,53704:0:0:0:0:
192,192,53765,128,0,53826:0:0:0:0:
64,192,53887,128,0,53948:0:0:0:0:
320,192,53887,128,0,53968:0:0:0:0:
192,192,54009,128,0,54070:0:0:0:0:
320,192,54009,128,0,54090:0:0:0:0:
448,192,54131,128,0,54212:0:0:0:0:
64,192,54253,128,0,54314:0:0:0:0:
448,192,54253,128,0,54334:0:0:0:0:
192,192,54375,128,0,54456:0:0:0:0:
320,192,54375,128,0,54436:0:0:0:0:
192,192,54497,128,0,54578:0:0:0:0:
64,192,54619,1,0,0:0:0:0:
320,192,54619,1,0,0:0:0:0:
448,192,54680,1,0,0:0:0:0:
192,192,54741,1,0,0:0:0:0:
320,192,54863,1,0,0:0:0:0:
448,192,54863,1,0,0:0:0:0:
64,192,54984,1,0,0:0:0:0:
320,192,55106,128,0,55533:0:0:0:0:
448,192,55106,128,0,55533:0:0:0:0:
64,192,55594,128,8,55716:0:0:0:0:
192,192,55594,1,0,0:0:0:0:
320,192,55716,1,0,0:0:0:0:
192,192,55838,1,2,0:0:0:0:
448,192,55838,128,0,55899:0:0:0:0:
64,192,55960,1,0,0:0:0:0:
448,192,55960,128,0,56204:0:0:0:0:
192,192,56082,1,8,0:0:0:0:
320,192,56204,1,0,0:0:0:0:
64,192,56326,128,2,56387:0:0:0:0:
192,192,56326,1,0,0:0:0:0:
64,192,56448,128,0,56509:0:0:0:0:
320,192,56448,1,0,0:0:0:0:
64,192,56570,128,8,56692:0:0:0:0:
448,192,56570,1,0,0:0:0:0:
320,192,56692,1,2,0:0:0:0:
192,192,56814,1,2,0:0:0:0:
448,192,56814,128,0,56875:0:0:0:0:
64,192,56936,1,2,0:0:0:0:
448,192,56936,128,0,57180:0:0:0:0:
192,192,57058,1,8,0:0:0:0:
320,192,57180,1,0,0:0:0:0:
64,192,57302,128,2,57363:0:0:0:0:
448,192,57302,1,0,0:0:0:0:
64,192,57424,128,0,57484:0:0:0:0:
320,192,57424,1,0,0:0:0:0:
64,192,57545,128,8,57667:0:0:0:0:
192,192,57545,1,0,0:0:0:0:
320,192,57667,1,2,0:0:0:0:
192,192,57789,128,0,57850:0:0:0:0:
448,192,57789,1,0,0:0:0:0:
64,192,57911,1,2,0:0:0:0:
192,192,57911,128,0,58155:0:0:0:0:
320,192,58033,1,8,0:0:0:0:
448,192,58155,128,2,58216:0:0:0:0:
64,192,58277,1,0,0:0:0:0:
448,192,58277,128,0,58338:0:0:0:0:
192,192,58399,1,2,0:0:0:0:
448,192,58399,128,0,58521:0:0:0:0:
320,192,58521,1,8,0:0:0:0:
192,192,58643,1,2,0:0:0:0:
448,192,58643,128,0,58765:0:0:0:0:
64,192,58765,1,0,0:0:0:0:
320,192,58765,128,0,58887:0:0:0:0:
64,192,58887,128,2,59009:0:0:0:0:
448,192,58887,1,0,0:0:0:0:
192,192,58948,1,2,0:0:0:0:
320,192,59009,1,8,0:0:0:0:
448,192,59070,1,0,0:0:0:0:
192,192,59131,1,2,0:0:0:0:
64,192,59192,1,0,0:0:0:0:
320,192,59253,1,8,0:0:0:0:
448,192,59253,1,0,0:0:0:0:
64,192,59375,128,2,59497:0:0:0:0:
192,192,59375,1,0,0:0:0:0:
320,192,59497,128,4,59680:0:0:0:0:
448,192,59497,128,2,59741:0:0:0:0:
192,192,59619,1,0,0:0:0:0:
64,192,59741,128,2,59984:0:0:0:0:
320,192,59741,128,0,59863:0:0:0:0:
192,192,59863,1,0,0:0:0:0:
320,192,59984,128,2,60106:0:0:0:0:
448,192,59984,128,0,60228:0:0:0:0:
192,192,60106,1,0,0:0:0:0:
64,192,60228,128,2,60472:0:0:0:0:
320,192,60228,128,0,60289:0:0:0:0:
448,192,60350,1,0,0:0:0:0:
192,192,60472,128,2,60533:0:0:0:0:
320,192,60472,128,0,60655:0:0:0:0:
64,192,60594,1,0,0:0:0:0:
192,192,60716,128,2,60777:0:0:0:0:
448,192,60716,128,0,60838:0:0:0:0:
64,192,60838,1,0,0:0:0:0:
320,192,60960,128,8,61041:0:0:0:0:
448,192,60960,128,0,61021:0:0:0:0:
192,192,61082,1,0,0:0:0:0:
64,192,61204,128,8,61265:0:0:0:0:
320,192,61204,128,0,61265:0:0:0:0:
192,192,61326,1,0,0:0:0:0:
64,192,61448,1,8,0:0:0:0:
448,192,61448,128,0,61509:0:0:0:0:
320,192,61509,128,8,61570:0:0:0:0:
64,192,61570,128,8,61631:0:0:0:0:
192,192,61631,128,8,61692:0:0:0:0:
320,192,61692,128,8,61753:0:0:0:0:
448,192,61753,128,8,61814:0:0:0:0:
192,192,61814,128,8,61875:0:0:0:0:
64,192,61875,128,8,61936:0:0:0:0:
320,192,61936,128,8,61997:0:0:0:0:
192,192,61997,128,8,62058:0:0:0:0:
64,192,62058,128,8,62119:0:0:0:0:
448,192,62119,128,8,62241:0:0:0:0:
320,192,62180,128,8,62302:0:0:0:0:
192,192,62241,128,8,62363:0:0:0:0:
64,192,62302,128,8,62424:0:0:0:0:
448,192,62363,128,8,62424:0:0:0:0:
320,192,62424,128,0,62545:0:0:0:0:
192,192,62911,128,0,63033:0:0:0:0:
448,192,62911,128,0,63094:0:0:0:0:
64,192,63399,128,2,63643:0:0:0:0:
192,192,63399,128,4,63521:0:0:0:0:
320,192,63399,128,0,63521:0:0:0:0:
192,192,63643,128,0,63887:0:0:0:0:
320,192,63643,128,0,63765:0:0:0:0:
320,192,63887,128,8,64009:0:0:0:0:
448,192,63887,128,0,64009:0:0:0:0:
192,192,63948,1,0,0:0:0:0:
64,192,64009,128,0,64192:0:0:0:0:
192,192,64070,128,0,64192:0:0:0:0:
320,192,64131,128,2,64192:0:0:0:0:
448,192,64131,1,0,0:0:0:0:
448,192,64253,128,0,64436:0:0:0:0:
320,192,64314,128,0,64436:0:0:0:0:
64,192,64375,1,2,0:0:0:0:
192,192,64375,128,0,64436:0:0:0:0:
448,192,64497,128,0,64619:0:0:0:0:
320,192,64558,128,0,64619:0:0:0:0:
64,192,64619,128,0,64802:0:0:0:0:
192,192,64619,128,0,64741:0:0:0:0:
64,192,64863,128,8,65167:0:0:0:0:
192,192,64863,128,0,64984:0:0:0:0:
320,192,65106,128,0,65289:0:0:0:0:
448,192,65106,128,0,65350:0:0:0:0:
64,192,65350,128,2,65594:0:0:0:0:
192,192,65350,128,0,65472:0:0:0:0:
320,192,65472,128,0,65594:0:0:0:0:
192,192,65594,128,0,65655:0:0:0:0:
448,192,65594,128,0,65716:0:0:0:0:
64,192,65716,128,0,65777:0:0:0:0:
192,192,65716,128,0,65777:0:0:0:0:
192,192,65838,128,8,65899:0:0:0:0:
320,192,65838,128,0,65960:0:0:0:0:
64,192,66082,128,0,66326:0:0:0:0:
192,192,66143,1,0,0:0:0:0:
320,192,66204,128,0,66265:0:0:0:0:
192,192,66265,1,0,0:0:0:0:
320,192,66326,128,2,66448:0:0:0:0:
448,192,66326,128,0,66448:0:0:0:0:
64,192,66448,128,0,66570:0:0:0:0:
192,192,66448,128,0,66570:0:0:0:0:
320,192,66570,128,0,66692:0:0:0:0:
448,192,66570,128,0,66692:0:0:0:0:
64,192,66692,128,0,66814:0:0:0:0:
192,192,66692,128,0,66814:0:0:0:0:
448,192,66814,128,8,66997:0:0:0:0:
64,192,66875,128,0,66997:0:0:0:0:
192,192,66936,128,0,66997:0:0:0:0:
320,192,66997,1,0,0:0:0:0:
64,192,67058,128,0,67241:0:0:0:0:
192,192,67119,128,0,67241:0:0:0:0:
320,192,67180,128,0,67241:0:0:0:0:
448,192,67180,128,0,67241:0:0:0:0:
320,192,67302,128,2,67789:0:0:0:0:
448,192,67302,128,0,67545:0:0:0:0:
64,192,67545,1,0,0:0:0:0:
192,192,67545,128,0,67606:0:0:0:0:
192,192,67667,128,0,67728:0:0:0:0:
192,192,67789,128,8,68033:0:0:0:0:
448,192,67789,128,0,68277:0:0:0:0:
64,192,68033,1,0,0:0:0:0:
320,192,68033,128,0,68094:0:0:0:0:
320,192,68155,128,0,68216:0:0:0:0:
64,192,68277,128,2,68643:0:0:0:0:
320,192,68277,128,0,68521:0:0:0:0:
448,192,68521,128,0,68582:0:0:0:0:
192,192,68521,1,0,0:0:0:0:
448,192,68643,128,0,68704:0:0:0:0:
64,192,68765,128,8,69131:0:0:0:0:
448,192,68765,128,0,69253:0:0:0:0:
192,192,68887,128,0,69009:0:0:0:0:
320,192,69009,128,0,69131:0:0:0:0:
192,192,69131,128,0,69253:0:0:0:0:
64,192,69253,128,2,69741:0:0:0:0:
320,192,69253,128,0,69375:0:0:0:0:
192,192,69375,128,0,69436:0:0:0:0:
192,192,69497,128,0,69619:0:0:0:0:
320,192,69497,128,0,69558:0:0:0:0:
448,192,69619,128,0,69680:0:0:0:0:
320,192,69741,128,8,69863:0:0:0:0:
448,192,69741,128,0,70228:0:0:0:0:
64,192,69863,128,0,69924:0:0:0:0:
64,192,69984,128,0,70106:0:0:0:0:
192,192,69984,128,0,70045:0:0:0:0:
320,192,70106,128,0,70167:0:0:0:0:
192,192,70228,128,8,70350:0:0:0:0:
320,192,70228,128,0,70472:0:0:0:0:
64,192,70350,128,0,70411:0:0:0:0:
64,192,70472,128,2,70655:0:0:0:0:
192,192,70472,128,0,70594:0:0:0:0:
320,192,70594,128,0,70655:0:0:0:0:
448,192,70594,128,0,70716:0:0:0:0:
64,192,70716,128,8,71204:0:0:0:0:
192,192,70716,128,0,70838:0:0:0:0:
320,192,70838,128,0,70899:0:0:0:0:
192,192,70960,128,0,71082:0:0:0:0:
320,192,70960,128,0,71082:0:0:0:0:
448,192,71082,128,0,71204:0:0:0:0:
192,192,71204,128,4,71387:0:0:0:0:
320,192,71204,128,2,71387:0:0:0:0:
192,192,71448,128,0,71631:0:0:0:0:
320,192,71448,128,0,71631:0:0:0:0:
64,192,71692,128,8,71936:0:0:0:0:
320,192,71692,128,0,71814:0:0:0:0:
448,192,71692,128,0,71814:0:0:0:0:
320,192,71936,128,2,71997:0:0:0:0:
448,192,71936,128,0,71997:0:0:0:0:
64,192,72058,128,0,72119:0:0:0:0:
192,192,72058,128,0,72119:0:0:0:0:
320,192,72119,128,0,72180:0:0:0:0:
64,192,72180,1,2,0:0:0:0:
448,192,72180,128,0,72424:0:0:0:0:
64,192,72424,128,0,72606:0:0:0:0:
192,192,72424,128,0,72606:0:0:0:0:
320,192,72424,128,0,72606:0:0:0:0:
64,192,72667,128,8,72911:0:0:0:0:
192,192,72667,1,0,0:0:0:0:
320,192,72667,128,0,72850:0:0:0:0:
192,192,72911,128,0,73033:0:0:0:0:
448,192,72911,128,0,73155:0:0:0:0:
64,192,73155,128,2,73399:0:0:0:0:
320,192,73155,1,0,0:0:0:0:
320,192,73277,1,0,0:0:0:0:
320,192,73399,128,0,73521:0:0:0:0:
448,192,73399,128,0,73643:0:0:0:0:
192,192,73521,128,0,73582:0:0:0:0:
64,192,73643,128,8,73704:0:0:0:0:
192,192,73643,128,0,73887:0:0:0:0:
448,192,73765,128,0,73887:0:0:0:0:
64,192,73887,128,0,74131:0:0:0:0:
320,192,73887,128,0,74131:0:0:0:0:
192,192,74131,1,2,0:0:0:0:
448,192,74131,128,0,74253:0:0:0:0:
64,192,74253,128,0,74436:0:0:0:0:
192,192,74253,1,0,0:0:0:0:
320,192,74375,128,0,74436:0:0:0:0:
448,192,74375,128,0,74436:0:0:0:0:
64,192,74497,128,0,74558:0:0:0:0:
192,192,74497,128,0,74619:0:0:0:0:
320,192,74619,1,8,0:0:0:0:
448,192,74619,128,0,74741:0:0:0:0:
64,192,74741,128,0,74863:0:0:0:0:
320,192,74741,1,0,0:0:0:0:
320,192,74863,128,0,74924:0:0:0:0:
448,192,74863,128,0,74924:0:0:0:0:
64,192,74984,128,0,75106:0:0:0:0:
192,192,75106,128,2,75188:0:0:0:0:
320,192,75106,128,0,75188:0:0:0:0:
64,192,75188,128,0,75269:0:0:0:0:
448,192,75188,128,0,75269:0:0:0:0:
192,192,75269,128,0,75350:0:0:0:0:
320,192,75269,128,0,75350:0:0:0:0:
64,192,75350,128,0,75513:0:0:0:0:
448,192,75350,128,0,75594:0:0:0:0:
192,192,75594,128,8,75716:0:0:0:0:
320,192,75594,128,0,75777:0:0:0:0:
64,192,75716,128,0,75838:0:0:0:0:
320,192,75838,128,0,75960:0:0:0:0:
448,192,75838,1,0,0:0:0:0:
192,192,75960,128,0,76082:0:0:0:0:
64,192,76082,128,2,76326:0:0:0:0:
320,192,76082,128,0,76204:0:0:0:0:
448,192,76204,128,0,76326:0:0:0:0:
192,192,76326,128,0,76570:0:0:0:0:
320,192,76326,128,0,76448:0:0:0:0:
64,192,76448,128,0,76509:0:0:0:0:
64,192,76570,128,8,76692:0:0:0:0:
448,192,76570,128,0,76631:0:0:0:0:
192,192,76692,128,0,76814:0:0:0:0:
320,192,76692,128,0,76753:0:0:0:0:
64,192,76814,128,0,76936:0:0:0:0:
448,192,76814,128,0,76936:0:0:0:0:
192,192,76936,128,0,77058:0:0:0:0:
320,192,76936,128,0,77058:0:0:0:0:
64,192,77058,1,0,0:0:0:0:
448,192,77058,128,0,78521:0:0:0:0:
192,192,77302,1,0,0:0:0:0:
64,192,77424,1,0,0:0:0:0:
64,192,77667,1,0,0:0:0:0:
320,192,77911,1,0,0:0:0:0:
192,192,78155,1,0,0:0:0:0:
64,192,78277,1,0,0:0:0:0:
320,192,78277,1,0,0:0:0:0:
64,192,78399,1,0,0:0:0:0:
192,192,78521,128,0,78643:0:0:0:0:
320,192,78521,128,0,78643:0:0:0:0:
64,192,78643,128,0,78765:0:0:0:0:
448,192,78643,128,0,78704:0:0:0:0:
192,192,78765,128,0,78887:0:0:0:0:
448,192,78765,128,0,78826:0:0:0:0:
192,192,79009,128,4,79131:0:0:0:0:
320,192,79009,128,2,79131:0:0:0:0:
448,192,79009,128,0,79253:0:0:0:0:
192,192,79253,128,0,79375:0:0:0:0:
320,192,79253,128,0,79497:0:0:0:0:
64,192,79497,128,8,79619:0:0:0:0:
192,192,79497,128,0,79619:0:0:0:0:
320,192,79558,1,0,0:0:0:0:
448,192,79619,128,0,79802:0:0:0:0:
320,192,79680,128,0,79802:0:0:0:0:
64,192,79741,1,2,0:0:0:0:
192,192,79741,128,0,79802:0:0:0:0:
64,192,79863,128,0,80045:0:0:0:0:
192,192,79924,128,0,80045:0:0:0:0:
320,192,79984,128,2,80045:0:0:0:0:
448,192,79984,1,0,0:0:0:0:
64,192,80106,128,0,80228:0:0:0:0:
192,192,80167,128,0,80228:0:0:0:0:
320,192,80228,128,0,80350:0:0:0:0:
448,192,80228,128,0,80411:0:0:0:0:
320,192,80472,128,8,80594:0:0:0:0:
448,192,80472,128,0,80777:0:0:0:0:
64,192,80716,128,0,80960:0:0:0:0:
192,192,80716,128,0,80899:0:0:0:0:
320,192,80960,128,2,81082:0:0:0:0:
448,192,80960,128,0,81204:0:0:0:0:
192,192,81082,128,0,81204:0:0:0:0:
64,192,81204,128,0,81326:0:0:0:0:
320,192,81204,128,0,81265:0:0:0:0:
320,192,81326,128,0,81387:0:0:0:0:
448,192,81326,128,0,81387:0:0:0:0:
192,192,81448,128,8,81570:0:0:0:0:
320,192,81448,128,0,81509:0:0:0:0:
448,192,81692,128,0,81936:0:0:0:0:
320,192,81753,1,0,0:0:0:0:
192,192,81814,128,0,81875:0:0:0:0:
320,192,81875,1,0,0:0:0:0:
64,192,81936,128,2,82058:0:0:0:0:
192,192,81936,128,0,82058:0:0:0:0:
320,192,82058,128,0,82180:0:0:0:0:
448,192,82058,128,0,82180:0:0:0:0:
64,192,82180,128,0,82302:0:0:0:0:
192,192,82180,128,0,82302:0:0:0:0:
320,192,82302,128,0,82424:0:0:0:0:
448,192,82302,128,0,82424:0:0:0:0:
64,192,82424,128,8,82606:0:0:0:0:
448,192,82484,128,0,82606:0:0:0:0:
320,192,82545,128,0,82606:0:0:0:0:
192,192,82606,1,0,0:0:0:0:
448,192,82667,128,0,82850:0:0:0:0:
320,192,82728,128,0,82850:0:0:0:0:
64,192,82789,128,0,82850:0:0:0:0:
192,192,82789,128,0,82850:0:0:0:0:
64,192,82911,128,2,83155:0:0:0:0:
192,192,82911,128,0,83399:0:0:0:0:
320,192,83155,128,0,83216:0:0:0:0:
448,192,83155,1,0,0:0:0:0:
320,192,83277,128,0,83338:0:0:0:0:
64,192,83399,128,8,83887:0:0:0:0:
320,192,83399,128,0,83643:0:0:0:0:
192,192,83643,128,0,83704:0:0:0:0:
448,192,83643,1,0,0:0:0:0:
192,192,83765,128,0,83826:0:0:0:0:
192,192,83887,128,2,84131:0:0:0:0:
448,192,83887,128,0,84253:0:0:0:0:
64,192,84131,128,0,84192:0:0:0:0:
320,192,84131,1,0,0:0:0:0:
64,192,84253,128,0,84314:0:0:0:0:
64,192,84375,128,8,84863:0:0:0:0:
448,192,84375,128,0,84741:0:0:0:0:
320,192,84497,128,0,84619:0:0:0:0:
192,192,84619,128,0,84741:0:0:0:0:
320,192,84741,128,0,84863:0:0:0:0:
192,192,84863,128,2,84984:0:0:0:0:
448,192,84863,128,0,85350:0:0:0:0:
320,192,84984,128,0,85045:0:0:0:0:
192,192,85106,128,0,85167:0:0:0:0:
320,192,85106,128,0,85228:0:0:0:0:
64,192,85228,128,0,85289:0:0:0:0:
64,192,85350,128,8,85838:0:0:0:0:
192,192,85350,128,0,85472:0:0:0:0:
448,192,85472,128,0,85533:0:0:0:0:
320,192,85594,128,0,85655:0:0:0:0:
448,192,85594,128,0,85716:0:0:0:0:
192,192,85716,128,0,85777:0:0:0:0:
192,192,85838,128,8,86082:0:0:0:0:
320,192,85838,128,0,85960:0:0:0:0:
448,192,85960,128,0,86021:0:0:0:0:
320,192,86082,128,2,86204:0:0:0:0:
448,192,86082,128,0,86204:0:0:0:0:
64,192,86204,128,0,86326:0:0:0:0:
192,192,86204,128,0,86326:0:0:0:0:
320,192,86326,128,8,86448:0:0:0:0:
448,192,86326,128,0,86814:0:0:0:0:
192,192,86448,128,0,86509:0:0:0:0:
192,192,86570,128,0,86692:0:0:0:0:
320,192,86570,128,0,86692:0:0:0:0:
64,192,86692,128,0,86814:0:0:0:0:
192,192,86814,128,4,86997:0:0:0:0:
320,192,86814,128,2,86997:0:0:0:0:
192,192,87058,128,0,87241:0:0:0:0:
320,192,87058,128,0,87241:0:0:0:0:
64,192,87302,128,8,87424:0:0:0:0:
192,192,87302,128,0,87424:0:0:0:0:
448,192,87302,128,0,87545:0:0:0:0:
64,192,87545,128,2,87606:0:0:0:0:
192,192,87545,128,0,87606:0:0:0:0:
320,192,87667,128,0,87728:0:0:0:0:
448,192,87667,128,0,87728:0:0:0:0:
192,192,87728,128,0,87789:0:0:0:0:
64,192,87789,128,2,88033:0:0:0:0:
448,192,87789,1,0,0:0:0:0:
192,192,88033,128,0,88216:0:0:0:0:
320,192,88033,128,0,88216:0:0:0:0:
448,192,88033,128,0,88216:0:0:0:0:
192,192,88277,128,8,88460:0:0:0:0:
320,192,88277,1,0,0:0:0:0:
448,192,88277,128,0,88521:0:0:0:0:
64,192,88521,128,0,88765:0:0:0:0:
320,192,88521,128,0,88643:0:0:0:0:
192,192,88765,1,2,0:0:0:0:
448,192,88765,128,0,89009:0:0:0:0:
192,192,88887,1,0,0:0:0:0:
64,192,89009,128,0,89253:0:0:0:0:
192,192,89009,128,0,89131:0:0:0:0:
320,192,89131,128,2,89192:0:0:0:0:
320,192,89253,128,8,89497:0:0:0:0:
448,192,89253,128,0,89314:0:0:0:0:
64,192,89375,128,0,89497:0:0:0:0:
192,192,89497,128,2,89741:0:0:0:0:
448,192,89497,128,0,89741:0:0:0:0:
64,192,89741,128,2,89863:0:0:0:0:
320,192,89741,1,0,0:0:0:0:
320,192,89863,1,0,0:0:0:0:
448,192,89863,128,0,90045:0:0:0:0:
64,192,89984,128,0,90045:0:0:0:0:
192,192,89984,128,0,90045:0:0:0:0:
320,192,90106,128,2,90228:0:0:0:0:
448,192,90106,128,0,90167:0:0:0:0:
64,192,90228,128,8,90350:0:0:0:0:
192,192,90228,1,0,0:0:0:0:
192,192,90350,1,0,0:0:0:0:
448,192,90350,128,0,90472:0:0:0:0:
64,192,90472,128,0,90533:0:0:0:0:
192,192,90472,128,0,90533:0:0:0:0:
320,192,90594,1,0,0:0:0:0:
448,192,90594,128,0,90716:0:0:0:0:
192,192,90716,1,2,0:0:0:0:
320,192,90757,1,0,0:0:0:0:
64,192,90879,1,0,0:0:0:0:
448,192,90919,1,0,0:0:0:0:
192,192,91041,1,0,0:0:0:0:
320,192,91082,1,0,0:0:0:0:
192,192,91204,128,8,91326:0:0:0:0:
320,192,91204,128,0,91326:0:0:0:0:
448,192,91326,128,0,91448:0:0:0:0:
64,192,91448,1,0,0:0:0:0:
192,192,91448,128,0,91570:0:0:0:0:
320,192,91570,128,0,91692:0:0:0:0:
192,192,91692,128,2,91814:0:0:0:0:
448,192,91692,128,0,91936:0:0:0:0:
64,192,91814,128,0,91936:0:0:0:0:
192,192,91936,128,0,92058:0:0:0:0:
320,192,91936,128,0,92180:0:0:0:0:
64,192,92058,128,0,92119:0:0:0:0:
64,192,92180,128,8,92302:0:0:0:0:
448,192,92180,128,0,92241:0:0:0:0:
192,192,92302,128,0,92363:0:0:0:0:
320,192,92302,128,0,92424:0:0:0:0:
64,192,92424,128,0,92545:0:0:0:0:
448,192,92424,128,0,92545:0:0:0:0:
192,192,92545,128,0,92667:0:0:0:0:
320,192,92545,128,0,92667:0:0:0:0:
64,192,92667,1,0,0:0:0:0:
448,192,92667,128,0,94131:0:0:0:0:
320,192,92911,1,0,0:0:0:0:
64,192,93033,1,0,0:0:0:0:
192,192,93277,1,0,0:0:0:0:
64,192,93521,1,0,0:0:0:0:
320,192,93765,1,0,0:0:0:0:
64,192,93887,1,0,0:0:0:0:
192,192,93887,1,0,0:0:0:0:
320,192,94009,1,0,0:0:0:0:
192,192,94131,1,0,0:0:0:0:
192,192,94253,1,0,0:0:0:0:
192,192,94375,1,0,0:0:0:0:
192,192,94497,1,0,0:0:0:0:
64,192,94619,128,0,95350:0:0:0:0:
448,192,94619,128,0,96570:0:0:0:0:
192,192,94863,1,0,0:0:0:0:
192,192,95106,1,0,0:0:0:0:
320,192,95228,1,0,0:0:0:0:
192,192,95350,128,0,95594:0:0:0:0:
64,192,95472,128,0,95594:0:0:0:0:
320,192,95594,128,0,95960:0:0:0:0:
192,192,95960,128,0,96204:0:0:0:0:
320,192,96326,128,0,96448:0:0:0:0:
64,192,96570,128,0,96814:0:0:0:0:
192,192,96570,128,0,97180:0:0:0:0:
320,192,96814,1,0,0:0:0:0:
320,192,97058,1,0,0:0:0:0:
64,192,97180,1,0,0:0:0:0:
448,192,97302,128,0,97545:0:0:0:0:
64,192,97424,128,0,97545:0:0:0:0:
192,192,97545,128,0,97911:0:0:0:0:
320,192,97545,128,0,97789:0:0:0:0:
448,192,97789,128,0,97911:0:0:0:0:
64,192,97911,128,0,98521:0:0:0:0:
320,192,97911,128,0,98521:0:0:0:0:
448,192,98521,128,0,98765:0:0:0:0:
192,192,98765,128,0,99009:0:0:0:0:
448,192,98887,128,0,99009:0:0:0:0:
320,192,99131,128,0,99253:0:0:0:0:
64,192,99253,128,0,99314:0:0:0:0:
448,192,99253,1,0,0:0:0:0:
64,192,99497,128,0,99741:0:0:0:0:
320,192,99497,1,0,0:0:0:0:
192,192,99741,128,0,100106:0:0:0:0:
320,192,99741,1,0,0:0:0:0:
448,192,99863,128,0,100106:0:0:0:0:
192,192,100228,128,0,100472:0:0:0:0:
448,192,100228,128,0,100472:0:0:0:0:
64,192,100472,128,0,100716:0:0:0:0:
320,192,100594,128,0,100716:0:0:0:0:
448,192,100716,128,0,100960:0:0:0:0:
192,192,100838,128,0,100960:0:0:0:0:
64,192,100960,128,0,101204:0:0:0:0:
320,192,101082,128,0,101448:0:0:0:0:
192,192,101204,128,0,101448:0:0:0:0:
64,192,101326,128,0,101448:0:0:0:0:
448,192,101448,128,0,101570:0:0:0:0:
64,192,101570,128,0,101692:0:0:0:0:
192,192,101692,1,0,0:0:0:0:
448,192,101692,128,0,101814:0:0:0:0:
64,192,101814,128,0,101936:0:0:0:0:
320,192,101814,1,0,0:0:0:0:
192,192,101936,1,0,0:0:0:0:
448,192,101936,128,0,102180:0:0:0:0:
64,192,102058,1,0,0:0:0:0:
320,192,102058,128,0,102180:0:0:0:0:
192,192,102180,128,0,102424:0:0:0:0:
448,192,102302,128,0,102424:0:0:0:0:
64,192,102424,1,0,0:0:0:0:
320,192,102424,128,0,103155:0:0:0:0:
64,192,102667,1,0,0:0:0:0:
448,192,102911,1,0,0:0:0:0:
64,192,103033,1,0,0:0:0:0:
192,192,103155,128,0,103399:0:0:0:0:
320,192,103277,128,0,103399:0:0:0:0:
64,192,103399,128,0,103643:0:0:0:0:
448,192,103399,128,0,103765:0:0:0:0:
320,192,103643,1,0,0:0:0:0:
64,192,103765,1,0,0:0:0:0:
192,192,103765,128,0,104131:0:0:0:0:
320,192,104009,128,0,104131:0:0:0:0:
64,192,104131,128,0,104375:0:0:0:0:
448,192,104131,1,0,0:0:0:0:
192,192,104375,128,0,104619:0:0:0:0:
448,192,104375,128,0,104619:0:0:0:0:
64,192,104619,128,0,104802:0:0:0:0:
320,192,104619,128,0,104863:0:0:0:0:
64,192,104863,128,0,105106:0:0:0:0:
448,192,104863,128,0,105045:0:0:0:0:
192,192,105106,128,0,105228:0:0:0:0:
448,192,105106,128,0,105228:0:0:0:0:
320,192,105350,128,0,105411:0:0:0:0:
448,192,105350,128,0,105411:0:0:0:0:
64,192,105594,128,0,105716:0:0:0:0:
448,192,105594,128,0,105716:0:0:0:0:
192,192,105716,128,0,106082:0:0:0:0:
320,192,105716,128,0,106326:0:0:0:0:
64,192,106082,128,0,106326:0:0:0:0:
448,192,106326,128,0,106570:0:0:0:0:
192,192,106570,128,0,106692:0:0:0:0:
320,192,106692,128,0,107058:0:0:0:0:
448,192,106936,128,0,107058:0:0:0:0:
64,192,107058,1,0,0:0:0:0:
192,192,107058,1,0,0:0:0:0:
64,192,107302,128,0,107545:0:0:0:0:
448,192,107302,1,0,0:0:0:0:
192,192,107545,128,0,107911:0:0:0:0:
320,192,107667,128,0,107911:0:0:0:0:
448,192,107911,128,0,108033:0:0:0:0:
192,192,108033,128,0,108216:0:0:0:0:
320,192,108033,128,0,108216:0:0:0:0:
64,192,108277,128,0,108399:0:0:0:0:
448,192,108277,128,0,108521:0:0:0:0:
192,192,108399,128,0,108521:0:0:0:0:
64,192,108521,128,0,108765:0:0:0:0:
320,192,108521,128,0,108643:0:0:0:0:
192,192,108643,128,0,108765:0:0:0:0:
320,192,108765,128,0,109009:0:0:0:0:
448,192,108765,128,0,108887:0:0:0:0:
64,192,108887,128,0,109009:0:0:0:0:
192,192,109009,128,0,109131:0:0:0:0:
448,192,109009,128,0,109253:0:0:0:0:
320,192,109131,128,0,109253:0:0:0:0:
64,192,109253,1,0,0:0:0:0:
192,192,109253,1,0,0:0:0:0:
64,192,109375,1,0,0:0:0:0:
192,192,109375,1,0,0:0:0:0:
64,192,109497,1,0,0:0:0:0:
448,192,109497,128,0,109741:0:0:0:0:
320,192,109558,128,0,109680:0:0:0:0:
64,192,109741,128,0,109984:0:0:0:0:
320,192,109802,128,0,109924:0:0:0:0:
192,192,109984,128,0,110228:0:0:0:0:
448,192,110045,128,0,110167:0:0:0:0:
64,192,110228,128,4,110472:0:0:0:0:
320,192,110228,128,2,110350:0:0:0:0:
448,192,110228,128,0,110350:0:0:0:0:
192,192,110472,128,0,110594:0:0:0:0:
320,192,110472,128,0,110594:0:0:0:0:
448,192,110472,128,0,110594:0:0:0:0:
64,192,110716,128,8,110838:0:0:0:0:
320,192,110716,128,0,110960:0:0:0:0:
448,192,110716,128,0,110838:0:0:0:0:
192,192,110960,1,0,0:0:0:0:
448,192,110960,128,0,111082:0:0:0:0:
64,192,111082,128,0,111326:0:0:0:0:
192,192,111082,1,0,0:0:0:0:
320,192,111204,1,2,0:0:0:0:
448,192,111204,128,0,111326:0:0:0:0:
192,192,111326,128,0,111509:0:0:0:0:
320,192,111326,1,0,0:0:0:0:
64,192,111448,1,0,0:0:0:0:
192,192,111570,128,0,111631:0:0:0:0:
448,192,111570,128,0,111692:0:0:0:0:
320,192,111692,1,8,0:0:0:0:
64,192,111814,1,0,0:0:0:0:
448,192,111814,128,0,111936:0:0:0:0:
64,192,111936,1,0,0:0:0:0:
320,192,111936,128,0,111997:0:0:0:0:
64,192,112058,128,0,112180:0:0:0:0:
448,192,112058,128,0,112119:0:0:0:0:
192,192,112180,128,2,112424:0:0:0:0:
320,192,112180,128,0,112302:0:0:0:0:
448,192,112180,128,0,112302:0:0:0:0:
64,192,112424,128,0,112545:0:0:0:0:
448,192,112424,128,0,112667:0:0:0:0:
64,192,112667,128,8,112911:0:0:0:0:
192,192,112667,128,0,112789:0:0:0:0:
320,192,112667,128,0,112789:0:0:0:0:
320,192,112911,128,0,112972:0:0:0:0:
448,192,112911,128,0,113094:0:0:0:0:
64,192,113155,128,2,113521:0:0:0:0:
192,192,113155,128,0,113277:0:0:0:0:
448,192,113155,128,0,113277:0:0:0:0:
192,192,113521,128,0,113643:0:0:0:0:
448,192,113521,128,0,113643:0:0:0:0:
64,192,113643,128,8,113704:0:0:0:0:
320,192,113643,128,0,113704:0:0:0:0:
448,192,113887,128,0,114009:0:0:0:0:
320,192,114009,128,0,114131:0:0:0:0:
64,192,114131,128,2,114375:0:0:0:0:
192,192,114131,128,0,114253:0:0:0:0:
192,192,114375,128,0,114497:0:0:0:0:
320,192,114375,128,0,114619:0:0:0:0:
448,192,114375,128,0,114497:0:0:0:0:
64,192,114619,128,8,114863:0:0:0:0:
192,192,114619,128,0,114741:0:0:0:0:
448,192,114619,128,0,114741:0:0:0:0:
192,192,114863,128,0,114984:0:0:0:0:
320,192,114863,128,0,114984:0:0:0:0:
192,192,115106,128,2,115228:0:0:0:0:
448,192,115106,1,0,0:0:0:0:
64,192,115228,128,0,115350:0:0:0:0:
448,192,115228,1,0,0:0:0:0:
192,192,115350,128,0,115411:0:0:0:0:
320,192,115350,128,0,115472:0:0:0:0:
64,192,115472,128,0,115594:0:0:0:0:
448,192,115472,128,0,115533:0:0:0:0:
192,192,115594,1,8,0:0:0:0:
320,192,115594,128,0,115716:0:0:0:0:
192,192,115716,1,0,0:0:0:0:
448,192,115716,128,0,115838:0:0:0:0:
64,192,115838,128,0,115960:0:0:0:0:
320,192,115838,128,0,115899:0:0:0:0:
192,192,115960,128,0,116082:0:0:0:0:
448,192,115960,128,0,116021:0:0:0:0:
64,192,116082,1,2,0:0:0:0:
320,192,116082,128,0,116326:0:0:0:0:
192,192,116204,128,0,116326:0:0:0:0:
64,192,116326,128,0,116570:0:0:0:0:
448,192,116326,128,0,116570:0:0:0:0:
320,192,116448,128,0,116570:0:0:0:0:
192,192,116570,128,8,116692:0:0:0:0:
64,192,116692,128,0,117058:0:0:0:0:
320,192,116692,128,0,116814:0:0:0:0:
192,192,116814,1,0,0:0:0:0:
448,192,116814,128,0,117058:0:0:0:0:
192,192,117058,128,2,117302:0:0:0:0:
320,192,117058,128,0,117180:0:0:0:0:
448,192,117180,128,0,117302:0:0:0:0:
64,192,117302,1,0,0:0:0:0:
320,192,117302,128,0,117484:0:0:0:0:
64,192,117424,1,0,0:0:0:0:
192,192,117424,128,0,117484:0:0:0:0:
320,192,117545,128,8,117667:0:0:0:0:
448,192,117545,128,0,117789:0:0:0:0:
64,192,117789,128,0,117850:0:0:0:0:
64,192,117911,128,0,117972:0:0:0:0:
192,192,118033,128,4,118155:0:0:0:0:
320,192,118033,128,2,118155:0:0:0:0:
448,192,118033,128,0,118277:0:0:0:0:
64,192,118277,128,0,118521:0:0:0:0:
192,192,118277,128,0,118399:0:0:0:0:
320,192,118277,128,0,118399:0:0:0:0:
192,192,118521,128,8,118643:0:0:0:0:
320,192,118521,128,0,118765:0:0:0:0:
448,192,118521,128,0,118643:0:0:0:0:
64,192,118765,128,0,118887:0:0:0:0:
192,192,118765,128,0,118826:0:0:0:0:
320,192,118887,128,0,119009:0:0:0:0:
448,192,118887,128,0,119131:0:0:0:0:
64,192,119009,128,2,119131:0:0:0:0:
192,192,119009,1,0,0:0:0:0:
192,192,119131,1,0,0:0:0:0:
320,192,119131,128,0,119253:0:0:0:0:
64,192,119253,128,0,119375:0:0:0:0:
448,192,119253,128,0,119314:0:0:0:0:
192,192,119375,128,0,119436:0:0:0:0:
320,192,119375,128,0,119497:0:0:0:0:
64,192,119497,128,8,119619:0:0:0:0:
448,192,119497,128,0,119741:0:0:0:0:
192,192,119619,128,0,119741:0:0:0:0:
320,192,119619,1,0,0:0:0:0:
64,192,119741,128,0,119802:0:0:0:0:
320,192,119741,1,0,0:0:0:0:
448,192,119863,128,0,119984:0:0:0:0:
64,192,119984,128,2,120106:0:0:0:0:
192,192,119984,128,0,120106:0:0:0:0:
320,192,119984,128,0,120228:0:0:0:0:
64,192,120228,128,0,120350:0:0:0:0:
192,192,120228,128,0,120472:0:0:0:0:
64,192,120472,128,8,120594:0:0:0:0:
320,192,120472,128,0,120716:0:0:0:0:
448,192,120472,128,0,120594:0:0:0:0:
192,192,120716,128,0,120960:0:0:0:0:
448,192,120716,128,0,120838:0:0:0:0:
64,192,120960,128,2,121326:0:0:0:0:
320,192,120960,128,0,121082:0:0:0:0:
448,192,120960,128,0,121082:0:0:0:0:
192,192,121326,128,0,121448:0:0:0:0:
448,192,121326,128,0,121448:0:0:0:0:
64,192,121448,128,8,121509:0:0:0:0:
320,192,121448,128,0,121509:0:0:0:0:
64,192,121692,128,0,121814:0:0:0:0:
192,192,121692,128,0,121814:0:0:0:0:
320,192,121814,128,0,121936:0:0:0:0:
64,192,121936,128,2,122180:0:0:0:0:
192,192,121936,128,0,122058:0:0:0:0:
448,192,121936,128,0,122058:0:0:0:0:
192,192,122180,128,0,122302:0:0:0:0:
320,192,122180,128,0,122302:0:0:0:0:
448,192,122180,128,0,122424:0:0:0:0:
64,192,122424,128,8,122545:0:0:0:0:
192,192,122424,128,0,122667:0:0:0:0:
320,192,122424,128,0,122545:0:0:0:0:
448,192,122545,128,0,122667:0:0:0:0:
64,192,122667,128,0,122789:0:0:0:0:
320,192,122667,128,0,122789:0:0:0:0:
192,192,122789,128,0,122911:0:0:0:0:
320,192,122911,1,2,0:0:0:0:
448,192,122911,128,0,123033:0:0:0:0:
64,192,123033,128,0,123155:0:0:0:0:
192,192,123033,1,0,0:0:0:0:
320,192,123155,1,0,0:0:0:0:
448,192,123155,128,0,123277:0:0:0:0:
64,192,123277,128,0,123399:0:0:0:0:
192,192,123277,1,0,0:0:0:0:
320,192,123399,128,8,123521:0:0:0:0:
448,192,123399,1,0,0:0:0:0:
192,192,123521,128,0,123643:0:0:0:0:
448,192,123521,1,0,0:0:0:0:
64,192,123643,128,0,123887:0:0:0:0:
320,192,123643,1,0,0:0:0:0:
192,192,123765,128,0,123887:0:0:0:0:
448,192,123765,1,0,0:0:0:0:
320,192,123887,128,0,124131:0:0:0:0:
64,192,124131,128,0,124253:0:0:0:0:
448,192,124253,128,0,124497:0:0:0:0:
64,192,124497,128,0,124619:0:0:0:0:
192,192,124619,128,0,124741:0:0:0:0:
320,192,124619,128,0,124741:0:0:0:0:
64,192,124741,128,0,124863:0:0:0:0:
448,192,124741,128,0,124984:0:0:0:0:
192,192,124863,128,0,124984:0:0:0:0:
320,192,124863,128,0,124984:0:0:0:0:
64,192,124984,1,0,0:0:0:0:
320,192,125106,128,0,125167:0:0:0:0:
192,192,125167,128,0,125228:0:0:0:0:
320,192,125228,128,0,125289:0:0:0:0:
192,192,125289,128,0,125350:0:0:0:0:
320,192,125350,128,0,125411:0:0:0:0:
448,192,125350,128,0,125411:0:0:0:0:
320,192,125472,1,0,0:0:0:0:
448,192,125472,1,0,0:0:0:0:
64,192,125594,128,0,125655:0:0:0:0:
192,192,125594,128,0,125655:0:0:0:0:
64,192,125716,1,0,0:0:0:0:
192,192,125716,1,0,0:0:0:0:
192,192,125838,128,4,125960:0:0:0:0:
320,192,125838,128,2,125960:0:0:0:0:
448,192,125838,128,0,126082:0:0:0:0:
64,192,126082,128,0,126204:0:0:0:0:
192,192,126082,128,0,126204:0:0:0:0:
320,192,126082,128,0,126326:0:0:0:0:
64,192,126326,128,8,126448:0:0:0:0:
192,192,126326,128,0,126570:0:0:0:0:
448,192,126326,128,0,126448:0:0:0:0:
64,192,126570,128,0,126692:0:0:0:0:
448,192,126570,1,0,0:0:0:0:
320,192,126692,1,0,0:0:0:0:
448,192,126692,128,0,126936:0:0:0:0:
64,192,126814,128,2,126936:0:0:0:0:
192,192,126814,1,0,0:0:0:0:
192,192,126936,1,0,0:0:0:0:
320,192,126936,128,0,127119:0:0:0:0:
448,192,127058,1,0,0:0:0:0:
64,192,127180,128,0,127302:0:0:0:0:
320,192,127180,128,0,127241:0:0:0:0:
192,192,127302,1,8,0:0:0:0:
64,192,127424,128,0,127545:0:0:0:0:
448,192,127424,1,0,0:0:0:0:
192,192,127545,128,0,127606:0:0:0:0:
448,192,127545,1,0,0:0:0:0:
64,192,127667,128,0,127728:0:0:0:0:
448,192,127667,128,0,127789:0:0:0:0:
64,192,127789,128,2,127911:0:0:0:0:
192,192,127789,128,0,127911:0:0:0:0:
320,192,127789,128,0,128033:0:0:0:0:
64,192,128033,128,0,128277:0:0:0:0:
448,192,128033,128,0,128155:0:0:0:0:
192,192,128277,128,8,128399:0:0:0:0:
320,192,128277,128,0,128399:0:0:0:0:
448,192,128277,128,0,128521:0:0:0:0:
64,192,128521,128,0,128704:0:0:0:0:
192,192,128521,128,0,128582:0:0:0:0:
64,192,128765,128,2,128887:0:0:0:0:
320,192,128765,128,0,128887:0:0:0:0:
448,192,128765,128,0,129131:0:0:0:0:
192,192,129009,128,0,129070:0:0:0:0:
64,192,129131,128,0,129253:0:0:0:0:
320,192,129131,128,0,129253:0:0:0:0:
192,192,129253,128,8,129314:0:0:0:0:
448,192,129253,128,0,129314:0:0:0:0:
64,192,129497,128,0,129619:0:0:0:0:
192,192,129619,128,0,129741:0:0:0:0:
320,192,129741,128,2,129863:0:0:0:0:
448,192,129741,128,0,129984:0:0:0:0:
64,192,129984,128,0,130106:0:0:0:0:
192,192,129984,128,0,130228:0:0:0:0:
320,192,129984,128,0,130106:0:0:0:0:
64,192,130228,128,8,130350:0:0:0:0:
320,192,130228,128,0,130350:0:0:0:0:
448,192,130228,128,0,130472:0:0:0:0:
192,192,130472,128,0,130594:0:0:0:0:
320,192,130472,128,0,130594:0:0:0:0:
64,192,130716,1,2,0:0:0:0:
320,192,130716,128,0,130838:0:0:0:0:
64,192,130838,1,0,0:0:0:0:
448,192,130838,128,0,130960:0:0:0:0:
192,192,130960,128,0,131082:0:0:0:0:
320,192,130960,128,0,131021:0:0:0:0:
64,192,131082,128,0,131143:0:0:0:0:
448,192,131082,128,0,131204:0:0:0:0:
192,192,131204,128,8,131326:0:0:0:0:
320,192,131204,1,0,0:0:0:0:
64,192,131326,128,0,131448:0:0:0:0:
320,192,131326,1,0,0:0:0:0:
192,192,131448,128,0,131509:0:0:0:0:
448,192,131448,128,0,131570:0:0:0:0:
64,192,131570,128,0,131631:0:0:0:0:
320,192,131570,128,0,131692:0:0:0:0:
192,192,131692,128,2,131936:0:0:0:0:
448,192,131692,1,0,0:0:0:0:
320,192,131814,128,0,131936:0:0:0:0:
64,192,131936,128,0,132180:0:0:0:0:
448,192,131936,128,0,132180:0:0:0:0:
192,192,132058,128,0,132180:0:0:0:0:
320,192,132180,128,8,132302:0:0:0:0:
192,192,132302,128,0,132424:0:0:0:0:
448,192,132302,128,0,132667:0:0:0:0:
64,192,132424,128,0,132667:0:0:0:0:
320,192,132424,1,0,0:0:0:0:
192,192,132667,128,2,132789:0:0:0:0:
320,192,132667,128,0,132911:0:0:0:0:
64,192,132789,128,0,132911:0:0:0:0:
192,192,132911,128,0,133094:0:0:0:0:
448,192,132911,1,0,0:0:0:0:
320,192,133033,128,0,133094:0:0:0:0:
448,192,133033,1,0,0:0:0:0:
64,192,133155,128,8,133399:0:0:0:0:
192,192,133155,128,0,133277:0:0:0:0:
448,192,133399,128,0,133460:0:0:0:0:
448,192,133521,128,0,133582:0:0:0:0:
64,192,133643,128,4,133887:0:0:0:0:
192,192,133643,128,2,133765:0:0:0:0:
320,192,133643,128,0,133765:0:0:0:0:
192,192,133887,128,0,134009:0:0:0:0:
320,192,133887,128,0,134009:0:0:0:0:
448,192,133887,128,0,134131:0:0:0:0:
64,192,134131,128,8,134253:0:0:0:0:
192,192,134131,128,0,134375:0:0:0:0:
320,192,134131,128,0,134253:0:0:0:0:
320,192,134375,128,0,134436:0:0:0:0:
448,192,134375,128,0,134497:0:0:0:0:
64,192,134497,128,0,134741:0:0:0:0:
192,192,134497,128,0,134619:0:0:0:0:
320,192,134619,1,2,0:0:0:0:
448,192,134619,128,0,134741:0:0:0:0:
192,192,134741,128,0,134863:0:0:0:0:
320,192,134741,1,0,0:0:0:0:
64,192,134863,128,0,134924:0:0:0:0:
448,192,134863,128,0,134984:0:0:0:0:
192,192,134984,128,0,135106:0:0:0:0:
320,192,134984,128,0,135045:0:0:0:0:
64,192,135106,128,8,135350:0:0:0:0:
448,192,135106,128,0,135228:0:0:0:0:
192,192,135228,1,0,0:0:0:0:
320,192,135228,128,0,135350:0:0:0:0:
192,192,135350,1,0,0:0:0:0:
448,192,135350,128,0,135411:0:0:0:0:
64,192,135472,128,0,135594:0:0:0:0:
192,192,135594,128,2,135838:0:0:0:0:
320,192,135594,128,0,135716:0:0:0:0:
448,192,135594,128,0,135716:0:0:0:0:
320,192,135838,128,0,136082:0:0:0:0:
448,192,135838,128,0,135960:0:0:0:0:
64,192,136082,128,8,136204:0:0:0:0:
192,192,136082,128,0,136326:0:0:0:0:
448,192,136082,128,0,136204:0:0:0:0:
64,192,136326,128,0,136448:0:0:0:0:
320,192,136326,128,0,136570:0:0:0:0:
64,192,136570,128,2,136692:0:0:0:0:
192,192,136570,128,0,136692:0:0:0:0:
448,192,136570,128,0,136936:0:0:0:0:
192,192,136814,128,0,136875:0:0:0:0:
64,192,136936,128,0,137058:0:0:0:0:
320,192,136936,128,0,137058:0:0:0:0:
192,192,137058,128,8,137119:0:0:0:0:
448,192,137058,128,0,137119:0:0:0:0:
320,192,137302,128,0,137424:0:0:0:0:
448,192,137302,128,0,137424:0:0:0:0:
192,192,137424,128,0,137545:0:0:0:0:
64,192,137545,128,2,137667:0:0:0:0:
320,192,137545,128,0,137667:0:0:0:0:
448,192,137545,128,0,137789:0:0:0:0:
64,192,137789,128,0,138033:0:0:0:0:
192,192,137789,128,0,137911:0:0:0:0:
320,192,137789,128,0,137911:0:0:0:0:
192,192,138033,128,8,138155:0:0:0:0:
320,192,138033,128,0,138277:0:0:0:0:
448,192,138033,128,0,138155:0:0:0:0:
64,192,138155,128,0,138277:0:0:0:0:
192,192,138277,128,0,138399:0:0:0:0:
448,192,138277,128,0,138399:0:0:0:0:
320,192,138399,128,0,138521:0:0:0:0:
64,192,138521,128,2,138643:0:0:0:0:
192,192,138521,1,0,0:0:0:0:
320,192,138643,1,0,0:0:0:0:
448,192,138643,128,0,138765:0:0:0:0:
64,192,138765,128,0,138887:0:0:0:0:
192,192,138765,1,0,0:0:0:0:
320,192,138887,1,0,0:0:0:0:
448,192,138887,128,0,139009:0:0:0:0:
64,192,139009,1,8,0:0:0:0:
192,192,139009,128,0,139131:0:0:0:0:
320,192,139131,128,0,139253:0:0:0:0:
448,192,139131,1,0,0:0:0:0:
64,192,139253,1,0,0:0:0:0:
448,192,139253,128,0,139497:0:0:0:0:
192,192,139375,1,0,0:0:0:0:
320,192,139375,128,0,139497:0:0:0:0:
64,192,139497,1,0,0:0:0:0:
192,192,139558,1,0,0:0:0:0:
320,192,139619,1,0,0:0:0:0:
64,192,139741,1,0,0:0:0:0:
64,192,139863,1,0,0:0:0:0:
192,192,139924,1,0,0:0:0:0:
448,192,139984,1,0,0:0:0:0:
320,192,140106,1,0,0:0:0:0:
320,192,140228,1,0,0:0:0:0:
64,192,140350,1,0,0:0:0:0:
448,192,140472,1,0,0:0:0:0:
192,192,140594,1,0,0:0:0:0:
192,192,140716,1,0,0:0:0:0:
448,192,140777,1,0,0:0:0:0:
64,192,140838,1,0,0:0:0:0:
320,192,140960,1,0,0:0:0:0:
192,192,141041,1,0,0:0:0:0:
448,192,141123,1,0,0:0:0:0:
192,192,141204,1,0,0:0:0:0:
320,192,141285,1,0,0:0:0:0:
192,192,141367,1,0,0:0:0:0:
64,192,141448,1,0,0:0:0:0:
448,192,141448,128,0,144375:0:0:0:0:
320,192,141570,1,0,0:0:0:0:
192,192,141692,1,0,0:0:0:0:
192,192,141814,128,0,141875:0:0:0:0:
64,192,141936,128,0,142058:0:0:0:0:
320,192,142058,1,0,0:0:0:0:
192,192,142180,128,0,142241:0:0:0:0:
192,192,142302,1,0,0:0:0:0:
64,192,142424,128,0,142484:0:0:0:0:
192,192,142545,128,0,142606:0:0:0:0:
64,192,142667,1,0,0:0:0:0:
320,192,142789,128,0,142911:0:0:0:0:
192,192,142911,128,0,142972:0:0:0:0:
320,192,143033,1,0,0:0:0:0:
64,192,143155,128,0,143277:0:0:0:0:
192,192,143277,128,0,143338:0:0:0:0:
320,192,143399,128,0,143460:0:0:0:0:
64,192,143521,1,0,0:0:0:0:
192,192,143643,128,0,143704:0:0:0:0:
320,192,143765,128,0,143826:0:0:0:0:
64,192,143887,1,0,0:0:0:0:
192,192,144009,128,0,144070:0:0:0:0:
64,192,144131,128,0,144192:0:0:0:0:
320,192,144253,1,0,0:0:0:0:
192,192,144375,128,0,144436:0:0:0:0:
192,192,144497,128,0,144619:0:0:0:0:
64,192,144619,128,0,144680:0:0:0:0:
320,192,144741,128,0,144863:0:0:0:0:
64,192,144863,128,0,145350:0:0:0:0:
448,192,144863,128,0,144924:0:0:0:0:
448,192,144984,128,0,145106:0:0:0:0:
192,192,145106,1,0,0:0:0:0:
320,192,145167,1,0,0:0:0:0:
448,192,145228,1,0,0:0:0:0:
192,192,145289,1,0,0:0:0:0:
320,192,145350,128,0,145411:0:0:0:0:
192,192,145472,128,0,145533:0:0:0:0:
320,192,145472,1,0,0:0:0:0:
64,192,145594,1,0,0:0:0:0:
64,192,145716,1,0,0:0:0:0:
448,192,145716,128,0,145777:0:0:0:0:
320,192,145838,1,0,0:0:0:0:
320,192,145960,1,0,0:0:0:0:
64,192,146082,128,0,146143:0:0:0:0:
192,192,146082,1,0,0:0:0:0:
192,192,146204,1,0,0:0:0:0:
64,192,146326,128,0,146387:0:0:0:0:
448,192,146326,128,0,146387:0:0:0:0:
448,192,146448,128,0,146509:0:0:0:0:
64,192,146570,128,0,146631:0:0:0:0:
64,192,146692,128,0,146753:0:0:0:0:
320,192,146692,128,0,146753:0:0:0:0:
192,192,146814,128,0,146875:0:0:0:0:
192,192,146936,128,0,146997:0:0:0:0:
64,192,147058,128,0,147119:0:0:0:0:
448,192,147058,128,0,147119:0:0:0:0:
448,192,147180,128,0,147241:0:0:0:0:
192,192,147302,128,0,147363:0:0:0:0:
320,192,147302,128,0,147363:0:0:0:0:
320,192,147424,128,0,147484:0:0:0:0:
192,192,147545,128,0,147627:0:0:0:0:
448,192,147545,128,0,147606:0:0:0:0:
192,192,147667,128,0,147749:0:0:0:0:
320,192,147667,128,0,147728:0:0:0:0:
64,192,147789,128,0,147871:0:0:0:0:
64,192,147911,128,0,147993:0:0:0:0:
448,192,147911,128,0,147972:0:0:0:0:
192,192,148033,128,0,148094:0:0:0:0:
320,192,148033,128,0,148115:0:0:0:0:
320,192,148155,128,0,148237:0:0:0:0:
192,192,148277,1,0,0:0:0:0:
448,192,148277,1,0,0:0:0:0:
64,192,148338,1,0,0:0:0:0:
320,192,148399,1,0,0:0:0:0:
64,192,148521,1,0,0:0:0:0:
192,192,148521,1,0,0:0:0:0:
448,192,148643,1,0,0:0:0:0:
192,192,148765,128,0,149131:0:0:0:0:
320,192,148765,128,0,149131:0:0:0:0:
320,192,149253,1,8,0:0:0:0:
448,192,149253,128,0,149375:0:0:0:0:
192,192,149375,1,0,0:0:0:0:
64,192,149497,128,2,149558:0:0:0:0:
320,192,149497,1,0,0:0:0:0:
64,192,149619,128,0,149863:0:0:0:0:
448,192,149619,1,0,0:0:0:0:
320,192,149741,1,8,0:0:0:0:
192,192,149863,1,0,0:0:0:0:
320,192,149984,1,2,0:0:0:0:
448,192,149984,128,0,150045:0:0:0:0:
192,192,150106,1,0,0:0:0:0:
448,192,150106,128,0,150167:0:0:0:0:
64,192,150228,1,8,0:0:0:0:
448,192,150228,128,0,150350:0:0:0:0:
192,192,150350,1,2,0:0:0:0:
64,192,150472,128,0,150533:0:0:0:0:
320,192,150472,1,0,0:0:0:0:
64,192,150594,128,2,150838:0:0:0:0:
448,192,150594,1,0,0:0:0:0:
320,192,150716,1,8,0:0:0:0:
192,192,150838,1,0,0:0:0:0:
64,192,150960,1,2,0:0:0:0:
448,192,150960,128,0,151021:0:0:0:0:
192,192,151082,1,0,0:0:0:0:
448,192,151082,128,0,151143:0:0:0:0:
320,192,151204,1,8,0:0:0:0:
448,192,151204,128,0,151326:0:0:0:0:
192,192,151326,1,2,0:0:0:0:
64,192,151448,1,0,0:0:0:0:
320,192,151448,128,0,151509:0:0:0:0:
320,192,151570,128,2,151814:0:0:0:0:
448,192,151570,1,0,0:0:0:0:
192,192,151692,1,8,0:0:0:0:
64,192,151814,128,2,151875:0:0:0:0:
64,192,151936,128,0,151997:0:0:0:0:
448,192,151936,1,0,0:0:0:0:
64,192,152058,128,2,152180:0:0:0:0:
320,192,152058,1,0,0:0:0:0:
192,192,152180,1,8,0:0:0:0:
320,192,152302,1,2,0:0:0:0:
448,192,152302,128,0,152424:0:0:0:0:
64,192,152424,1,0,0:0:0:0:
192,192,152424,128,0,152545:0:0:0:0:
320,192,152545,1,2,0:0:0:0:
320,192,152667,128,8,152789:0:0:0:0:
448,192,152667,1,0,0:0:0:0:
192,192,152789,128,0,152911:0:0:0:0:
320,192,152911,128,0,153033:0:0:0:0:
448,192,152911,1,0,0:0:0:0:
64,192,153033,1,0,0:0:0:0:
192,192,153033,128,0,153155:0:0:0:0:
320,192,153155,128,2,153338:0:0:0:0:
448,192,153155,128,0,153399:0:0:0:0:
192,192,153277,1,0,0:0:0:0:
64,192,153399,128,2,153643:0:0:0:0:
320,192,153399,128,0,153521:0:0:0:0:
192,192,153521,1,0,0:0:0:0:
320,192,153643,128,2,153765:0:0:0:0:
448,192,153643,128,0,153887:0:0:0:0:
192,192,153765,1,0,0:0:0:0:
64,192,153887,128,2,154131:0:0:0:0:
320,192,153887,128,0,153948:0:0:0:0:
448,192,154009,1,0,0:0:0:0:
192,192,154131,128,2,154192:0:0:0:0:
320,192,154131,128,0,154314:0:0:0:0:
64,192,154253,1,0,0:0:0:0:
192,192,154375,128,8,154436:0:0:0:0:
448,192,154375,128,0,154497:0:0:0:0:
64,192,154497,1,0,0:0:0:0:
320,192,154619,128,8,154700:0:0:0:0:
448,192,154619,128,0,154680:0:0:0:0:
192,192,154741,1,0,0:0:0:0:
64,192,154863,128,8,154924:0:0:0:0:
320,192,154863,128,0,154924:0:0:0:0:
192,192,154984,1,0,0:0:0:0:
64,192,155106,1,8,0:0:0:0:
448,192,155106,128,0,155167:0:0:0:0:
320,192,155167,128,8,155228:0:0:0:0:
64,192,155228,128,8,155289:0:0:0:0:
192,192,155289,128,8,155350:0:0:0:0:
320,192,155350,128,8,155411:0:0:0:0:
448,192,155411,128,8,155472:0:0:0:0:
192,192,155472,128,8,155533:0:0:0:0:
64,192,155533,128,8,155594:0:0:0:0:
320,192,155594,128,8,155655:0:0:0:0:
192,192,155655,128,8,155716:0:0:0:0:
64,192,155716,128,8,155777:0:0:0:0:
448,192,155777,128,8,155899:0:0:0:0:
320,192,155838,128,8,155960:0:0:0:0:
192,192,155899,128,8,156021:0:0:0:0:
64,192,155960,128,8,156082:0:0:0:0:
448,192,156021,128,8,156082:0:0:0:0:
192,192,156082,128,0,156265:0:0:0:0:
448,192,156204,128,0,156326:0:0:0:0:
192,192,156326,128,0,156448:0:0:0:0:
320,192,156326,128,0,156509:0:0:0:0:
64,192,156570,128,0,156692:0:0:0:0:
192,192,156570,128,0,156631:0:0:0:0:
448,192,156570,128,0,156753:0:0:0:0:
64,192,156814,128,0,156997:0:0:0:0:
192,192,156814,128,0,156875:0:0:0:0:
320,192,156814,128,0,156875:0:0:0:0:
192,192,157058,128,2,157180:0:0:0:0:
320,192,157058,128,4,157180:0:0:0:0:
448,192,157058,128,0,157302:0:0:0:0:
192,192,157302,128,0,157424:0:0:0:0:
320,192,157302,128,0,157424:0:0:0:0:
64,192,157545,128,8,157850:0:0:0:0:
192,192,157545,128,0,157850:0:0:0:0:
320,192,157667,128,0,157728:0:0:0:0:
448,192,157667,128,0,157728:0:0:0:0:
320,192,157789,128,0,157911:0:0:0:0:
448,192,157789,128,0,157911:0:0:0:0:
64,192,157911,128,0,158033:0:0:0:0:
192,192,157911,128,0,158033:0:0:0:0:
320,192,158033,128,2,158155:0:0:0:0:
448,192,158033,128,0,158155:0:0:0:0:
64,192,158155,128,0,158216:0:0:0:0:
192,192,158155,128,0,158216:0:0:0:0:
64,192,158277,128,0,158399:0:0:0:0:
192,192,158277,128,0,158399:0:0:0:0:
320,192,158399,128,0,158521:0:0:0:0:
448,192,158399,128,0,158521:0:0:0:0:
64,192,158521,128,8,158704:0:0:0:0:
320,192,158582,128,0,158704:0:0:0:0:
448,192,158765,128,0,158948:0:0:0:0:
192,192,158826,128,0,158948:0:0:0:0:
320,192,159009,128,2,159131:0:0:0:0:
64,192,159131,128,0,159253:0:0:0:0:
448,192,159131,128,0,159253:0:0:0:0:
192,192,159253,128,0,159375:0:0:0:0:
320,192,159253,128,0,159375:0:0:0:0:
64,192,159375,128,2,159497:0:0:0:0:
448,192,159375,128,0,159497:0:0:0:0:
192,192,159497,128,8,159619:0:0:0:0:
320,192,159497,128,0,159619:0:0:0:0:
448,192,159619,128,0,159741:0:0:0:0:
64,192,159741,128,2,159924:0:0:0:0:
320,192,159741,128,0,159924:0:0:0:0:
192,192,159984,128,2,160106:0:0:0:0:
320,192,159984,128,0,160106:0:0:0:0:
448,192,159984,128,0,160228:0:0:0:0:
64,192,160228,128,2,160289:0:0:0:0:
320,192,160228,128,0,160289:0:0:0:0:
64,192,160350,128,2,160472:0:0:0:0:
448,192,160350,1,0,0:0:0:0:
192,192,160472,128,8,160594:0:0:0:0:
320,192,160472,128,0,160594:0:0:0:0:
448,192,160472,1,0,0:0:0:0:
64,192,160716,128,2,160838:0:0:0:0:
320,192,160716,128,0,160838:0:0:0:0:
448,192,160716,128,0,160960:0:0:0:0:
64,192,160960,128,2,161204:0:0:0:0:
192,192,160960,128,0,161448:0:0:0:0:
320,192,161204,1,0,0:0:0:0:
448,192,161204,128,0,161265:0:0:0:0:
448,192,161326,128,0,161387:0:0:0:0:
64,192,161448,128,8,161936:0:0:0:0:
448,192,161448,128,0,161692:0:0:0:0:
192,192,161692,128,0,161753:0:0:0:0:
320,192,161692,1,0,0:0:0:0:
192,192,161814,128,0,161875:0:0:0:0:
192,192,161936,128,2,162180:0:0:0:0:
448,192,161936,128,0,162424:0:0:0:0:
64,192,162180,128,0,162241:0:0:0:0:
320,192,162180,1,0,0:0:0:0:
64,192,162302,128,0,162363:0:0:0:0:
64,192,162424,128,8,162667:0:0:0:0:
320,192,162424,128,0,162667:0:0:0:0:
192,192,162667,128,0,162789:0:0:0:0:
448,192,162667,128,0,162728:0:0:0:0:
320,192,162789,128,0,162850:0:0:0:0:
64,192,162911,128,2,163399:0:0:0:0:
448,192,162911,128,0,163033:0:0:0:0:
192,192,163033,128,0,163094:0:0:0:0:
192,192,163155,128,0,163277:0:0:0:0:
320,192,163155,128,0,163216:0:0:0:0:
448,192,163277,128,0,163338:0:0:0:0:
320,192,163399,128,8,163521:0:0:0:0:
448,192,163399,128,0,163887:0:0:0:0:
192,192,163521,128,0,163582:0:0:0:0:
64,192,163643,128,0,163704:0:0:0:0:
192,192,163643,128,0,163765:0:0:0:0:
320,192,163765,128,0,163826:0:0:0:0:
192,192,163887,128,8,164009:0:0:0:0:
320,192,163887,128,0,164131:0:0:0:0:
64,192,164009,128,0,164070:0:0:0:0:
64,192,164131,128,2,164314:0:0:0:0:
192,192,164131,128,0,164192:0:0:0:0:
448,192,164253,128,0,164375:0:0:0:0:
64,192,164375,128,8,164863:0:0:0:0:
320,192,164375,128,0,164436:0:0:0:0:
320,192,164497,128,0,164619:0:0:0:0:
192,192,164619,128,0,164741:0:0:0:0:
448,192,164619,128,0,164680:0:0:0:0:
448,192,164741,128,0,164863:0:0:0:0:
192,192,164863,128,4,165045:0:0:0:0:
320,192,164863,128,2,165045:0:0:0:0:
320,192,165106,128,0,165289:0:0:0:0:
448,192,165106,128,0,165289:0:0:0:0:
64,192,165350,128,8,165594:0:0:0:0:
192,192,165350,128,0,165411:0:0:0:0:
320,192,165350,128,0,165411:0:0:0:0:
320,192,165594,128,2,165655:0:0:0:0:
448,192,165594,128,0,165655:0:0:0:0:
64,192,165716,128,0,165777:0:0:0:0:
192,192,165716,128,0,165777:0:0:0:0:
320,192,165777,1,0,0:0:0:0:
64,192,165838,1,2,0:0:0:0:
448,192,165838,128,0,166082:0:0:0:0:
64,192,166082,128,0,166265:0:0:0:0:
192,192,166082,1,0,0:0:0:0:
320,192,166082,128,0,166265:0:0:0:0:
64,192,166326,128,8,166570:0:0:0:0:
192,192,166326,1,0,0:0:0:0:
320,192,166326,128,0,166509:0:0:0:0:
192,192,166570,128,0,166692:0:0:0:0:
320,192,166570,128,0,166814:0:0:0:0:
448,192,166570,128,0,166692:0:0:0:0:
64,192,166814,128,2,167058:0:0:0:0:
192,192,166814,1,0,0:0:0:0:
192,192,166936,1,0,0:0:0:0:
448,192,166936,128,0,166997:0:0:0:0:
320,192,167058,128,0,167180:0:0:0:0:
448,192,167058,128,0,167302:0:0:0:0:
192,192,167180,128,0,167241:0:0:0:0:
192,192,167302,128,8,167545:0:0:0:0:
320,192,167302,128,0,167424:0:0:0:0:
64,192,167545,128,0,167728:0:0:0:0:
448,192,167545,128,0,167667:0:0:0:0:
64,192,167789,128,2,167850:0:0:0:0:
320,192,167789,128,0,167850:0:0:0:0:
64,192,167911,128,0,168033:0:0:0:0:
448,192,167911,128,0,167972:0:0:0:0:
192,192,168033,128,0,168094:0:0:0:0:
320,192,168033,128,0,168094:0:0:0:0:
320,192,168155,128,2,168216:0:0:0:0:
448,192,168155,128,0,168277:0:0:0:0:
64,192,168277,128,8,168399:0:0:0:0:
192,192,168277,128,0,168338:0:0:0:0:
192,192,168399,128,0,168460:0:0:0:0:
448,192,168399,128,0,168521:0:0:0:0:
64,192,168521,128,0,168582:0:0:0:0:
320,192,168521,128,0,168643:0:0:0:0:
192,192,168643,128,0,168704:0:0:0:0:
448,192,168643,128,0,168765:0:0:0:0:
64,192,168765,128,2,168846:0:0:0:0:
192,192,168765,128,0,168846:0:0:0:0:
320,192,168846,128,0,168928:0:0:0:0:
448,192,168846,128,0,168928:0:0:0:0:
64,192,168928,128,0,169009:0:0:0:0:
192,192,168928,128,0,169009:0:0:0:0:
320,192,169009,128,0,169171:0:0:0:0:
448,192,169009,128,0,169253:0:0:0:0:
64,192,169253,128,8,169375:0:0:0:0:
192,192,169253,128,0,169436:0:0:0:0:
448,192,169375,128,0,169497:0:0:0:0:
64,192,169497,1,0,0:0:0:0:
192,192,169497,128,0,169619:0:0:0:0:
320,192,169619,128,0,169741:0:0:0:0:
64,192,169741,128,2,169802:0:0:0:0:
192,192,169741,128,0,169863:0:0:0:0:
448,192,169741,128,0,169984:0:0:0:0:
64,192,169863,128,0,169984:0:0:0:0:
192,192,169984,128,0,170106:0:0:0:0:
320,192,169984,128,0,170228:0:0:0:0:
64,192,170106,128,0,170167:0:0:0:0:
64,192,170228,128,8,170350:0:0:0:0:
448,192,170228,128,0,170289:0:0:0:0:
192,192,170350,128,0,170411:0:0:0:0:
320,192,170350,128,0,170472:0:0:0:0:
64,192,170472,128,0,170594:0:0:0:0:
448,192,170472,128,0,170594:0:0:0:0:
192,192,170594,128,0,170716:0:0:0:0:
320,192,170594,128,0,170716:0:0:0:0:
448,192,170716,128,0,172180:0:0:0:0:
192,192,170960,1,0,0:0:0:0:
64,192,171082,1,0,0:0:0:0:
64,192,171326,1,0,0:0:0:0:
320,192,171570,1,0,0:0:0:0:
192,192,171814,1,0,0:0:0:0:
64,192,171936,1,0,0:0:0:0:
320,192,171936,1,0,0:0:0:0:
64,192,172058,1,0,0:0:0:0:
192,192,172180,128,0,172302:0:0:0:0:
320,192,172302,128,0,172424:0:0:0:0:
192,192,172424,128,0,172545:0:0:0:0:
320,192,172545,128,0,172667:0:0:0:0:
64,192,172667,128,2,172789:0:0:0:0:
192,192,172667,128,4,172789:0:0:0:0:
448,192,172667,128,0,172911:0:0:0:0:
192,192,172911,128,0,173033:0:0:0:0:
320,192,172911,128,0,173033:0:0:0:0:
64,192,173155,128,8,173460:0:0:0:0:
192,192,173155,128,0,173460:0:0:0:0:
320,192,173277,128,0,173338:0:0:0:0:
448,192,173277,128,0,173338:0:0:0:0:
320,192,173399,128,0,173521:0:0:0:0:
448,192,173399,128,0,173521:0:0:0:0:
64,192,173521,128,0,173643:0:0:0:0:
192,192,173521,128,0,173643:0:0:0:0:
320,192,173643,128,2,173765:0:0:0:0:
448,192,173643,128,0,173765:0:0:0:0:
64,192,173765,128,0,173826:0:0:0:0:
192,192,173765,128,0,173826:0:0:0:0:
64,192,173887,128,0,174009:0:0:0:0:
192,192,173887,128,0,174009:0:0:0:0:
320,192,174009,128,0,174131:0:0:0:0:
448,192,174009,128,0,174131:0:0:0:0:
64,192,174131,128,8,174314:0:0:0:0:
320,192,174192,128,0,174314:0:0:0:0:
448,192,174375,128,0,174558:0:0:0:0:
192,192,174436,128,0,174558:0:0:0:0:
320,192,174619,128,2,174741:0:0:0:0:
64,192,174741,128,0,174863:0:0:0:0:
448,192,174741,128,0,174863:0:0:0:0:
192,192,174863,128,0,174984:0:0:0:0:
320,192,174863,128,0,174984:0:0:0:0:
64,192,174984,128,2,175106:0:0:0:0:
448,192,174984,128,0,175106:0:0:0:0:
192,192,175106,128,8,175228:0:0:0:0:
320,192,175106,128,0,175228:0:0:0:0:
448,192,175228,128,0,175350:0:0:0:0:
64,192,175350,128,2,175533:0:0:0:0:
320,192,175350,128,0,175533:0:0:0:0:
192,192,175594,128,2,175716:0:0:0:0:
320,192,175594,128,0,175716:0:0:0:0:
448,192,175594,128,0,175838:0:0:0:0:
64,192,175838,128,2,175899:0:0:0:0:
320,192,175838,128,0,175899:0:0:0:0:
64,192,175960,128,2,176082:0:0:0:0:
448,192,175960,1,0,0:0:0:0:
192,192,176082,128,8,176204:0:0:0:0:
320,192,176082,128,0,176204:0:0:0:0:
448,192,176082,1,0,0:0:0:0:
64,192,176326,128,2,176448:0:0:0:0:
320,192,176326,128,0,176448:0:0:0:0:
448,192,176326,128,0,176570:0:0:0:0:
64,192,176570,128,2,176814:0:0:0:0:
192,192,176570,128,0,177058:0:0:0:0:
320,192,176814,1,0,0:0:0:0:
448,192,176814,128,0,176875:0:0:0:0:
448,192,176936,128,0,176997:0:0:0:0:
64,192,177058,128,8,177545:0:0:0:0:
448,192,177058,128,0,177302:0:0:0:0:
192,192,177302,128,0,177363:0:0:0:0:
320,192,177302,1,0,0:0:0:0:
192,192,177424,128,0,177484:0:0:0:0:
192,192,177545,128,2,177789:0:0:0:0:
448,192,177545,128,0,178033:0:0:0:0:
64,192,177789,128,0,177850:0:0:0:0:
320,192,177789,1,0,0:0:0:0:
64,192,177911,128,0,177972:0:0:0:0:
64,192,178033,128,8,178277:0:0:0:0:
320,192,178033,128,0,178277:0:0:0:0:
192,192,178277,128,0,178399:0:0:0:0:
448,192,178277,128,0,178338:0:0:0:0:
320,192,178399,128,0,178460:0:0:0:0:
64,192,178521,128,2,179009:0:0:0:0:
448,192,178521,128,0,178643:0:0:0:0:
192,192,178643,128,0,178704:0:0:0:0:
192,192,178765,128,0,178887:0:0:0:0:
320,192,178765,128,0,178826:0:0:0:0:
448,192,178887,128,0,178948:0:0:0:0:
320,192,179009,128,8,179131:0:0:0:0:
448,192,179009,128,0,179497:0:0:0:0:
192,192,179131,128,0,179192:0:0:0:0:
64,192,179253,128,0,179314:0:0:0:0:
192,192,179253,128,0,179375:0:0:0:0:
320,192,179375,128,0,179436:0:0:0:0:
192,192,179497,128,8,179619:0:0:0:0:
320,192,179497,128,0,179741:0:0:0:0:
64,192,179619,128,0,179680:0:0:0:0:
64,192,179741,128,2,179924:0:0:0:0:
192,192,179741,128,0,179802:0:0:0:0:
448,192,179863,128,0,179984:0:0:0:0:
64,192,179984,128,8,180472:0:0:0:0:
320,192,179984,128,0,180045:0:0:0:0:
320,192,180106,128,0,180228:0:0:0:0:
192,192,180228,128,0,180350:0:0:0:0:
448,192,180228,128,0,180289:0:0:0:0:
448,192,180350,128,0,180472:0:0:0:0:
192,192,180472,128,2,180655:0:0:0:0:
320,192,180472,128,0,180655:0:0:0:0:
320,192,180716,128,0,180899:0:0:0:0:
448,192,180716,128,0,180899:0:0:0:0:
64,192,180960,128,8,181204:0:0:0:0:
192,192,180960,128,0,181021:0:0:0:0:
320,192,180960,128,0,181021:0:0:0:0:
320,192,181204,128,2,181265:0:0:0:0:
448,192,181204,128,0,181265:0:0:0:0:
64,192,181326,128,0,181387:0:0:0:0:
192,192,181326,128,0,181387:0:0:0:0:
320,192,181387,1,0,0:0:0:0:
64,192,181448,1,2,0:0:0:0:
448,192,181448,128,0,181692:0:0:0:0:
64,192,181692,128,0,181875:0:0:0:0:
192,192,181692,1,0,0:0:0:0:
320,192,181692,128,0,181875:0:0:0:0:
64,192,181936,128,8,182180:0:0:0:0:
192,192,181936,1,0,0:0:0:0:
320,192,181936,128,0,182119:0:0:0:0:
192,192,182180,128,0,182302:0:0:0:0:
320,192,182180,128,0,182424:0:0:0:0:
448,192,182180,128,0,182302:0:0:0:0:
64,192,182424,128,2,182667:0:0:0:0:
192,192,182424,1,0,0:0:0:0:
192,192,182545,1,0,0:0:0:0:
448,192,182545,128,0,182606:0:0:0:0:
320,192,182667,128,0,182789:0:0:0:0:
448,192,182667,128,0,182911:0:0:0:0:
192,192,182789,128,0,182850:0:0:0:0:
192,192,182911,128,8,183155:0:0:0:0:
320,192,182911,128,0,183033:0:0:0:0:
64,192,183155,128,0,183338:0:0:0:0:
448,192,183155,128,0,183277:0:0:0:0:
64,192,183399,128,2,183460:0:0:0:0:
320,192,183399,128,0,183460:0:0:0:0:
64,192,183521,128,0,183643:0:0:0:0:
448,192,183521,128,0,183582:0:0:0:0:
192,192,183643,128,0,183704:0:0:0:0:
320,192,183643,128,0,183704:0:0:0:0:
320,192,183765,128,2,183826:0:0:0:0:
448,192,183765,128,0,183887:0:0:0:0:
64,192,183887,128,8,184009:0:0:0:0:
192,192,183887,128,0,183948:0:0:0:0:
192,192,184009,128,0,184070:0:0:0:0:
448,192,184009,128,0,184131:0:0:0:0:
64,192,184131,128,0,184192:0:0:0:0:
320,192,184131,128,0,184253:0:0:0:0:
192,192,184253,128,0,184314:0:0:0:0:
448,192,184253,128,0,184375:0:0:0:0:
320,192,184375,1,2,0:0:0:0:
192,192,184415,1,0,0:0:0:0:
64,192,184537,1,0,0:0:0:0:
448,192,184578,1,0,0:0:0:0:
320,192,184700,1,0,0:0:0:0:
192,192,184741,1,0,0:0:0:0:
192,192,184863,128,8,185045:0:0:0:0:
320,192,184863,128,0,184984:0:0:0:0:
448,192,184984,128,0,185106:0:0:0:0:
64,192,185106,1,0,0:0:0:0:
192,192,185106,128,0,185228:0:0:0:0:
320,192,185228,128,0,185350:0:0:0:0:
64,192,185350,128,2,185411:0:0:0:0:
192,192,185350,128,0,185472:0:0:0:0:
448,192,185350,128,0,185594:0:0:0:0:
64,192,185472,128,0,185594:0:0:0:0:
192,192,185594,128,0,185716:0:0:0:0:
320,192,185594,128,0,185838:0:0:0:0:
64,192,185716,128,0,185777:0:0:0:0:
64,192,185838,128,8,185960:0:0:0:0:
448,192,185838,128,0,185899:0:0:0:0:
192,192,185960,128,0,186021:0:0:0:0:
320,192,185960,128,0,186082:0:0:0:0:
64,192,186082,128,0,186204:0:0:0:0:
448,192,186082,128,0,186204:0:0:0:0:
192,192,186204,128,0,186326:0:0:0:0:
320,192,186204,128,0,186326:0:0:0:0:
64,192,186326,128,0,186448:0:0:0:0:
448,192,186326,128,0,186509:0:0:0:0:
192,192,186448,128,0,186570:0:0:0:0:
320,192,186570,128,0,186692:0:0:0:0:
448,192,186570,128,0,186814:0:0:0:0:
192,192,186692,128,0,186814:0:0:0:0:
64,192,186814,128,0,187302:0:0:0:0:
320,192,186814,128,0,187058:0:0:0:0:
192,192,186936,128,0,187058:0:0:0:0:
448,192,187058,128,0,187180:0:0:0:0:
320,192,187180,128,0,187302:0:0:0:0:
192,192,187302,128,0,187424:0:0:0:0:
448,192,187302,128,0,187667:0:0:0:0:
320,192,187424,128,0,187545:0:0:0:0:
64,192,187545,128,0,187667:0:0:0:0:
192,192,187545,128,0,187667:0:0:0:0:
320,192,187667,128,0,187789:0:0:0:0:
64,192,187789,128,0,187911:0:0:0:0:
448,192,187789,128,0,188277:0:0:0:0:
192,192,187911,128,0,188033:0:0:0:0:
64,192,188033,128,0,188155:0:0:0:0:
320,192,188033,128,0,188155:0:0:0:0:
192,192,188155,128,0,188277:0:0:0:0:
64,192,188277,1,4,0:0:0:0:
320,192,188277,1,2,0:0:0:0:
