osu file format v14

[General]
AudioFilename: audio.mp3
AudioLeadIn: 0
PreviewTime: 25660
Countdown: 1
SampleSet: None
StackLeniency: 0.7
Mode: 3
LetterboxInBreaks: 0
SpecialStyle: 0
WidescreenStoryboard: 0

[Editor]
Bookmarks: 34265,51408,68551,85694,94265,111408
DistanceSpacing: 0.8
BeatDivisor: 3
GridSize: 16
TimelineZoom: 2.2

[Metadata]
Title:Fingerbang
TitleUnicode:Fingerbang
Artist:MDK
ArtistUnicode:MDK
Creator:Hydria
Version:Stage 2: Precision
Source:
Tags:ausnz!4k australia new zeland mania tournament
BeatmapID:1882747
BeatmapSetID:901722

[Difficulty]
HPDrainRate:8
CircleSize:4
OverallDifficulty:8
ApproachRate:5
SliderMultiplier:1.4
SliderTickRate:1

[Events]
//Background and Video events
0,0,"9e3faaf2cda5a2a39fa5c50cb83a02a3.jpg",0,0
//Break Periods
//Storyboard Layer 0 (Background)
//Storyboard Layer 1 (Fail)
//Storyboard Layer 2 (Pass)
//Storyboard Layer 3 (Foreground)
//Storyboard Sound Samples

[TimingPoints]
-20,535.714285714286,4,1,0,30,1,0

[HitObjects]
64,192,8551,5,0,0:0:0:0:
448,192,8551,1,0,0:0:0:0:
192,192,8819,1,0,0:0:0:0:
320,192,8953,1,0,0:0:0:0:
448,192,8953,1,0,0:0:0:0:
320,192,9355,1,0,0:0:0:0:
64,192,9355,1,0,0:0:0:0:
192,192,9622,1,0,0:0:0:0:
320,192,9756,1,0,0:0:0:0:
448,192,9756,1,0,0:0:0:0:
64,192,9890,1,0,0:0:0:0:
64,192,10024,1,0,0:0:0:0:
448,192,10158,1,0,0:0:0:0:
320,192,10247,1,0,0:0:0:0:
192,192,10337,1,0,0:0:0:0:
320,192,10426,1,0,0:0:0:0:
192,192,10515,1,0,0:0:0:0:
64,192,10605,1,0,0:0:0:0:
320,192,10694,1,0,0:0:0:0:
448,192,10694,1,0,0:0:0:0:
192,192,10962,1,0,0:0:0:0:
64,192,11096,1,0,0:0:0:0:
320,192,11096,1,0,0:0:0:0:
320,192,11363,1,0,0:0:0:0:
192,192,11497,1,0,0:0:0:0:
448,192,11497,1,0,0:0:0:0:
64,192,11765,1,0,0:0:0:0:
320,192,11899,1,0,0:0:0:0:
448,192,11899,1,0,0:0:0:0:
192,192,12033,1,0,0:0:0:0:
192,192,12167,1,0,0:0:0:0:
64,192,12301,128,0,12435:0:0:0:0:
320,192,12346,128,0,12480:0:0:0:0:
192,192,12569,128,0,12703:0:0:0:0:
448,192,12613,128,0,12747:0:0:0:0:
64,192,12703,1,0,0:0:0:0:
320,192,12837,1,0,0:0:0:0:
448,192,12837,1,0,0:0:0:0:
192,192,13105,1,0,0:0:0:0:
320,192,13238,1,0,0:0:0:0:
64,192,13238,1,0,0:0:0:0:
448,192,13506,1,0,0:0:0:0:
192,192,13640,1,0,0:0:0:0:
64,192,13640,1,0,0:0:0:0:
320,192,13908,1,0,0:0:0:0:
192,192,14042,1,0,0:0:0:0:
448,192,14042,1,0,0:0:0:0:
64,192,14176,1,0,0:0:0:0:
64,192,14310,1,0,0:0:0:0:
448,192,14444,128,0,14712:0:0:0:0:
320,192,14533,128,0,14801:0:0:0:0:
192,192,14622,128,0,14890:0:0:0:0:
64,192,14712,128,0,14980:0:0:0:0:
320,192,14980,1,0,0:0:0:0:
448,192,14980,1,0,0:0:0:0:
192,192,15113,1,0,0:0:0:0:
192,192,15247,1,0,0:0:0:0:
64,192,15381,1,0,0:0:0:0:
320,192,15381,1,0,0:0:0:0:
448,192,15515,1,0,0:0:0:0:
192,192,15649,1,0,0:0:0:0:
320,192,15783,1,0,0:0:0:0:
448,192,15783,1,0,0:0:0:0:
64,192,15917,1,0,0:0:0:0:
192,192,16051,1,0,0:0:0:0:
448,192,16051,1,0,0:0:0:0:
320,192,16185,1,0,0:0:0:0:
192,192,16252,1,0,0:0:0:0:
64,192,16319,1,0,0:0:0:0:
448,192,16319,1,0,0:0:0:0:
448,192,16453,1,0,0:0:0:0:
192,192,16587,1,0,0:0:0:0:
64,192,16587,1,0,0:0:0:0:
64,192,16721,128,0,16855:0:0:0:0:
320,192,16855,128,0,17122:0:0:0:0:
448,192,16988,1,0,0:0:0:0:
192,192,17122,1,0,0:0:0:0:
64,192,17122,1,0,0:0:0:0:
320,192,17256,1,0,0:0:0:0:
320,192,17390,1,0,0:0:0:0:
448,192,17524,1,0,0:0:0:0:
192,192,17524,1,0,0:0:0:0:
64,192,17658,1,0,0:0:0:0:
64,192,17792,1,0,0:0:0:0:
320,192,17926,1,0,0:0:0:0:
448,192,17926,1,0,0:0:0:0:
192,192,18060,1,0,0:0:0:0:
192,192,18194,1,0,0:0:0:0:
64,192,18328,1,0,0:0:0:0:
320,192,18328,1,0,0:0:0:0:
448,192,18462,1,0,0:0:0:0:
448,192,18596,1,0,0:0:0:0:
192,192,18730,1,0,0:0:0:0:
320,192,18796,1,0,0:0:0:0:
448,192,18863,1,0,0:0:0:0:
320,192,18930,1,0,0:0:0:0:
64,192,18997,1,0,0:0:0:0:
192,192,19064,1,0,0:0:0:0:
448,192,19131,1,0,0:0:0:0:
64,192,19198,1,0,0:0:0:0:
320,192,19265,1,0,0:0:0:0:
448,192,19265,1,0,0:0:0:0:
192,192,19399,1,0,0:0:0:0:
192,192,19533,1,0,0:0:0:0:
64,192,19667,1,0,0:0:0:0:
320,192,19667,1,0,0:0:0:0:
448,192,19801,1,0,0:0:0:0:
448,192,19935,1,0,0:0:0:0:
192,192,20069,1,0,0:0:0:0:
64,192,20069,1,0,0:0:0:0:
320,192,20203,1,0,0:0:0:0:
320,192,20337,1,0,0:0:0:0:
192,192,20471,1,0,0:0:0:0:
448,192,20471,1,0,0:0:0:0:
64,192,20605,1,0,0:0:0:0:
64,192,20738,1,0,0:0:0:0:
448,192,20872,128,0,21006:0:0:0:0:
320,192,20939,128,0,21073:0:0:0:0:
192,192,21006,128,0,21140:0:0:0:0:
448,192,21140,128,0,21274:0:0:0:0:
320,192,21207,128,0,21341:0:0:0:0:
192,192,21274,128,0,21408:0:0:0:0:
64,192,21408,1,0,0:0:0:0:
448,192,21408,1,0,0:0:0:0:
320,192,21542,1,0,0:0:0:0:
320,192,21676,1,0,0:0:0:0:
192,192,21810,1,0,0:0:0:0:
64,192,21810,1,0,0:0:0:0:
448,192,21944,1,0,0:0:0:0:
448,192,22078,1,0,0:0:0:0:
320,192,22212,1,0,0:0:0:0:
64,192,22212,1,0,0:0:0:0:
192,192,22346,1,0,0:0:0:0:
192,192,22480,1,0,0:0:0:0:
320,192,22613,1,0,0:0:0:0:
448,192,22613,1,0,0:0:0:0:
64,192,22747,1,0,0:0:0:0:
64,192,22881,1,0,0:0:0:0:
192,192,23015,1,0,0:0:0:0:
320,192,23082,1,0,0:0:0:0:
448,192,23149,1,0,0:0:0:0:
320,192,23216,1,0,0:0:0:0:
64,192,23283,1,0,0:0:0:0:
192,192,23350,1,0,0:0:0:0:
448,192,23417,1,0,0:0:0:0:
192,192,23484,1,0,0:0:0:0:
64,192,23551,1,0,0:0:0:0:
320,192,23551,1,0,0:0:0:0:
448,192,23685,1,0,0:0:0:0:
448,192,23819,1,0,0:0:0:0:
192,192,23953,1,0,0:0:0:0:
64,192,23953,1,0,0:0:0:0:
320,192,24087,1,0,0:0:0:0:
320,192,24221,1,0,0:0:0:0:
448,192,24355,1,0,0:0:0:0:
64,192,24355,1,0,0:0:0:0:
192,192,24488,1,0,0:0:0:0:
192,192,24622,1,0,0:0:0:0:
320,192,24622,1,0,0:0:0:0:
320,192,24756,1,0,0:0:0:0:
64,192,24890,1,0,0:0:0:0:
448,192,24890,1,0,0:0:0:0:
64,192,25024,1,0,0:0:0:0:
320,192,25158,1,0,0:0:0:0:
448,192,25158,1,0,0:0:0:0:
192,192,25158,1,0,0:0:0:0:
320,192,25426,1,0,0:0:0:0:
64,192,25694,1,0,0:0:0:0:
192,192,25694,1,0,0:0:0:0:
448,192,25694,1,0,0:0:0:0:
320,192,25828,1,0,0:0:0:0:
320,192,25962,1,0,0:0:0:0:
448,192,26096,1,0,0:0:0:0:
64,192,26096,1,0,0:0:0:0:
192,192,26230,1,0,0:0:0:0:
192,192,26363,1,0,0:0:0:0:
320,192,26497,1,0,0:0:0:0:
448,192,26497,1,0,0:0:0:0:
64,192,26631,1,0,0:0:0:0:
64,192,26765,1,0,0:0:0:0:
192,192,26899,1,0,0:0:0:0:
448,192,26899,1,0,0:0:0:0:
320,192,27033,1,0,0:0:0:0:
320,192,27167,1,0,0:0:0:0:
192,192,27301,1,0,0:0:0:0:
64,192,27301,1,0,0:0:0:0:
448,192,27435,1,0,0:0:0:0:
192,192,27569,1,0,0:0:0:0:
64,192,27569,1,0,0:0:0:0:
448,192,27703,1,0,0:0:0:0:
320,192,27837,1,0,0:0:0:0:
64,192,27837,1,0,0:0:0:0:
192,192,27971,1,0,0:0:0:0:
192,192,28105,1,0,0:0:0:0:
320,192,28238,1,0,0:0:0:0:
448,192,28238,1,0,0:0:0:0:
64,192,28372,1,0,0:0:0:0:
64,192,28506,1,0,0:0:0:0:
192,192,28640,1,0,0:0:0:0:
448,192,28640,1,0,0:0:0:0:
320,192,28774,1,0,0:0:0:0:
320,192,28908,1,0,0:0:0:0:
192,192,29042,1,0,0:0:0:0:
64,192,29042,1,0,0:0:0:0:
448,192,29176,1,0,0:0:0:0:
448,192,29310,1,0,0:0:0:0:
320,192,29444,1,0,0:0:0:0:
64,192,29444,1,0,0:0:0:0:
192,192,29578,1,0,0:0:0:0:
64,192,29712,1,0,0:0:0:0:
320,192,29712,1,0,0:0:0:0:
192,192,29846,1,0,0:0:0:0:
320,192,29913,1,0,0:0:0:0:
448,192,29980,1,0,0:0:0:0:
64,192,29980,1,0,0:0:0:0:
64,192,30113,1,0,0:0:0:0:
320,192,30247,1,0,0:0:0:0:
448,192,30247,1,0,0:0:0:0:
448,192,30381,1,0,0:0:0:0:
192,192,30515,1,0,0:0:0:0:
64,192,30515,1,0,0:0:0:0:
192,192,30649,1,0,0:0:0:0:
448,192,30783,1,0,0:0:0:0:
320,192,30783,1,0,0:0:0:0:
320,192,30917,1,0,0:0:0:0:
64,192,31051,1,0,0:0:0:0:
192,192,31051,1,0,0:0:0:0:
64,192,31185,1,0,0:0:0:0:
320,192,31319,1,0,0:0:0:0:
448,192,31319,1,0,0:0:0:0:
320,192,31453,1,0,0:0:0:0:
192,192,31587,1,0,0:0:0:0:
64,192,31587,1,0,0:0:0:0:
64,192,31721,1,0,0:0:0:0:
320,192,31855,1,0,0:0:0:0:
448,192,31855,1,0,0:0:0:0:
448,192,31988,1,0,0:0:0:0:
64,192,32122,1,0,0:0:0:0:
192,192,32122,1,0,0:0:0:0:
192,192,32256,1,0,0:0:0:0:
64,192,32256,1,0,0:0:0:0:
320,192,32390,1,0,0:0:0:0:
448,192,32390,1,0,0:0:0:0:
448,192,32524,1,0,0:0:0:0:
320,192,32524,1,0,0:0:0:0:
192,192,32658,1,0,0:0:0:0:
64,192,32658,1,0,0:0:0:0:
64,192,32792,1,0,0:0:0:0:
192,192,32792,1,0,0:0:0:0:
320,192,32926,1,0,0:0:0:0:
448,192,32926,1,0,0:0:0:0:
448,192,33060,1,0,0:0:0:0:
320,192,33060,1,0,0:0:0:0:
64,192,33194,1,0,0:0:0:0:
192,192,33261,1,0,0:0:0:0:
320,192,33328,1,0,0:0:0:0:
64,192,33395,1,0,0:0:0:0:
192,192,33462,1,0,0:0:0:0:
448,192,33529,1,0,0:0:0:0:
320,192,33596,1,0,0:0:0:0:
192,192,33663,1,0,0:0:0:0:
64,192,33730,1,0,0:0:0:0:
448,192,33730,1,0,0:0:0:0:
448,192,33863,128,0,34265:0:0:0:0:
64,192,34265,1,0,0:0:0:0:
192,192,34265,1,0,0:0:0:0:
320,192,34265,1,0,0:0:0:0:
448,192,34533,1,0,0:0:0:0:
192,192,34533,1,0,0:0:0:0:
64,192,34801,1,0,0:0:0:0:
320,192,34801,1,0,0:0:0:0:
448,192,34801,1,0,0:0:0:0:
192,192,34935,1,0,0:0:0:0:
320,192,34980,1,0,0:0:0:0:
448,192,35069,1,0,0:0:0:0:
192,192,35113,1,0,0:0:0:0:
64,192,35203,1,0,0:0:0:0:
320,192,35247,1,0,0:0:0:0:
192,192,35337,1,0,0:0:0:0:
64,192,35337,1,0,0:0:0:0:
320,192,35471,1,0,0:0:0:0:
192,192,35515,1,0,0:0:0:0:
448,192,35605,1,0,0:0:0:0:
192,192,35649,1,0,0:0:0:0:
448,192,35738,1,0,0:0:0:0:
320,192,35783,1,0,0:0:0:0:
64,192,35872,1,0,0:0:0:0:
192,192,35872,1,0,0:0:0:0:
320,192,36140,1,0,0:0:0:0:
192,192,36207,1,0,0:0:0:0:
448,192,36274,1,0,0:0:0:0:
192,192,36341,1,0,0:0:0:0:
320,192,36408,1,0,0:0:0:0:
64,192,36408,1,0,0:0:0:0:
448,192,36676,1,0,0:0:0:0:
192,192,36676,1,0,0:0:0:0:
64,192,36743,1,0,0:0:0:0:
192,192,36810,1,0,0:0:0:0:
320,192,36877,1,0,0:0:0:0:
448,192,36944,1,0,0:0:0:0:
64,192,36944,1,0,0:0:0:0:
192,192,37078,1,0,0:0:0:0:
320,192,37122,1,0,0:0:0:0:
448,192,37212,1,0,0:0:0:0:
64,192,37256,1,0,0:0:0:0:
192,192,37346,1,0,0:0:0:0:
448,192,37390,1,0,0:0:0:0:
320,192,37480,1,0,0:0:0:0:
64,192,37480,1,0,0:0:0:0:
192,192,37524,1,0,0:0:0:0:
320,192,37613,1,0,0:0:0:0:
448,192,37658,1,0,0:0:0:0:
320,192,37881,1,0,0:0:0:0:
192,192,37926,1,0,0:0:0:0:
64,192,37971,1,0,0:0:0:0:
448,192,38015,128,0,38149:0:0:0:0:
320,192,38082,128,0,38216:0:0:0:0:
192,192,38149,128,0,38283:0:0:0:0:
64,192,38283,128,0,38417:0:0:0:0:
192,192,38350,128,0,38484:0:0:0:0:
320,192,38417,128,0,38551:0:0:0:0:
448,192,38417,1,0,0:0:0:0:
64,192,38551,1,0,0:0:0:0:
192,192,38618,1,0,0:0:0:0:
448,192,38685,1,0,0:0:0:0:
448,192,38886,1,0,0:0:0:0:
192,192,38953,1,0,0:0:0:0:
64,192,39020,1,0,0:0:0:0:
448,192,39087,1,0,0:0:0:0:
320,192,39087,128,0,39355:0:0:0:0:
64,192,39355,128,0,39622:0:0:0:0:
448,192,39421,128,0,39622:0:0:0:0:
320,192,39622,1,0,0:0:0:0:
192,192,39622,1,0,0:0:0:0:
192,192,39756,1,0,0:0:0:0:
64,192,39890,1,0,0:0:0:0:
320,192,39935,1,0,0:0:0:0:
192,192,40024,1,0,0:0:0:0:
320,192,40158,1,0,0:0:0:0:
64,192,40158,1,0,0:0:0:0:
448,192,40158,1,0,0:0:0:0:
192,192,40381,1,0,0:0:0:0:
448,192,40426,1,0,0:0:0:0:
64,192,40471,1,0,0:0:0:0:
64,192,40694,1,0,0:0:0:0:
320,192,40694,1,0,0:0:0:0:
192,192,40694,1,0,0:0:0:0:
448,192,40962,1,0,0:0:0:0:
320,192,41006,1,0,0:0:0:0:
192,192,41051,128,0,41230:0:0:0:0:
64,192,41096,128,0,41230:0:0:0:0:
320,192,41230,1,0,0:0:0:0:
448,192,41230,1,0,0:0:0:0:
64,192,41363,1,0,0:0:0:0:
192,192,41408,1,0,0:0:0:0:
320,192,41453,128,0,41765:0:0:0:0:
448,192,41497,128,0,41765:0:0:0:0:
192,192,41765,1,0,0:0:0:0:
64,192,41765,1,0,0:0:0:0:
448,192,42033,1,0,0:0:0:0:
320,192,42078,1,0,0:0:0:0:
192,192,42122,128,0,42301:0:0:0:0:
64,192,42167,128,0,42301:0:0:0:0:
320,192,42301,1,0,0:0:0:0:
448,192,42301,1,0,0:0:0:0:
64,192,42435,1,0,0:0:0:0:
192,192,42480,1,0,0:0:0:0:
320,192,42524,128,0,42703:0:0:0:0:
448,192,42569,128,0,42703:0:0:0:0:
64,192,42703,1,0,0:0:0:0:
192,192,42703,1,0,0:0:0:0:
192,192,42837,1,0,0:0:0:0:
448,192,42837,1,0,0:0:0:0:
320,192,42837,1,0,0:0:0:0:
320,192,43105,1,0,0:0:0:0:
64,192,43105,1,0,0:0:0:0:
192,192,43372,1,0,0:0:0:0:
64,192,43372,1,0,0:0:0:0:
192,192,43506,1,0,0:0:0:0:
448,192,43551,1,0,0:0:0:0:
192,192,43640,1,0,0:0:0:0:
448,192,43685,1,0,0:0:0:0:
320,192,43774,1,0,0:0:0:0:
64,192,43908,1,0,0:0:0:0:
192,192,43953,1,0,0:0:0:0:
64,192,44042,1,0,0:0:0:0:
320,192,44087,1,0,0:0:0:0:
192,192,44176,1,0,0:0:0:0:
448,192,44221,1,0,0:0:0:0:
448,192,44310,1,0,0:0:0:0:
192,192,44355,1,0,0:0:0:0:
64,192,44444,1,0,0:0:0:0:
192,192,44511,1,0,0:0:0:0:
320,192,44578,1,0,0:0:0:0:
448,192,44645,1,0,0:0:0:0:
192,192,44756,1,0,0:0:0:0:
320,192,44801,1,0,0:0:0:0:
64,192,44846,1,0,0:0:0:0:
192,192,44890,1,0,0:0:0:0:
320,192,44980,1,0,0:0:0:0:
448,192,44980,1,0,0:0:0:0:
320,192,45247,1,0,0:0:0:0:
192,192,45292,1,0,0:0:0:0:
448,192,45337,1,0,0:0:0:0:
64,192,45381,1,0,0:0:0:0:
320,192,45515,1,0,0:0:0:0:
448,192,45515,1,0,0:0:0:0:
192,192,45515,1,0,0:0:0:0:
320,192,45649,1,0,0:0:0:0:
64,192,45694,1,0,0:0:0:0:
192,192,45783,1,0,0:0:0:0:
448,192,45828,1,0,0:0:0:0:
320,192,45917,1,0,0:0:0:0:
192,192,45962,1,0,0:0:0:0:
64,192,46051,1,0,0:0:0:0:
448,192,46051,1,0,0:0:0:0:
320,192,46051,1,0,0:0:0:0:
320,192,46185,1,0,0:0:0:0:
448,192,46230,1,0,0:0:0:0:
320,192,46453,1,0,0:0:0:0:
448,192,46497,1,0,0:0:0:0:
64,192,46587,1,0,0:0:0:0:
192,192,46587,1,0,0:0:0:0:
320,192,46654,1,0,0:0:0:0:
448,192,46721,1,0,0:0:0:0:
192,192,46788,1,0,0:0:0:0:
64,192,46855,1,0,0:0:0:0:
320,192,46921,1,0,0:0:0:0:
192,192,46988,1,0,0:0:0:0:
64,192,46988,1,0,0:0:0:0:
320,192,47055,1,0,0:0:0:0:
64,192,47122,1,0,0:0:0:0:
448,192,47122,128,0,47256:0:0:0:0:
320,192,47189,128,0,47323:0:0:0:0:
192,192,47256,128,0,47390:0:0:0:0:
64,192,47390,128,0,47524:0:0:0:0:
320,192,47457,128,0,47591:0:0:0:0:
448,192,47524,128,0,47658:0:0:0:0:
64,192,47658,1,0,0:0:0:0:
192,192,47658,128,0,47926:0:0:0:0:
320,192,47926,1,0,0:0:0:0:
448,192,47993,1,0,0:0:0:0:
320,192,48060,1,0,0:0:0:0:
192,192,48127,1,0,0:0:0:0:
64,192,48194,1,0,0:0:0:0:
448,192,48194,1,0,0:0:0:0:
192,192,48328,1,0,0:0:0:0:
448,192,48328,1,0,0:0:0:0:
320,192,48462,1,0,0:0:0:0:
192,192,48495,1,0,0:0:0:0:
64,192,48529,1,0,0:0:0:0:
448,192,48596,1,0,0:0:0:0:
320,192,48596,1,0,0:0:0:0:
64,192,48730,1,0,0:0:0:0:
320,192,48730,1,0,0:0:0:0:
448,192,48730,1,0,0:0:0:0:
448,192,48997,1,0,0:0:0:0:
192,192,49042,1,0,0:0:0:0:
320,192,49087,1,0,0:0:0:0:
64,192,49265,1,0,0:0:0:0:
448,192,49265,1,0,0:0:0:0:
192,192,49265,1,0,0:0:0:0:
448,192,49533,1,0,0:0:0:0:
320,192,49578,1,0,0:0:0:0:
192,192,49622,128,0,49801:0:0:0:0:
64,192,49667,128,0,49801:0:0:0:0:
320,192,49801,1,0,0:0:0:0:
448,192,49801,1,0,0:0:0:0:
64,192,49935,1,0,0:0:0:0:
192,192,49980,1,0,0:0:0:0:
320,192,50024,128,0,50337:0:0:0:0:
448,192,50069,128,0,50337:0:0:0:0:
192,192,50337,1,0,0:0:0:0:
64,192,50337,1,0,0:0:0:0:
448,192,50605,1,0,0:0:0:0:
320,192,50649,1,0,0:0:0:0:
192,192,50694,128,0,50872:0:0:0:0:
64,192,50738,128,0,50872:0:0:0:0:
448,192,50872,1,0,0:0:0:0:
320,192,50872,128,0,51408:0:0:0:0:
448,192,51408,1,0,0:0:0:0:
192,192,51408,1,0,0:0:0:0:
64,192,51408,1,0,0:0:0:0:
192,192,51676,1,0,0:0:0:0:
448,192,51676,1,0,0:0:0:0:
448,192,51944,1,0,0:0:0:0:
320,192,51944,1,0,0:0:0:0:
64,192,51944,1,0,0:0:0:0:
192,192,52078,1,0,0:0:0:0:
320,192,52122,1,0,0:0:0:0:
448,192,52212,1,0,0:0:0:0:
192,192,52256,1,0,0:0:0:0:
64,192,52346,1,0,0:0:0:0:
320,192,52390,1,0,0:0:0:0:
64,192,52480,1,0,0:0:0:0:
192,192,52480,1,0,0:0:0:0:
320,192,52613,1,0,0:0:0:0:
192,192,52658,1,0,0:0:0:0:
448,192,52747,1,0,0:0:0:0:
192,192,52792,1,0,0:0:0:0:
448,192,52881,1,0,0:0:0:0:
320,192,52926,1,0,0:0:0:0:
192,192,53015,1,0,0:0:0:0:
64,192,53015,1,0,0:0:0:0:
320,192,53283,1,0,0:0:0:0:
192,192,53350,1,0,0:0:0:0:
448,192,53417,1,0,0:0:0:0:
192,192,53484,1,0,0:0:0:0:
64,192,53551,1,0,0:0:0:0:
320,192,53551,1,0,0:0:0:0:
192,192,53819,1,0,0:0:0:0:
448,192,53819,1,0,0:0:0:0:
64,192,53886,1,0,0:0:0:0:
192,192,53953,1,0,0:0:0:0:
320,192,54020,1,0,0:0:0:0:
64,192,54087,1,0,0:0:0:0:
448,192,54087,1,0,0:0:0:0:
192,192,54221,1,0,0:0:0:0:
320,192,54265,1,0,0:0:0:0:
448,192,54355,1,0,0:0:0:0:
64,192,54399,1,0,0:0:0:0:
192,192,54488,1,0,0:0:0:0:
448,192,54533,1,0,0:0:0:0:
64,192,54622,1,0,0:0:0:0:
320,192,54622,1,0,0:0:0:0:
192,192,54667,1,0,0:0:0:0:
320,192,54756,1,0,0:0:0:0:
448,192,54801,1,0,0:0:0:0:
320,192,55024,1,0,0:0:0:0:
192,192,55069,1,0,0:0:0:0:
64,192,55113,1,0,0:0:0:0:
448,192,55158,128,0,55292:0:0:0:0:
320,192,55225,128,0,55359:0:0:0:0:
192,192,55292,128,0,55426:0:0:0:0:
64,192,55426,128,0,55560:0:0:0:0:
192,192,55493,128,0,55627:0:0:0:0:
448,192,55560,1,0,0:0:0:0:
320,192,55560,128,0,55694:0:0:0:0:
64,192,55694,1,0,0:0:0:0:
192,192,55761,1,0,0:0:0:0:
448,192,55828,1,0,0:0:0:0:
448,192,56029,1,0,0:0:0:0:
192,192,56096,1,0,0:0:0:0:
64,192,56163,1,0,0:0:0:0:
320,192,56230,128,0,56497:0:0:0:0:
448,192,56230,1,0,0:0:0:0:
64,192,56497,128,0,56765:0:0:0:0:
448,192,56564,128,0,56765:0:0:0:0:
192,192,56765,1,0,0:0:0:0:
320,192,56765,1,0,0:0:0:0:
192,192,56899,1,0,0:0:0:0:
64,192,57033,1,0,0:0:0:0:
320,192,57078,1,0,0:0:0:0:
192,192,57167,1,0,0:0:0:0:
448,192,57301,1,0,0:0:0:0:
64,192,57301,1,0,0:0:0:0:
320,192,57301,1,0,0:0:0:0:
192,192,57524,1,0,0:0:0:0:
448,192,57569,1,0,0:0:0:0:
64,192,57613,1,0,0:0:0:0:
192,192,57837,1,0,0:0:0:0:
320,192,57837,1,0,0:0:0:0:
64,192,57837,1,0,0:0:0:0:
448,192,58105,1,0,0:0:0:0:
320,192,58149,1,0,0:0:0:0:
192,192,58194,128,0,58372:0:0:0:0:
64,192,58238,128,0,58372:0:0:0:0:
448,192,58372,1,0,0:0:0:0:
320,192,58372,1,0,0:0:0:0:
64,192,58506,1,0,0:0:0:0:
192,192,58551,1,0,0:0:0:0:
320,192,58596,128,0,58908:0:0:0:0:
448,192,58640,128,0,58908:0:0:0:0:
64,192,58908,1,0,0:0:0:0:
192,192,58908,1,0,0:0:0:0:
448,192,59176,1,0,0:0:0:0:
320,192,59221,1,0,0:0:0:0:
192,192,59265,128,0,59444:0:0:0:0:
64,192,59310,128,0,59444:0:0:0:0:
448,192,59444,1,0,0:0:0:0:
320,192,59444,1,0,0:0:0:0:
64,192,59578,1,0,0:0:0:0:
192,192,59622,1,0,0:0:0:0:
320,192,59667,128,0,59846:0:0:0:0:
448,192,59712,128,0,59846:0:0:0:0:
192,192,59846,1,0,0:0:0:0:
64,192,59846,1,0,0:0:0:0:
192,192,59980,1,0,0:0:0:0:
448,192,60024,1,0,0:0:0:0:
320,192,60113,1,0,0:0:0:0:
448,192,60247,1,0,0:0:0:0:
320,192,60381,1,0,0:0:0:0:
448,192,60515,1,0,0:0:0:0:
320,192,60515,1,0,0:0:0:0:
192,192,60649,1,0,0:0:0:0:
448,192,60694,1,0,0:0:0:0:
192,192,60783,1,0,0:0:0:0:
448,192,60828,1,0,0:0:0:0:
320,192,60917,1,0,0:0:0:0:
64,192,61051,1,0,0:0:0:0:
192,192,61096,1,0,0:0:0:0:
64,192,61185,1,0,0:0:0:0:
320,192,61230,1,0,0:0:0:0:
192,192,61319,1,0,0:0:0:0:
448,192,61363,1,0,0:0:0:0:
448,192,61453,1,0,0:0:0:0:
192,192,61497,1,0,0:0:0:0:
64,192,61587,1,0,0:0:0:0:
192,192,61654,1,0,0:0:0:0:
320,192,61721,1,0,0:0:0:0:
448,192,61788,1,0,0:0:0:0:
192,192,61899,1,0,0:0:0:0:
320,192,61944,1,0,0:0:0:0:
64,192,61988,1,0,0:0:0:0:
192,192,62033,1,0,0:0:0:0:
448,192,62122,1,0,0:0:0:0:
320,192,62122,1,0,0:0:0:0:
320,192,62390,1,0,0:0:0:0:
192,192,62435,1,0,0:0:0:0:
448,192,62480,1,0,0:0:0:0:
64,192,62524,1,0,0:0:0:0:
192,192,62658,1,0,0:0:0:0:
448,192,62658,1,0,0:0:0:0:
320,192,62658,1,0,0:0:0:0:
320,192,62792,1,0,0:0:0:0:
64,192,62837,1,0,0:0:0:0:
192,192,62926,1,0,0:0:0:0:
448,192,62971,1,0,0:0:0:0:
320,192,63060,1,0,0:0:0:0:
192,192,63105,1,0,0:0:0:0:
320,192,63194,1,0,0:0:0:0:
448,192,63194,1,0,0:0:0:0:
64,192,63194,1,0,0:0:0:0:
320,192,63328,1,0,0:0:0:0:
448,192,63372,1,0,0:0:0:0:
320,192,63596,1,0,0:0:0:0:
448,192,63640,1,0,0:0:0:0:
192,192,63730,1,0,0:0:0:0:
64,192,63730,1,0,0:0:0:0:
320,192,63796,1,0,0:0:0:0:
448,192,63863,1,0,0:0:0:0:
192,192,63930,1,0,0:0:0:0:
64,192,63997,1,0,0:0:0:0:
320,192,64064,1,0,0:0:0:0:
64,192,64131,1,0,0:0:0:0:
192,192,64131,1,0,0:0:0:0:
320,192,64198,1,0,0:0:0:0:
448,192,64265,128,0,64399:0:0:0:0:
192,192,64265,1,0,0:0:0:0:
320,192,64332,128,0,64466:0:0:0:0:
192,192,64399,128,0,64533:0:0:0:0:
64,192,64533,128,0,64667:0:0:0:0:
320,192,64600,128,0,64734:0:0:0:0:
448,192,64667,128,0,64801:0:0:0:0:
192,192,64801,128,0,65069:0:0:0:0:
64,192,64801,1,0,0:0:0:0:
320,192,65069,1,0,0:0:0:0:
448,192,65136,1,0,0:0:0:0:
320,192,65203,1,0,0:0:0:0:
192,192,65270,1,0,0:0:0:0:
448,192,65337,1,0,0:0:0:0:
64,192,65337,1,0,0:0:0:0:
448,192,65471,1,0,0:0:0:0:
192,192,65471,1,0,0:0:0:0:
320,192,65605,1,0,0:0:0:0:
192,192,65638,1,0,0:0:0:0:
64,192,65671,1,0,0:0:0:0:
320,192,65738,1,0,0:0:0:0:
448,192,65738,1,0,0:0:0:0:
448,192,65872,1,0,0:0:0:0:
320,192,65872,1,0,0:0:0:0:
64,192,65872,1,0,0:0:0:0:
448,192,66140,1,0,0:0:0:0:
192,192,66185,1,0,0:0:0:0:
320,192,66230,1,0,0:0:0:0:
192,192,66408,1,0,0:0:0:0:
448,192,66408,1,0,0:0:0:0:
64,192,66408,1,0,0:0:0:0:
448,192,66676,1,0,0:0:0:0:
320,192,66721,1,0,0:0:0:0:
192,192,66765,128,0,66944:0:0:0:0:
64,192,66810,128,0,66944:0:0:0:0:
448,192,66944,1,0,0:0:0:0:
320,192,66944,1,0,0:0:0:0:
64,192,67078,1,0,0:0:0:0:
192,192,67122,1,0,0:0:0:0:
320,192,67167,128,0,67480:0:0:0:0:
448,192,67212,128,0,67480:0:0:0:0:
64,192,67480,1,0,0:0:0:0:
192,192,67480,1,0,0:0:0:0:
320,192,67569,1,0,0:0:0:0:
192,192,67658,1,0,0:0:0:0:
320,192,67747,1,0,0:0:0:0:
448,192,67747,1,0,0:0:0:0:
64,192,67837,1,0,0:0:0:0:
448,192,67926,1,0,0:0:0:0:
64,192,68015,1,0,0:0:0:0:
320,192,68060,1,0,0:0:0:0:
64,192,68149,1,0,0:0:0:0:
320,192,68194,1,0,0:0:0:0:
64,192,68283,1,0,0:0:0:0:
320,192,68328,1,0,0:0:0:0:
64,192,68417,1,0,0:0:0:0:
320,192,68462,1,0,0:0:0:0:
64,192,68551,1,0,0:0:0:0:
448,192,68551,1,0,0:0:0:0:
192,192,68551,1,0,0:0:0:0:
192,192,68685,128,0,68819:0:0:0:0:
320,192,68953,128,0,69087:0:0:0:0:
64,192,69087,1,0,0:0:0:0:
448,192,69087,1,0,0:0:0:0:
192,192,69087,1,0,0:0:0:0:
192,192,69355,128,0,69488:0:0:0:0:
320,192,69488,1,0,0:0:0:0:
320,192,69622,1,0,0:0:0:0:
448,192,69622,1,0,0:0:0:0:
448,192,69756,128,0,69890:0:0:0:0:
64,192,69890,128,0,70024:0:0:0:0:
64,192,70158,1,0,0:0:0:0:
192,192,70158,1,0,0:0:0:0:
320,192,70158,128,0,70426:0:0:0:0:
192,192,70426,128,0,70627:0:0:0:0:
192,192,70694,128,0,70962:0:0:0:0:
64,192,70694,1,0,0:0:0:0:
320,192,70828,1,0,0:0:0:0:
448,192,70861,1,0,0:0:0:0:
320,192,70962,1,0,0:0:0:0:
64,192,70995,1,0,0:0:0:0:
448,192,71096,1,0,0:0:0:0:
192,192,71129,1,0,0:0:0:0:
64,192,71230,1,0,0:0:0:0:
192,192,71363,1,0,0:0:0:0:
448,192,71397,1,0,0:0:0:0:
320,192,71497,1,0,0:0:0:0:
64,192,71531,1,0,0:0:0:0:
192,192,71631,1,0,0:0:0:0:
320,192,71765,1,0,0:0:0:0:
448,192,71765,1,0,0:0:0:0:
192,192,71899,1,0,0:0:0:0:
320,192,71933,1,0,0:0:0:0:
320,192,72167,1,0,0:0:0:0:
192,192,72200,1,0,0:0:0:0:
64,192,72301,1,0,0:0:0:0:
320,192,72301,1,0,0:0:0:0:
448,192,72301,128,0,72569:0:0:0:0:
192,192,72435,128,0,72837:0:0:0:0:
320,192,72703,1,0,0:0:0:0:
448,192,72703,1,0,0:0:0:0:
320,192,72837,1,0,0:0:0:0:
448,192,72837,1,0,0:0:0:0:
64,192,72837,1,0,0:0:0:0:
64,192,72971,128,0,73105:0:0:0:0:
320,192,73238,128,0,73372:0:0:0:0:
64,192,73372,1,0,0:0:0:0:
448,192,73372,1,0,0:0:0:0:
192,192,73372,1,0,0:0:0:0:
192,192,73640,128,0,73774:0:0:0:0:
320,192,73774,1,0,0:0:0:0:
320,192,73908,1,0,0:0:0:0:
448,192,73908,1,0,0:0:0:0:
448,192,74042,128,0,74176:0:0:0:0:
64,192,74176,128,0,74310:0:0:0:0:
64,192,74444,1,0,0:0:0:0:
192,192,74444,1,0,0:0:0:0:
320,192,74444,128,0,74712:0:0:0:0:
192,192,74712,128,0,74913:0:0:0:0:
64,192,74980,1,0,0:0:0:0:
192,192,74980,1,0,0:0:0:0:
448,192,74980,1,0,0:0:0:0:
320,192,75113,1,0,0:0:0:0:
448,192,75147,1,0,0:0:0:0:
192,192,75247,1,0,0:0:0:0:
64,192,75281,1,0,0:0:0:0:
320,192,75381,1,0,0:0:0:0:
192,192,75415,1,0,0:0:0:0:
64,192,75515,1,0,0:0:0:0:
448,192,75515,1,0,0:0:0:0:
320,192,75515,1,0,0:0:0:0:
192,192,75649,1,0,0:0:0:0:
448,192,75683,1,0,0:0:0:0:
320,192,75783,1,0,0:0:0:0:
192,192,75817,1,0,0:0:0:0:
64,192,75917,1,0,0:0:0:0:
320,192,76051,1,0,0:0:0:0:
448,192,76051,1,0,0:0:0:0:
64,192,76051,1,0,0:0:0:0:
192,192,76185,1,0,0:0:0:0:
320,192,76218,1,0,0:0:0:0:
64,192,76319,1,0,0:0:0:0:
448,192,76319,1,0,0:0:0:0:
320,192,76453,1,0,0:0:0:0:
192,192,76486,1,0,0:0:0:0:
320,192,76587,1,0,0:0:0:0:
448,192,76587,1,0,0:0:0:0:
64,192,76587,128,0,76721:0:0:0:0:
448,192,76721,128,0,77122:0:0:0:0:
192,192,77122,1,0,0:0:0:0:
64,192,77122,1,0,0:0:0:0:
320,192,77122,1,0,0:0:0:0:
192,192,77256,128,0,77390:0:0:0:0:
320,192,77524,128,0,77658:0:0:0:0:
64,192,77658,1,0,0:0:0:0:
448,192,77658,1,0,0:0:0:0:
192,192,77658,1,0,0:0:0:0:
192,192,77926,128,0,78060:0:0:0:0:
320,192,78060,1,0,0:0:0:0:
320,192,78194,1,0,0:0:0:0:
448,192,78194,1,0,0:0:0:0:
448,192,78328,128,0,78462:0:0:0:0:
64,192,78462,128,0,78596:0:0:0:0:
64,192,78730,1,0,0:0:0:0:
192,192,78730,1,0,0:0:0:0:
320,192,78730,128,0,78997:0:0:0:0:
192,192,78997,128,0,79198:0:0:0:0:
192,192,79265,128,0,79533:0:0:0:0:
64,192,79265,1,0,0:0:0:0:
320,192,79399,1,0,0:0:0:0:
448,192,79433,1,0,0:0:0:0:
320,192,79533,1,0,0:0:0:0:
64,192,79567,1,0,0:0:0:0:
448,192,79667,1,0,0:0:0:0:
192,192,79700,1,0,0:0:0:0:
64,192,79801,1,0,0:0:0:0:
192,192,79935,1,0,0:0:0:0:
448,192,79968,1,0,0:0:0:0:
320,192,80069,1,0,0:0:0:0:
64,192,80102,1,0,0:0:0:0:
192,192,80203,1,0,0:0:0:0:
320,192,80337,1,0,0:0:0:0:
448,192,80337,1,0,0:0:0:0:
192,192,80471,1,0,0:0:0:0:
320,192,80504,1,0,0:0:0:0:
320,192,80738,1,0,0:0:0:0:
192,192,80772,1,0,0:0:0:0:
64,192,80872,1,0,0:0:0:0:
320,192,80872,1,0,0:0:0:0:
448,192,80939,1,0,0:0:0:0:
64,192,81006,1,0,0:0:0:0:
448,192,81073,1,0,0:0:0:0:
320,192,81274,1,0,0:0:0:0:
192,192,81274,1,0,0:0:0:0:
320,192,81408,1,0,0:0:0:0:
448,192,81408,1,0,0:0:0:0:
64,192,81408,1,0,0:0:0:0:
64,192,81542,128,0,81676:0:0:0:0:
192,192,81676,1,0,0:0:0:0:
320,192,81810,128,0,81944:0:0:0:0:
64,192,81944,1,0,0:0:0:0:
448,192,81944,1,0,0:0:0:0:
192,192,81944,1,0,0:0:0:0:
448,192,82078,1,0,0:0:0:0:
192,192,82212,128,0,82346:0:0:0:0:
320,192,82346,1,0,0:0:0:0:
320,192,82480,1,0,0:0:0:0:
448,192,82480,1,0,0:0:0:0:
448,192,82613,128,0,82747:0:0:0:0:
64,192,82747,128,0,82881:0:0:0:0:
320,192,82881,1,0,0:0:0:0:
64,192,83015,1,0,0:0:0:0:
192,192,83015,1,0,0:0:0:0:
320,192,83015,128,0,83283:0:0:0:0:
448,192,83149,1,0,0:0:0:0:
192,192,83283,128,0,83484:0:0:0:0:
320,192,83417,1,0,0:0:0:0:
192,192,83551,1,0,0:0:0:0:
448,192,83551,1,0,0:0:0:0:
64,192,83551,128,0,83819:0:0:0:0:
448,192,83819,128,0,83953:0:0:0:0:
320,192,83886,128,0,84020:0:0:0:0:
192,192,83953,128,0,84087:0:0:0:0:
320,192,84087,1,0,0:0:0:0:
448,192,84087,1,0,0:0:0:0:
64,192,84087,128,0,84355:0:0:0:0:
448,192,84355,128,0,84488:0:0:0:0:
320,192,84421,128,0,84555:0:0:0:0:
192,192,84488,128,0,84622:0:0:0:0:
64,192,84622,128,0,84890:0:0:0:0:
448,192,84622,1,0,0:0:0:0:
320,192,84622,1,0,0:0:0:0:
448,192,84890,128,0,85024:0:0:0:0:
320,192,84957,128,0,85091:0:0:0:0:
192,192,85024,128,0,85158:0:0:0:0:
64,192,85158,128,0,85426:0:0:0:0:
320,192,85158,128,0,85627:0:0:0:0:
448,192,85158,128,0,85627:0:0:0:0:
192,192,85694,1,0,0:0:0:0:
64,192,85694,1,0,0:0:0:0:
192,192,86096,1,0,0:0:0:0:
192,192,86497,1,0,0:0:0:0:
192,192,86899,1,0,0:0:0:0:
192,192,87301,1,0,0:0:0:0:
192,192,87569,1,0,0:0:0:0:
192,192,87837,1,0,0:0:0:0:
192,192,88238,1,0,0:0:0:0:
192,192,88640,1,0,0:0:0:0:
192,192,89042,1,0,0:0:0:0:
192,192,89444,1,0,0:0:0:0:
192,192,89712,1,0,0:0:0:0:
192,192,89980,1,0,0:0:0:0:
320,192,90247,1,0,0:0:0:0:
192,192,90515,1,0,0:0:0:0:
320,192,90783,1,0,0:0:0:0:
192,192,91051,1,0,0:0:0:0:
320,192,91319,1,0,0:0:0:0:
192,192,91587,1,0,0:0:0:0:
320,192,91855,1,0,0:0:0:0:
192,192,92122,1,0,0:0:0:0:
320,192,92256,1,0,0:0:0:0:
192,192,92390,1,0,0:0:0:0:
448,192,92524,1,0,0:0:0:0:
64,192,92658,1,0,0:0:0:0:
320,192,92792,1,0,0:0:0:0:
64,192,92926,1,0,0:0:0:0:
448,192,93060,1,0,0:0:0:0:
192,192,93194,1,0,0:0:0:0:
64,192,93261,1,0,0:0:0:0:
192,192,93328,1,0,0:0:0:0:
320,192,93395,1,0,0:0:0:0:
448,192,93462,1,0,0:0:0:0:
192,192,93529,1,0,0:0:0:0:
320,192,93596,1,0,0:0:0:0:
192,192,93663,1,0,0:0:0:0:
320,192,93730,1,0,0:0:0:0:
64,192,93730,1,0,0:0:0:0:
448,192,93730,1,0,0:0:0:0:
448,192,93863,128,0,94265:0:0:0:0:
320,192,94265,1,0,0:0:0:0:
64,192,94265,1,0,0:0:0:0:
192,192,94265,1,0,0:0:0:0:
448,192,94533,1,0,0:0:0:0:
320,192,94600,1,0,0:0:0:0:
192,192,94667,1,0,0:0:0:0:
320,192,94734,1,0,0:0:0:0:
448,192,94801,1,0,0:0:0:0:
64,192,94801,1,0,0:0:0:0:
192,192,94801,1,0,0:0:0:0:
448,192,94935,1,0,0:0:0:0:
64,192,95069,1,0,0:0:0:0:
320,192,95113,1,0,0:0:0:0:
192,192,95203,1,0,0:0:0:0:
448,192,95247,128,0,95605:0:0:0:0:
64,192,95337,1,0,0:0:0:0:
192,192,95337,1,0,0:0:0:0:
192,192,95738,128,0,95872:0:0:0:0:
64,192,95872,1,0,0:0:0:0:
448,192,95872,1,0,0:0:0:0:
320,192,95872,1,0,0:0:0:0:
448,192,96006,1,0,0:0:0:0:
192,192,96140,1,0,0:0:0:0:
192,192,96274,1,0,0:0:0:0:
64,192,96408,1,0,0:0:0:0:
320,192,96408,1,0,0:0:0:0:
448,192,96475,128,0,96810:0:0:0:0:
192,192,96810,128,0,96944:0:0:0:0:
320,192,96944,1,0,0:0:0:0:
448,192,96944,1,0,0:0:0:0:
320,192,97212,1,0,0:0:0:0:
64,192,97245,1,0,0:0:0:0:
192,192,97346,1,0,0:0:0:0:
448,192,97379,1,0,0:0:0:0:
64,192,97480,1,0,0:0:0:0:
320,192,97546,1,0,0:0:0:0:
64,192,97613,1,0,0:0:0:0:
320,192,97680,1,0,0:0:0:0:
448,192,97747,1,0,0:0:0:0:
192,192,97814,1,0,0:0:0:0:
448,192,97881,1,0,0:0:0:0:
320,192,97948,1,0,0:0:0:0:
64,192,98015,1,0,0:0:0:0:
192,192,98082,1,0,0:0:0:0:
64,192,98149,1,0,0:0:0:0:
192,192,98216,1,0,0:0:0:0:
448,192,98283,1,0,0:0:0:0:
320,192,98350,1,0,0:0:0:0:
448,192,98417,1,0,0:0:0:0:
320,192,98484,1,0,0:0:0:0:
192,192,98551,1,0,0:0:0:0:
64,192,98551,1,0,0:0:0:0:
192,192,98685,1,0,0:0:0:0:
320,192,98718,1,0,0:0:0:0:
192,192,98819,1,0,0:0:0:0:
320,192,98852,1,0,0:0:0:0:
192,192,98953,1,0,0:0:0:0:
320,192,98986,1,0,0:0:0:0:
448,192,99087,1,0,0:0:0:0:
192,192,99087,1,0,0:0:0:0:
64,192,99120,128,0,99288:0:0:0:0:
192,192,99355,1,0,0:0:0:0:
320,192,99388,1,0,0:0:0:0:
448,192,99488,1,0,0:0:0:0:
192,192,99522,1,0,0:0:0:0:
448,192,99756,1,0,0:0:0:0:
192,192,99790,1,0,0:0:0:0:
320,192,99890,1,0,0:0:0:0:
192,192,99957,1,0,0:0:0:0:
320,192,100024,1,0,0:0:0:0:
192,192,100091,1,0,0:0:0:0:
320,192,100158,1,0,0:0:0:0:
64,192,100158,1,0,0:0:0:0:
448,192,100158,1,0,0:0:0:0:
448,192,100292,128,0,100426:0:0:0:0:
320,192,100426,1,0,0:0:0:0:
64,192,100426,1,0,0:0:0:0:
64,192,100560,1,0,0:0:0:0:
192,192,100560,1,0,0:0:0:0:
320,192,100694,1,0,0:0:0:0:
448,192,100694,1,0,0:0:0:0:
192,192,100828,1,0,0:0:0:0:
448,192,100861,1,0,0:0:0:0:
192,192,100962,1,0,0:0:0:0:
448,192,100995,1,0,0:0:0:0:
192,192,101096,1,0,0:0:0:0:
448,192,101129,1,0,0:0:0:0:
320,192,101230,1,0,0:0:0:0:
192,192,101230,1,0,0:0:0:0:
64,192,101296,128,0,101497:0:0:0:0:
320,192,101497,1,0,0:0:0:0:
448,192,101531,1,0,0:0:0:0:
192,192,101631,1,0,0:0:0:0:
320,192,101665,1,0,0:0:0:0:
64,192,101765,1,0,0:0:0:0:
192,192,101765,1,0,0:0:0:0:
448,192,101765,1,0,0:0:0:0:
320,192,101899,1,0,0:0:0:0:
448,192,101899,1,0,0:0:0:0:
192,192,102167,1,0,0:0:0:0:
320,192,102167,1,0,0:0:0:0:
192,192,102301,1,0,0:0:0:0:
64,192,102301,1,0,0:0:0:0:
448,192,102301,1,0,0:0:0:0:
320,192,102368,128,0,102502:0:0:0:0:
320,192,102569,1,0,0:0:0:0:
192,192,102569,1,0,0:0:0:0:
64,192,102569,1,0,0:0:0:0:
448,192,102636,128,0,102770:0:0:0:0:
64,192,102837,1,0,0:0:0:0:
320,192,102837,1,0,0:0:0:0:
448,192,102837,1,0,0:0:0:0:
64,192,103105,1,0,0:0:0:0:
192,192,103171,1,0,0:0:0:0:
320,192,103238,1,0,0:0:0:0:
192,192,103305,1,0,0:0:0:0:
64,192,103372,1,0,0:0:0:0:
320,192,103372,1,0,0:0:0:0:
448,192,103372,1,0,0:0:0:0:
192,192,103506,1,0,0:0:0:0:
448,192,103540,1,0,0:0:0:0:
320,192,103640,1,0,0:0:0:0:
192,192,103674,1,0,0:0:0:0:
192,192,103774,1,0,0:0:0:0:
320,192,103808,1,0,0:0:0:0:
192,192,103908,1,0,0:0:0:0:
448,192,103908,1,0,0:0:0:0:
64,192,103908,1,0,0:0:0:0:
320,192,103975,128,0,104176:0:0:0:0:
320,192,104310,128,0,104444:0:0:0:0:
192,192,104444,1,0,0:0:0:0:
64,192,104444,1,0,0:0:0:0:
448,192,104444,128,0,104578:0:0:0:0:
192,192,104578,128,0,104712:0:0:0:0:
320,192,104712,128,0,104846:0:0:0:0:
64,192,104846,128,0,104980:0:0:0:0:
192,192,104846,1,0,0:0:0:0:
192,192,104980,1,0,0:0:0:0:
448,192,104980,1,0,0:0:0:0:
320,192,104980,1,0,0:0:0:0:
448,192,105113,1,0,0:0:0:0:
64,192,105247,1,0,0:0:0:0:
320,192,105314,1,0,0:0:0:0:
192,192,105381,1,0,0:0:0:0:
320,192,105448,1,0,0:0:0:0:
64,192,105515,1,0,0:0:0:0:
448,192,105649,1,0,0:0:0:0:
320,192,105783,1,0,0:0:0:0:
192,192,105850,1,0,0:0:0:0:
64,192,105917,1,0,0:0:0:0:
192,192,105984,1,0,0:0:0:0:
448,192,106051,1,0,0:0:0:0:
64,192,106118,1,0,0:0:0:0:
448,192,106185,1,0,0:0:0:0:
320,192,106252,1,0,0:0:0:0:
192,192,106319,1,0,0:0:0:0:
320,192,106386,1,0,0:0:0:0:
192,192,106453,1,0,0:0:0:0:
448,192,106520,1,0,0:0:0:0:
64,192,106587,1,0,0:0:0:0:
320,192,106654,1,0,0:0:0:0:
64,192,106721,1,0,0:0:0:0:
320,192,106788,1,0,0:0:0:0:
448,192,106855,1,0,0:0:0:0:
192,192,106921,1,0,0:0:0:0:
448,192,106988,1,0,0:0:0:0:
320,192,106988,1,0,0:0:0:0:
64,192,107055,1,0,0:0:0:0:
448,192,107122,1,0,0:0:0:0:
320,192,107122,1,0,0:0:0:0:
192,192,107122,128,0,107390:0:0:0:0:
320,192,107390,1,0,0:0:0:0:
448,192,107435,1,0,0:0:0:0:
320,192,107658,1,0,0:0:0:0:
64,192,107658,1,0,0:0:0:0:
448,192,107703,1,0,0:0:0:0:
320,192,107926,1,0,0:0:0:0:
64,192,107959,1,0,0:0:0:0:
192,192,108060,128,0,108462:0:0:0:0:
320,192,108194,1,0,0:0:0:0:
448,192,108194,1,0,0:0:0:0:
64,192,108462,1,0,0:0:0:0:
64,192,108596,1,0,0:0:0:0:
192,192,108730,128,0,108930:0:0:0:0:
320,192,108796,128,0,108997:0:0:0:0:
448,192,108863,128,0,108997:0:0:0:0:
64,192,108997,1,0,0:0:0:0:
192,192,109031,1,0,0:0:0:0:
320,192,109131,1,0,0:0:0:0:
448,192,109165,1,0,0:0:0:0:
192,192,109265,1,0,0:0:0:0:
320,192,109265,1,0,0:0:0:0:
320,192,109399,1,0,0:0:0:0:
64,192,109433,1,0,0:0:0:0:
192,192,109667,1,0,0:0:0:0:
448,192,109700,1,0,0:0:0:0:
64,192,109801,1,0,0:0:0:0:
320,192,109834,1,0,0:0:0:0:
192,192,109935,1,0,0:0:0:0:
64,192,109968,1,0,0:0:0:0:
448,192,110069,1,0,0:0:0:0:
320,192,110069,1,0,0:0:0:0:
192,192,110337,1,0,0:0:0:0:
320,192,110426,1,0,0:0:0:0:
448,192,110471,1,0,0:0:0:0:
192,192,110515,1,0,0:0:0:0:
64,192,110560,1,0,0:0:0:0:
448,192,110605,1,0,0:0:0:0:
320,192,110649,1,0,0:0:0:0:
64,192,110694,1,0,0:0:0:0:
192,192,110738,1,0,0:0:0:0:
448,192,110783,1,0,0:0:0:0:
320,192,110828,1,0,0:0:0:0:
64,192,110872,1,0,0:0:0:0:
192,192,110872,1,0,0:0:0:0:
448,192,110939,128,0,111408:0:0:0:0:
64,192,111408,1,0,0:0:0:0:
320,192,111408,1,0,0:0:0:0:
192,192,111408,1,0,0:0:0:0:
448,192,111676,1,0,0:0:0:0:
320,192,111743,1,0,0:0:0:0:
192,192,111810,1,0,0:0:0:0:
320,192,111877,1,0,0:0:0:0:
448,192,111944,1,0,0:0:0:0:
192,192,111944,1,0,0:0:0:0:
64,192,111944,128,0,112212:0:0:0:0:
448,192,112212,1,0,0:0:0:0:
192,192,112245,1,0,0:0:0:0:
320,192,112346,1,0,0:0:0:0:
448,192,112379,128,0,112747:0:0:0:0:
64,192,112480,1,0,0:0:0:0:
192,192,112480,1,0,0:0:0:0:
192,192,112881,1,0,0:0:0:0:
64,192,113015,1,0,0:0:0:0:
448,192,113049,1,0,0:0:0:0:
320,192,113082,1,0,0:0:0:0:
192,192,113149,1,0,0:0:0:0:
64,192,113283,1,0,0:0:0:0:
448,192,113317,1,0,0:0:0:0:
320,192,113417,1,0,0:0:0:0:
192,192,113450,1,0,0:0:0:0:
320,192,113551,1,0,0:0:0:0:
448,192,113551,1,0,0:0:0:0:
64,192,113551,1,0,0:0:0:0:
192,192,113618,128,0,113819:0:0:0:0:
320,192,113953,1,0,0:0:0:0:
64,192,113986,1,0,0:0:0:0:
192,192,114087,128,0,114288:0:0:0:0:
448,192,114087,1,0,0:0:0:0:
320,192,114087,1,0,0:0:0:0:
320,192,114355,1,0,0:0:0:0:
64,192,114388,1,0,0:0:0:0:
192,192,114488,1,0,0:0:0:0:
448,192,114522,1,0,0:0:0:0:
64,192,114622,1,0,0:0:0:0:
192,192,114656,1,0,0:0:0:0:
448,192,114756,1,0,0:0:0:0:
320,192,114790,1,0,0:0:0:0:
192,192,114890,1,0,0:0:0:0:
64,192,114924,1,0,0:0:0:0:
320,192,115024,1,0,0:0:0:0:
448,192,115058,1,0,0:0:0:0:
64,192,115158,1,0,0:0:0:0:
192,192,115225,1,0,0:0:0:0:
64,192,115292,1,0,0:0:0:0:
192,192,115359,1,0,0:0:0:0:
320,192,115426,1,0,0:0:0:0:
448,192,115493,1,0,0:0:0:0:
320,192,115560,1,0,0:0:0:0:
448,192,115627,1,0,0:0:0:0:
320,192,115694,1,0,0:0:0:0:
64,192,115694,1,0,0:0:0:0:
192,192,115694,1,0,0:0:0:0:
192,192,115828,1,0,0:0:0:0:
448,192,115861,1,0,0:0:0:0:
192,192,115962,1,0,0:0:0:0:
448,192,115995,1,0,0:0:0:0:
192,192,116096,1,0,0:0:0:0:
448,192,116129,1,0,0:0:0:0:
192,192,116230,1,0,0:0:0:0:
320,192,116230,1,0,0:0:0:0:
64,192,116230,1,0,0:0:0:0:
192,192,116497,1,0,0:0:0:0:
320,192,116531,1,0,0:0:0:0:
448,192,116631,1,0,0:0:0:0:
64,192,116665,1,0,0:0:0:0:
192,192,116765,1,0,0:0:0:0:
320,192,116765,1,0,0:0:0:0:
448,192,116765,1,0,0:0:0:0:
64,192,116899,1,0,0:0:0:0:
320,192,116933,1,0,0:0:0:0:
192,192,117033,1,0,0:0:0:0:
320,192,117100,1,0,0:0:0:0:
192,192,117167,1,0,0:0:0:0:
320,192,117234,1,0,0:0:0:0:
448,192,117301,1,0,0:0:0:0:
64,192,117301,1,0,0:0:0:0:
192,192,117301,1,0,0:0:0:0:
192,192,117569,128,0,117636:0:0:0:0:
320,192,117703,128,0,117770:0:0:0:0:
448,192,117837,1,0,0:0:0:0:
192,192,117837,1,0,0:0:0:0:
64,192,117837,1,0,0:0:0:0:
320,192,117971,1,0,0:0:0:0:
64,192,118004,1,0,0:0:0:0:
320,192,118105,1,0,0:0:0:0:
64,192,118138,1,0,0:0:0:0:
320,192,118238,1,0,0:0:0:0:
64,192,118272,1,0,0:0:0:0:
448,192,118372,1,0,0:0:0:0:
192,192,118372,1,0,0:0:0:0:
64,192,118406,128,0,118506:0:0:0:0:
320,192,118640,1,0,0:0:0:0:
192,192,118674,1,0,0:0:0:0:
192,192,118774,1,0,0:0:0:0:
320,192,118808,1,0,0:0:0:0:
64,192,118908,1,0,0:0:0:0:
192,192,118908,1,0,0:0:0:0:
320,192,119042,1,0,0:0:0:0:
448,192,119042,1,0,0:0:0:0:
448,192,119310,1,0,0:0:0:0:
192,192,119310,1,0,0:0:0:0:
320,192,119444,128,0,119645:0:0:0:0:
192,192,119511,128,0,119645:0:0:0:0:
64,192,119578,128,0,119645:0:0:0:0:
448,192,119712,128,0,119913:0:0:0:0:
320,192,119779,128,0,119913:0:0:0:0:
192,192,119846,128,0,119913:0:0:0:0:
64,192,119980,1,0,0:0:0:0:
320,192,119980,1,0,0:0:0:0:
448,192,119980,1,0,0:0:0:0:
192,192,120113,1,0,0:0:0:0:
320,192,120147,1,0,0:0:0:0:
192,192,120247,1,0,0:0:0:0:
320,192,120314,1,0,0:0:0:0:
448,192,120381,1,0,0:0:0:0:
320,192,120448,1,0,0:0:0:0:
192,192,120515,1,0,0:0:0:0:
64,192,120515,1,0,0:0:0:0:
448,192,120515,1,0,0:0:0:0:
64,192,120649,1,0,0:0:0:0:
320,192,120683,1,0,0:0:0:0:
192,192,120783,1,0,0:0:0:0:
320,192,120817,1,0,0:0:0:0:
192,192,120917,1,0,0:0:0:0:
448,192,120950,128,0,121319:0:0:0:0:
192,192,121051,1,0,0:0:0:0:
64,192,121051,1,0,0:0:0:0:
320,192,121051,1,0,0:0:0:0:
192,192,121453,1,0,0:0:0:0:
448,192,121587,1,0,0:0:0:0:
320,192,121587,1,0,0:0:0:0:
64,192,121587,1,0,0:0:0:0:
448,192,121721,1,0,0:0:0:0:
320,192,121855,1,0,0:0:0:0:
192,192,121988,1,0,0:0:0:0:
64,192,122022,1,0,0:0:0:0:
192,192,122122,1,0,0:0:0:0:
320,192,122122,1,0,0:0:0:0:
448,192,122122,1,0,0:0:0:0:
448,192,122256,1,0,0:0:0:0:
320,192,122390,1,0,0:0:0:0:
192,192,122457,1,0,0:0:0:0:
64,192,122524,1,0,0:0:0:0:
192,192,122591,1,0,0:0:0:0:
320,192,122658,1,0,0:0:0:0:
448,192,122658,1,0,0:0:0:0:
64,192,122658,1,0,0:0:0:0:
192,192,122792,1,0,0:0:0:0:
320,192,122926,1,0,0:0:0:0:
192,192,122959,1,0,0:0:0:0:
448,192,123060,1,0,0:0:0:0:
320,192,123093,1,0,0:0:0:0:
448,192,123194,1,0,0:0:0:0:
64,192,123194,1,0,0:0:0:0:
192,192,123261,1,0,0:0:0:0:
320,192,123328,1,0,0:0:0:0:
448,192,123395,1,0,0:0:0:0:
192,192,123462,1,0,0:0:0:0:
448,192,123529,1,0,0:0:0:0:
320,192,123596,1,0,0:0:0:0:
192,192,123663,1,0,0:0:0:0:
64,192,123730,1,0,0:0:0:0:
192,192,123796,1,0,0:0:0:0:
64,192,123863,1,0,0:0:0:0:
320,192,123930,1,0,0:0:0:0:
192,192,123997,1,0,0:0:0:0:
448,192,124064,1,0,0:0:0:0:
320,192,124131,1,0,0:0:0:0:
64,192,124131,1,0,0:0:0:0:
448,192,124198,1,0,0:0:0:0:
64,192,124265,1,0,0:0:0:0:
320,192,124265,1,0,0:0:0:0:
192,192,124265,128,0,124533:0:0:0:0:
64,192,124533,1,0,0:0:0:0:
320,192,124567,1,0,0:0:0:0:
448,192,124600,1,0,0:0:0:0:
64,192,124667,1,0,0:0:0:0:
192,192,124734,1,0,0:0:0:0:
320,192,124767,1,0,0:0:0:0:
64,192,124801,1,0,0:0:0:0:
448,192,124801,128,0,125069:0:0:0:0:
192,192,125069,1,0,0:0:0:0:
192,192,125203,128,0,125337:0:0:0:0:
320,192,125337,1,0,0:0:0:0:
448,192,125337,1,0,0:0:0:0:
64,192,125404,128,0,125605:0:0:0:0:
320,192,125605,1,0,0:0:0:0:
192,192,125738,1,0,0:0:0:0:
64,192,125872,1,0,0:0:0:0:
320,192,125939,1,0,0:0:0:0:
64,192,126006,1,0,0:0:0:0:
448,192,126073,1,0,0:0:0:0:
320,192,126140,1,0,0:0:0:0:
64,192,126174,1,0,0:0:0:0:
448,192,126274,1,0,0:0:0:0:
192,192,126308,1,0,0:0:0:0:
64,192,126408,1,0,0:0:0:0:
320,192,126408,1,0,0:0:0:0:
192,192,126542,1,0,0:0:0:0:
448,192,126575,1,0,0:0:0:0:
320,192,126676,1,0,0:0:0:0:
192,192,126810,1,0,0:0:0:0:
448,192,126843,1,0,0:0:0:0:
320,192,126944,1,0,0:0:0:0:
448,192,126977,1,0,0:0:0:0:
192,192,127078,1,0,0:0:0:0:
320,192,127111,1,0,0:0:0:0:
192,192,127212,1,0,0:0:0:0:
64,192,127212,128,0,127480:0:0:0:0:
320,192,127480,1,0,0:0:0:0:
448,192,127480,1,0,0:0:0:0:
192,192,127524,1,0,0:0:0:0:
64,192,127569,1,0,0:0:0:0:
320,192,127613,1,0,0:0:0:0:
448,192,127658,1,0,0:0:0:0:
64,192,127703,1,0,0:0:0:0:
192,192,127747,1,0,0:0:0:0:
448,192,127792,1,0,0:0:0:0:
320,192,127837,1,0,0:0:0:0:
64,192,127881,1,0,0:0:0:0:
192,192,127926,1,0,0:0:0:0:
320,192,127971,1,0,0:0:0:0:
448,192,128015,1,0,0:0:0:0:
64,192,128015,1,0,0:0:0:0:
192,192,128060,128,0,128551:0:0:0:0:
320,192,128551,1,0,0:0:0:0:
448,192,128551,1,0,0:0:0:0:
64,192,128551,1,0,0:0:0:0:
