osu file format v14

[General]
AudioFilename: audio.mp3
AudioLeadIn: 0
PreviewTime: 77345
Countdown: 1
SampleSet: Normal
StackLeniency: 0.7
Mode: 3
LetterboxInBreaks: 0
SpecialStyle: 0
WidescreenStoryboard: 0

[Editor]
DistanceSpacing: 0.8
BeatDivisor: 8
GridSize: 8
TimelineZoom: 1.900006

[Metadata]
Title:Fingerbang
TitleUnicode:Fingerbang
Artist:MDK
ArtistUnicode:MDK
Creator:GlassyKiller
Version:Extra
Source:Geometry Dash
Tags:MDK Fingerbang Fingerdash
BeatmapID:1656060
BeatmapSetID:789070

[Difficulty]
HPDrainRate:5
CircleSize:4
OverallDifficulty:5
ApproachRate:5
SliderMultiplier:1.4
SliderTickRate:1

[Events]
//Background and Video events
0,0,"maxresdefault.jpg",0,0
//Break Periods
//Storyboard Layer 0 (Background)
//Storyboard Layer 1 (Fail)
//Storyboard Layer 2 (Pass)
//Storyboard Layer 3 (Foreground)
//Storyboard Sound Samples

[TimingPoints]
203,535.714285714286,4,1,0,10,1,0
33953,-125,4,1,0,10,0,0
42792,-117.647058823529,4,1,0,10,0,0
42892,-111.111111111111,4,1,0,10,0,0
51095,-105.263157894737,4,1,0,10,0,0
53238,-100,4,1,0,10,0,0
73060,-66.6666666666667,4,1,0,10,0,0
73194,-1000,4,1,0,10,0,0
73328,-100,4,1,0,10,0,0
73394,-66.6666666666667,4,1,0,10,0,0
73461,-1000,4,1,0,10,0,0
73595,-100,4,1,0,10,0,0
73662,-66.6666666666667,4,1,0,10,0,0
73729,-1000,4,1,0,10,0,0
73863,-100,4,1,0,10,0,0
73930,-66.6666666666667,4,1,0,10,0,0
73997,-1000,4,1,0,10,0,0
74131,-100,4,1,0,10,0,0
74198,-66.6666666666667,4,1,0,10,0,0
74265,-200,4,1,0,10,0,0
74399,-100,4,1,0,10,0,0
74466,-66.6666666666667,4,1,0,10,0,0
74533,-1000,4,1,0,10,0,0
74667,-100,4,1,0,10,0,0
74734,-66.6666666666667,4,1,0,10,0,0
74801,-1000,4,1,0,10,0,0
74935,-100,4,1,0,10,0,0
75035,-66.6666666666667,4,1,0,10,0,0
75069,-1000,4,1,0,10,0,0
75203,-100,4,1,0,10,0,0
93685,-1000,4,1,0,10,0,0
93752,-20,4,1,0,10,0,0
93819,-100,4,1,0,10,0,0

[HitObjects]
448,192,203,5,0,0:0:0:0:
320,192,203,1,0,0:0:0:0:
192,192,336,1,0,0:0:0:0:
320,192,470,1,0,0:0:0:0:
448,192,604,1,0,0:0:0:0:
192,192,738,1,0,0:0:0:0:
320,192,738,1,0,0:0:0:0:
64,192,738,1,0,0:0:0:0:
448,192,872,1,0,0:0:0:0:
192,192,1006,1,0,0:0:0:0:
320,192,1140,1,0,0:0:0:0:
192,192,1274,1,0,0:0:0:0:
64,192,1274,1,0,0:0:0:0:
448,192,1408,1,0,0:0:0:0:
320,192,1542,1,0,0:0:0:0:
64,192,1676,1,0,0:0:0:0:
192,192,1810,1,0,0:0:0:0:
448,192,1810,1,0,0:0:0:0:
64,192,1810,1,0,0:0:0:0:
320,192,1944,1,0,0:0:0:0:
448,192,2078,1,0,0:0:0:0:
320,192,2211,1,0,0:0:0:0:
192,192,2345,1,0,0:0:0:0:
64,192,2345,1,0,0:0:0:0:
320,192,2479,1,0,0:0:0:0:
192,192,2613,1,0,0:0:0:0:
64,192,2747,1,0,0:0:0:0:
448,192,2881,1,0,0:0:0:0:
320,192,2881,1,0,0:0:0:0:
192,192,2881,1,0,0:0:0:0:
64,192,3015,1,0,0:0:0:0:
448,192,3149,1,0,0:0:0:0:
320,192,3283,1,0,0:0:0:0:
192,192,3417,1,0,0:0:0:0:
64,192,3417,1,0,0:0:0:0:
320,192,3551,1,0,0:0:0:0:
192,192,3685,1,0,0:0:0:0:
320,192,3819,1,0,0:0:0:0:
448,192,3953,1,0,0:0:0:0:
64,192,3953,1,0,0:0:0:0:
192,192,3953,1,0,0:0:0:0:
320,192,4086,1,0,0:0:0:0:
192,192,4220,1,0,0:0:0:0:
320,192,4354,1,0,0:0:0:0:
448,192,4354,1,0,0:0:0:0:
320,192,4488,1,0,0:0:0:0:
448,192,4488,1,0,0:0:0:0:
192,192,4622,1,0,0:0:0:0:
320,192,4756,1,0,0:0:0:0:
64,192,4890,1,0,0:0:0:0:
448,192,5024,1,0,0:0:0:0:
192,192,5024,1,0,0:0:0:0:
64,192,5024,1,0,0:0:0:0:
320,192,5158,1,0,0:0:0:0:
192,192,5292,1,0,0:0:0:0:
448,192,5426,1,0,0:0:0:0:
320,192,5560,1,0,0:0:0:0:
192,192,5560,1,0,0:0:0:0:
64,192,5694,1,0,0:0:0:0:
320,192,5828,1,0,0:0:0:0:
192,192,5961,1,0,0:0:0:0:
64,192,6095,1,0,0:0:0:0:
448,192,6095,1,0,0:0:0:0:
320,192,6095,1,0,0:0:0:0:
320,192,6229,1,0,0:0:0:0:
192,192,6363,1,0,0:0:0:0:
448,192,6497,1,0,0:0:0:0:
192,192,6631,1,0,0:0:0:0:
64,192,6631,1,0,0:0:0:0:
448,192,6765,1,0,0:0:0:0:
192,192,6899,1,0,0:0:0:0:
320,192,7033,1,0,0:0:0:0:
192,192,7167,1,0,0:0:0:0:
64,192,7167,1,0,0:0:0:0:
320,192,7167,1,0,0:0:0:0:
448,192,7301,1,0,0:0:0:0:
320,192,7435,1,0,0:0:0:0:
192,192,7569,1,0,0:0:0:0:
320,192,7703,1,0,0:0:0:0:
448,192,7703,1,0,0:0:0:0:
64,192,7836,1,0,0:0:0:0:
192,192,7970,1,0,0:0:0:0:
448,192,8104,1,0,0:0:0:0:
320,192,8238,1,0,0:0:0:0:
192,192,8238,1,0,0:0:0:0:
64,192,8238,1,0,0:0:0:0:
448,192,8372,1,0,0:0:0:0:
64,192,8506,128,0,8774:0:0:0:0:
192,192,8506,1,0,0:0:0:0:
320,192,8640,1,0,0:0:0:0:
192,192,8774,1,0,0:0:0:0:
448,192,8774,1,0,0:0:0:0:
320,192,8908,1,0,0:0:0:0:
192,192,9042,1,0,0:0:0:0:
448,192,9176,1,0,0:0:0:0:
320,192,9310,1,0,0:0:0:0:
64,192,9310,1,0,0:0:0:0:
192,192,9310,1,0,0:0:0:0:
192,192,9444,1,0,0:0:0:0:
448,192,9578,1,0,0:0:0:0:
320,192,9711,1,0,0:0:0:0:
64,192,9845,1,0,0:0:0:0:
192,192,9845,1,0,0:0:0:0:
448,192,9979,1,0,0:0:0:0:
320,192,10113,1,0,0:0:0:0:
64,192,10247,1,0,0:0:0:0:
320,192,10381,1,0,0:0:0:0:
448,192,10381,1,0,0:0:0:0:
192,192,10381,1,0,0:0:0:0:
192,192,10515,1,0,0:0:0:0:
448,192,10649,1,0,0:0:0:0:
320,192,10783,1,0,0:0:0:0:
192,192,10917,1,0,0:0:0:0:
64,192,10917,1,0,0:0:0:0:
320,192,11051,1,0,0:0:0:0:
192,192,11185,1,0,0:0:0:0:
448,192,11319,1,0,0:0:0:0:
320,192,11453,1,0,0:0:0:0:
192,192,11453,1,0,0:0:0:0:
448,192,11453,1,0,0:0:0:0:
64,192,11586,1,0,0:0:0:0:
448,192,11720,1,0,0:0:0:0:
320,192,11854,1,0,0:0:0:0:
192,192,11988,1,0,0:0:0:0:
64,192,11988,1,0,0:0:0:0:
320,192,12122,1,0,0:0:0:0:
448,192,12256,1,0,0:0:0:0:
192,192,12390,1,0,0:0:0:0:
320,192,12524,1,0,0:0:0:0:
448,192,12524,1,0,0:0:0:0:
64,192,12524,1,0,0:0:0:0:
64,192,12658,1,0,0:0:0:0:
192,192,12792,1,0,0:0:0:0:
320,192,12926,1,0,0:0:0:0:
64,192,12926,1,0,0:0:0:0:
320,192,13060,1,0,0:0:0:0:
64,192,13060,1,0,0:0:0:0:
192,192,13194,1,0,0:0:0:0:
320,192,13328,1,0,0:0:0:0:
64,192,13461,1,0,0:0:0:0:
320,192,13595,1,0,0:0:0:0:
448,192,13595,1,0,0:0:0:0:
192,192,13595,1,0,0:0:0:0:
192,192,13729,1,0,0:0:0:0:
448,192,13863,1,0,0:0:0:0:
320,192,13997,1,0,0:0:0:0:
192,192,14131,1,0,0:0:0:0:
64,192,14131,1,0,0:0:0:0:
448,192,14265,1,0,0:0:0:0:
192,192,14399,1,0,0:0:0:0:
320,192,14533,1,0,0:0:0:0:
192,192,14667,1,0,0:0:0:0:
448,192,14667,1,0,0:0:0:0:
64,192,14667,1,0,0:0:0:0:
64,192,14801,1,0,0:0:0:0:
320,192,14935,1,0,0:0:0:0:
448,192,15069,1,0,0:0:0:0:
192,192,15203,1,0,0:0:0:0:
64,192,15203,1,0,0:0:0:0:
448,192,15336,1,0,0:0:0:0:
192,192,15470,1,0,0:0:0:0:
320,192,15604,1,0,0:0:0:0:
64,192,15738,1,0,0:0:0:0:
192,192,15738,1,0,0:0:0:0:
448,192,15738,1,0,0:0:0:0:
448,192,15872,1,0,0:0:0:0:
320,192,16006,1,0,0:0:0:0:
192,192,16140,1,0,0:0:0:0:
448,192,16274,1,0,0:0:0:0:
320,192,16274,1,0,0:0:0:0:
192,192,16408,1,8,0:0:0:0:
64,192,16408,1,8,0:0:0:0:
448,192,16408,1,8,0:0:0:0:
448,192,16676,1,0,0:0:0:0:
320,192,16743,1,0,0:0:0:0:
64,192,16810,1,0,0:0:0:0:
448,192,16810,1,0,0:0:0:0:
192,192,16810,1,0,0:0:0:0:
192,192,17078,1,0,0:0:0:0:
64,192,17345,128,0,17613:0:0:0:0:
320,192,17345,128,0,17613:0:0:0:0:
448,192,17345,128,0,17613:0:0:0:0:
192,192,17613,1,0,0:0:0:0:
448,192,17747,1,0,0:0:0:0:
320,192,17881,1,0,0:0:0:0:
64,192,17881,1,0,0:0:0:0:
448,192,18015,1,0,0:0:0:0:
192,192,18149,1,0,0:0:0:0:
320,192,18283,1,0,0:0:0:0:
448,192,18417,1,0,0:0:0:0:
192,192,18417,1,0,0:0:0:0:
320,192,18551,1,0,0:0:0:0:
448,192,18685,1,0,0:0:0:0:
320,192,18819,1,0,0:0:0:0:
64,192,18953,1,0,0:0:0:0:
192,192,18953,1,0,0:0:0:0:
320,192,19086,1,0,0:0:0:0:
192,192,19220,1,0,0:0:0:0:
64,192,19354,1,0,0:0:0:0:
192,192,19488,1,0,0:0:0:0:
448,192,19488,1,0,0:0:0:0:
320,192,19488,1,0,0:0:0:0:
320,192,19756,1,0,0:0:0:0:
448,192,19890,1,0,0:0:0:0:
320,192,20024,1,0,0:0:0:0:
192,192,20024,1,0,0:0:0:0:
448,192,20158,1,0,0:0:0:0:
192,192,20292,1,0,0:0:0:0:
320,192,20426,1,0,0:0:0:0:
192,192,20560,1,0,0:0:0:0:
64,192,20560,1,0,0:0:0:0:
320,192,20649,1,0,0:0:0:0:
448,192,20738,1,0,0:0:0:0:
192,192,20828,1,0,0:0:0:0:
320,192,20917,1,0,0:0:0:0:
64,192,21006,1,0,0:0:0:0:
192,192,21095,1,0,0:0:0:0:
448,192,21185,1,0,0:0:0:0:
320,192,21274,1,0,0:0:0:0:
192,192,21363,1,0,0:0:0:0:
320,192,21453,1,0,0:0:0:0:
64,192,21542,1,0,0:0:0:0:
192,192,21631,1,0,0:0:0:0:
320,192,21631,1,0,0:0:0:0:
448,192,21631,1,0,0:0:0:0:
64,192,21765,1,0,0:0:0:0:
320,192,21899,1,0,0:0:0:0:
192,192,22033,1,0,0:0:0:0:
320,192,22167,1,0,0:0:0:0:
448,192,22167,1,0,0:0:0:0:
192,192,22301,1,0,0:0:0:0:
64,192,22435,1,0,0:0:0:0:
320,192,22569,1,0,0:0:0:0:
192,192,22703,1,0,0:0:0:0:
64,192,22703,1,0,0:0:0:0:
448,192,22836,1,0,0:0:0:0:
320,192,22970,1,0,0:0:0:0:
192,192,23104,1,0,0:0:0:0:
448,192,23238,1,0,0:0:0:0:
320,192,23238,1,0,0:0:0:0:
64,192,23372,1,0,0:0:0:0:
192,192,23506,1,0,0:0:0:0:
448,192,23640,1,0,0:0:0:0:
320,192,23774,1,0,0:0:0:0:
192,192,23774,1,0,0:0:0:0:
64,192,23908,1,0,0:0:0:0:
448,192,24042,1,0,0:0:0:0:
320,192,24176,1,0,0:0:0:0:
192,192,24310,1,0,0:0:0:0:
448,192,24310,1,0,0:0:0:0:
64,192,24444,1,0,0:0:0:0:
320,192,24578,1,0,0:0:0:0:
192,192,24711,1,0,0:0:0:0:
448,192,24845,1,0,0:0:0:0:
320,192,24845,1,0,0:0:0:0:
64,192,24845,128,0,25917:0:0:0:0:
192,192,24845,128,0,25113:0:0:0:0:
448,192,25113,128,0,25381:0:0:0:0:
320,192,25381,128,0,25649:0:0:0:0:
192,192,25649,128,0,25917:0:0:0:0:
320,192,25917,1,0,0:0:0:0:
448,192,25917,1,0,0:0:0:0:
192,192,26185,1,0,0:0:0:0:
320,192,26453,1,0,0:0:0:0:
448,192,26453,1,0,0:0:0:0:
192,192,26720,1,0,0:0:0:0:
64,192,26988,1,0,0:0:0:0:
320,192,26988,1,0,0:0:0:0:
448,192,26988,1,0,0:0:0:0:
448,192,27122,1,0,0:0:0:0:
320,192,27122,1,0,0:0:0:0:
64,192,27122,1,0,0:0:0:0:
64,192,27390,1,0,0:0:0:0:
192,192,27390,1,0,0:0:0:0:
448,192,27390,1,0,0:0:0:0:
320,192,27524,1,0,0:0:0:0:
64,192,27524,1,0,0:0:0:0:
192,192,27658,1,0,0:0:0:0:
448,192,27792,1,0,0:0:0:0:
320,192,27926,1,0,0:0:0:0:
192,192,28060,1,0,0:0:0:0:
64,192,28060,1,0,0:0:0:0:
320,192,28194,1,0,0:0:0:0:
192,192,28328,1,0,0:0:0:0:
448,192,28461,1,0,0:0:0:0:
320,192,28595,1,0,0:0:0:0:
192,192,28595,1,0,0:0:0:0:
64,192,28729,1,0,0:0:0:0:
192,192,28863,1,0,0:0:0:0:
320,192,28997,1,0,0:0:0:0:
192,192,29131,1,0,0:0:0:0:
320,192,29220,1,0,0:0:0:0:
64,192,29310,1,0,0:0:0:0:
192,192,29399,1,0,0:0:0:0:
448,192,29488,1,0,0:0:0:0:
320,192,29578,1,0,0:0:0:0:
192,192,29667,1,0,0:0:0:0:
448,192,29756,1,0,0:0:0:0:
64,192,29845,1,0,0:0:0:0:
192,192,29935,1,0,0:0:0:0:
448,192,30024,1,0,0:0:0:0:
320,192,30113,1,0,0:0:0:0:
192,192,30203,1,0,0:0:0:0:
64,192,30203,1,0,0:0:0:0:
448,192,30203,1,0,0:0:0:0:
320,192,30336,1,0,0:0:0:0:
192,192,30470,1,0,0:0:0:0:
320,192,30604,1,0,0:0:0:0:
448,192,30738,1,0,0:0:0:0:
192,192,30738,1,0,0:0:0:0:
64,192,30872,1,0,0:0:0:0:
192,192,31006,1,0,0:0:0:0:
320,192,31140,1,0,0:0:0:0:
192,192,31274,1,0,0:0:0:0:
64,192,31274,1,0,0:0:0:0:
448,192,31408,1,0,0:0:0:0:
320,192,31542,1,0,0:0:0:0:
192,192,31676,1,0,0:0:0:0:
64,192,31810,1,0,0:0:0:0:
320,192,31810,1,0,0:0:0:0:
192,192,31944,1,0,0:0:0:0:
448,192,32078,1,0,0:0:0:0:
320,192,32211,1,0,0:0:0:0:
192,192,32345,1,0,0:0:0:0:
64,192,32345,1,0,0:0:0:0:
448,192,32345,1,0,0:0:0:0:
320,192,32479,1,0,0:0:0:0:
64,192,32613,1,0,0:0:0:0:
192,192,32747,1,0,0:0:0:0:
320,192,32881,1,0,0:0:0:0:
448,192,32881,1,0,0:0:0:0:
192,192,33015,1,0,0:0:0:0:
64,192,33149,1,0,0:0:0:0:
448,192,33283,1,0,0:0:0:0:
320,192,33417,1,0,0:0:0:0:
192,192,33417,1,0,0:0:0:0:
64,192,33551,1,0,0:0:0:0:
448,192,33685,1,0,0:0:0:0:
320,192,33819,1,0,0:0:0:0:
192,192,33953,1,0,0:0:0:0:
64,192,33953,1,0,0:0:0:0:
320,192,34220,1,0,0:0:0:0:
192,192,34488,1,0,0:0:0:0:
64,192,34488,1,0,0:0:0:0:
320,192,34488,1,0,0:0:0:0:
448,192,34756,1,0,0:0:0:0:
192,192,35292,1,0,0:0:0:0:
320,192,35426,1,0,0:0:0:0:
320,192,36095,1,0,0:0:0:0:
192,192,36363,1,0,0:0:0:0:
64,192,36497,1,0,0:0:0:0:
192,192,36631,1,0,0:0:0:0:
448,192,37435,1,0,0:0:0:0:
320,192,37703,128,0,38238:0:0:0:0:
192,192,38238,1,0,0:0:0:0:
64,192,38774,1,0,0:0:0:0:
192,192,39042,1,0,0:0:0:0:
320,192,39310,1,0,0:0:0:0:
448,192,39578,1,0,0:0:0:0:
192,192,40113,1,0,0:0:0:0:
320,192,40381,1,0,0:0:0:0:
192,192,40381,1,0,0:0:0:0:
192,192,40515,1,0,0:0:0:0:
320,192,40515,1,0,0:0:0:0:
448,192,40649,1,0,0:0:0:0:
64,192,40649,1,0,0:0:0:0:
192,192,40783,1,0,0:0:0:0:
320,192,40783,1,0,0:0:0:0:
320,192,40917,1,0,0:0:0:0:
192,192,40917,1,0,0:0:0:0:
192,192,41185,1,0,0:0:0:0:
320,192,41319,1,0,0:0:0:0:
64,192,41720,1,0,0:0:0:0:
320,192,41988,1,0,0:0:0:0:
192,192,41988,1,0,0:0:0:0:
448,192,41988,1,0,0:0:0:0:
448,192,42256,1,0,0:0:0:0:
320,192,42323,1,0,0:0:0:0:
192,192,42390,1,0,0:0:0:0:
64,192,42457,1,0,0:0:0:0:
448,192,42524,1,0,0:0:0:0:
192,192,42658,1,0,0:0:0:0:
320,192,42792,128,0,43060:0:0:0:0:
192,192,43060,1,0,0:0:0:0:
64,192,43060,1,0,0:0:0:0:
448,192,43060,1,0,0:0:0:0:
192,192,43417,1,0,0:0:0:0:
64,192,43417,1,0,0:0:0:0:
320,192,43417,1,0,0:0:0:0:
448,192,43417,1,0,0:0:0:0:
320,192,43729,1,0,0:0:0:0:
448,192,43863,1,0,0:0:0:0:
64,192,43863,1,0,0:0:0:0:
192,192,43863,1,0,0:0:0:0:
448,192,44399,1,0,0:0:0:0:
64,192,44667,128,0,45203:0:0:0:0:
320,192,44935,1,0,0:0:0:0:
192,192,45069,1,0,0:0:0:0:
448,192,45203,1,0,0:0:0:0:
320,192,45203,1,0,0:0:0:0:
64,192,45604,1,0,0:0:0:0:
320,192,45604,1,0,0:0:0:0:
448,192,45604,1,0,0:0:0:0:
64,192,46006,1,0,0:0:0:0:
448,192,46006,1,0,0:0:0:0:
320,192,46006,1,0,0:0:0:0:
192,192,46274,128,0,47345:0:0:0:0:
448,192,46810,1,0,0:0:0:0:
64,192,47345,1,0,0:0:0:0:
320,192,47345,1,0,0:0:0:0:
448,192,47345,1,0,0:0:0:0:
192,192,47479,1,0,0:0:0:0:
448,192,47613,1,0,0:0:0:0:
64,192,47747,1,0,0:0:0:0:
320,192,47881,1,0,0:0:0:0:
192,192,48015,1,0,0:0:0:0:
448,192,48149,1,0,0:0:0:0:
64,192,48283,1,0,0:0:0:0:
320,192,48417,1,0,0:0:0:0:
192,192,48551,1,0,0:0:0:0:
448,192,48685,1,0,0:0:0:0:
64,192,48819,1,0,0:0:0:0:
320,192,48953,1,0,0:0:0:0:
192,192,49086,1,0,0:0:0:0:
448,192,49220,1,0,0:0:0:0:
192,192,49354,1,0,0:0:0:0:
64,192,49488,1,0,0:0:0:0:
192,192,49488,1,0,0:0:0:0:
320,192,49488,1,0,0:0:0:0:
448,192,49488,1,0,0:0:0:0:
320,192,49756,1,0,0:0:0:0:
448,192,49756,1,0,0:0:0:0:
192,192,49890,1,0,0:0:0:0:
448,192,50158,1,0,0:0:0:0:
320,192,50158,1,0,0:0:0:0:
192,192,50292,1,0,0:0:0:0:
448,192,50560,1,0,0:0:0:0:
320,192,50828,1,0,0:0:0:0:
192,192,50961,1,0,0:0:0:0:
320,192,51095,1,0,0:0:0:0:
64,192,51095,1,0,0:0:0:0:
448,192,51095,1,0,0:0:0:0:
192,192,51631,1,0,0:0:0:0:
64,192,51631,1,0,0:0:0:0:
448,192,51631,1,0,0:0:0:0:
320,192,51631,1,0,0:0:0:0:
320,192,51899,1,0,0:0:0:0:
448,192,51899,1,0,0:0:0:0:
64,192,52033,1,0,0:0:0:0:
192,192,52033,1,0,0:0:0:0:
320,192,52301,1,0,0:0:0:0:
448,192,52301,1,0,0:0:0:0:
64,192,52435,1,0,0:0:0:0:
192,192,52435,1,0,0:0:0:0:
320,192,52703,1,0,0:0:0:0:
448,192,52703,1,0,0:0:0:0:
192,192,52836,1,0,0:0:0:0:
64,192,52836,1,0,0:0:0:0:
320,192,52970,1,0,0:0:0:0:
448,192,52970,1,0,0:0:0:0:
192,192,53104,1,0,0:0:0:0:
64,192,53104,1,0,0:0:0:0:
64,192,53238,128,0,53640:0:0:0:0:
192,192,53238,128,0,53640:0:0:0:0:
448,192,53238,128,0,53640:0:0:0:0:
64,192,53774,1,0,0:0:0:0:
192,192,53774,1,0,0:0:0:0:
320,192,53774,1,0,0:0:0:0:
448,192,53774,1,0,0:0:0:0:
320,192,54042,1,0,0:0:0:0:
448,192,54042,1,0,0:0:0:0:
64,192,54176,1,0,0:0:0:0:
192,192,54176,1,0,0:0:0:0:
448,192,54444,1,0,0:0:0:0:
320,192,54444,1,0,0:0:0:0:
192,192,54578,1,0,0:0:0:0:
64,192,54578,1,0,0:0:0:0:
448,192,54845,1,0,0:0:0:0:
320,192,54845,1,0,0:0:0:0:
192,192,54979,1,0,0:0:0:0:
64,192,54979,1,0,0:0:0:0:
448,192,55247,1,0,0:0:0:0:
320,192,55381,1,0,0:0:0:0:
192,192,55515,1,0,0:0:0:0:
64,192,55649,1,0,0:0:0:0:
320,192,55649,1,0,0:0:0:0:
448,192,55649,1,0,0:0:0:0:
192,192,55917,1,0,0:0:0:0:
448,192,56185,1,0,0:0:0:0:
320,192,56185,1,0,0:0:0:0:
320,192,56319,1,0,0:0:0:0:
448,192,56319,1,0,0:0:0:0:
192,192,56586,1,0,0:0:0:0:
64,192,56586,1,0,0:0:0:0:
192,192,56720,1,0,0:0:0:0:
64,192,56720,1,0,0:0:0:0:
448,192,56988,1,0,0:0:0:0:
64,192,56988,1,0,0:0:0:0:
64,192,57122,1,0,0:0:0:0:
448,192,57122,1,0,0:0:0:0:
320,192,57390,1,0,0:0:0:0:
192,192,57390,1,0,0:0:0:0:
448,192,57524,1,0,0:0:0:0:
320,192,57569,1,0,0:0:0:0:
192,192,57613,1,0,0:0:0:0:
64,192,57658,1,0,0:0:0:0:
448,192,57703,1,0,0:0:0:0:
320,192,57747,1,0,0:0:0:0:
192,192,57792,1,0,0:0:0:0:
448,192,58060,1,0,0:0:0:0:
320,192,58060,1,0,0:0:0:0:
192,192,58060,1,0,0:0:0:0:
64,192,58328,1,0,0:0:0:0:
320,192,58328,1,0,0:0:0:0:
64,192,58461,1,0,0:0:0:0:
192,192,58461,1,0,0:0:0:0:
320,192,58461,1,0,0:0:0:0:
448,192,58461,1,0,0:0:0:0:
448,192,58729,1,0,0:0:0:0:
192,192,58729,1,0,0:0:0:0:
448,192,58863,1,0,0:0:0:0:
192,192,58863,1,0,0:0:0:0:
320,192,58863,1,0,0:0:0:0:
64,192,58863,1,0,0:0:0:0:
64,192,59131,1,0,0:0:0:0:
320,192,59131,1,0,0:0:0:0:
448,192,59131,1,0,0:0:0:0:
192,192,59131,1,0,0:0:0:0:
448,192,59265,1,0,0:0:0:0:
320,192,59265,1,0,0:0:0:0:
192,192,59265,1,0,0:0:0:0:
64,192,59265,1,0,0:0:0:0:
448,192,59399,1,0,0:0:0:0:
320,192,59533,1,0,0:0:0:0:
192,192,59667,1,0,0:0:0:0:
320,192,59801,1,0,0:0:0:0:
64,192,59935,1,0,0:0:0:0:
192,192,60069,1,0,0:0:0:0:
320,192,60203,1,0,0:0:0:0:
448,192,60203,1,0,0:0:0:0:
64,192,60203,1,0,0:0:0:0:
192,192,60470,1,0,0:0:0:0:
320,192,60604,1,0,0:0:0:0:
64,192,60604,1,0,0:0:0:0:
448,192,60604,1,0,0:0:0:0:
320,192,60872,1,0,0:0:0:0:
192,192,61006,1,0,0:0:0:0:
64,192,61006,1,0,0:0:0:0:
448,192,61006,1,0,0:0:0:0:
64,192,61274,1,0,0:0:0:0:
192,192,61408,1,0,0:0:0:0:
320,192,61408,1,0,0:0:0:0:
448,192,61408,1,0,0:0:0:0:
192,192,61676,1,0,0:0:0:0:
64,192,61810,1,0,0:0:0:0:
192,192,61854,1,0,0:0:0:0:
320,192,61899,1,0,0:0:0:0:
448,192,61944,1,0,0:0:0:0:
64,192,61988,1,0,0:0:0:0:
192,192,62033,1,0,0:0:0:0:
320,192,62078,1,0,0:0:0:0:
448,192,62345,1,0,0:0:0:0:
320,192,62345,1,0,0:0:0:0:
64,192,62345,1,0,0:0:0:0:
192,192,62613,1,0,0:0:0:0:
320,192,62747,1,0,0:0:0:0:
448,192,62747,1,0,0:0:0:0:
64,192,62747,1,0,0:0:0:0:
320,192,63015,1,0,0:0:0:0:
192,192,63149,1,0,0:0:0:0:
64,192,63149,1,0,0:0:0:0:
448,192,63149,1,0,0:0:0:0:
192,192,63417,1,0,0:0:0:0:
320,192,63551,1,0,0:0:0:0:
448,192,63551,1,0,0:0:0:0:
64,192,63551,1,0,0:0:0:0:
64,192,63953,1,0,0:0:0:0:
192,192,63997,1,0,0:0:0:0:
320,192,64042,1,0,0:0:0:0:
448,192,64086,1,0,0:0:0:0:
448,192,64220,1,0,0:0:0:0:
320,192,64265,1,0,0:0:0:0:
192,192,64310,1,0,0:0:0:0:
64,192,64354,1,0,0:0:0:0:
192,192,64488,1,0,0:0:0:0:
320,192,64488,1,0,0:0:0:0:
448,192,64488,1,0,0:0:0:0:
192,192,64756,1,0,0:0:0:0:
64,192,64890,1,0,0:0:0:0:
320,192,64890,1,0,0:0:0:0:
448,192,64890,1,0,0:0:0:0:
192,192,65158,1,0,0:0:0:0:
64,192,65292,1,0,0:0:0:0:
320,192,65292,1,0,0:0:0:0:
448,192,65292,1,0,0:0:0:0:
320,192,65560,1,0,0:0:0:0:
192,192,65694,1,0,0:0:0:0:
64,192,65694,1,0,0:0:0:0:
448,192,65694,1,0,0:0:0:0:
320,192,65961,1,0,0:0:0:0:
448,192,66095,1,0,0:0:0:0:
320,192,66140,1,0,0:0:0:0:
192,192,66185,1,0,0:0:0:0:
64,192,66229,1,0,0:0:0:0:
448,192,66274,1,0,0:0:0:0:
320,192,66319,1,0,0:0:0:0:
192,192,66363,1,0,0:0:0:0:
320,192,66631,1,0,0:0:0:0:
448,192,66631,1,0,0:0:0:0:
64,192,66631,1,0,0:0:0:0:
192,192,66899,1,0,0:0:0:0:
320,192,67033,1,0,0:0:0:0:
448,192,67033,1,0,0:0:0:0:
64,192,67033,1,0,0:0:0:0:
320,192,67301,1,0,0:0:0:0:
448,192,67435,1,0,0:0:0:0:
192,192,67435,1,0,0:0:0:0:
64,192,67435,1,0,0:0:0:0:
320,192,67703,1,0,0:0:0:0:
448,192,67703,1,0,0:0:0:0:
64,192,67703,1,0,0:0:0:0:
448,192,67836,1,0,0:0:0:0:
320,192,67836,1,0,0:0:0:0:
64,192,67836,1,0,0:0:0:0:
192,192,67970,1,0,0:0:0:0:
320,192,68104,1,0,0:0:0:0:
448,192,68238,1,0,0:0:0:0:
448,192,68774,1,0,0:0:0:0:
192,192,68774,1,0,0:0:0:0:
64,192,68774,1,0,0:0:0:0:
448,192,69176,1,0,0:0:0:0:
320,192,69176,1,0,0:0:0:0:
448,192,69578,1,0,0:0:0:0:
320,192,69578,1,0,0:0:0:0:
64,192,69578,1,0,0:0:0:0:
64,192,69979,1,0,0:0:0:0:
448,192,69979,1,0,0:0:0:0:
320,192,70381,1,0,0:0:0:0:
64,192,70381,1,0,0:0:0:0:
64,192,70649,1,0,0:0:0:0:
320,192,70649,1,0,0:0:0:0:
320,192,70917,1,0,0:0:0:0:
448,192,70917,1,0,0:0:0:0:
320,192,71319,1,0,0:0:0:0:
192,192,71319,1,0,0:0:0:0:
448,192,71720,1,0,0:0:0:0:
192,192,71720,1,0,0:0:0:0:
64,192,71720,1,0,0:0:0:0:
320,192,72122,1,0,0:0:0:0:
192,192,72122,1,0,0:0:0:0:
64,192,72122,1,0,0:0:0:0:
448,192,72524,1,0,0:0:0:0:
320,192,72524,1,0,0:0:0:0:
192,192,72792,1,0,0:0:0:0:
64,192,72792,1,0,0:0:0:0:
192,192,73060,1,0,0:0:0:0:
64,192,73060,1,0,0:0:0:0:
320,192,73328,1,0,0:0:0:0:
448,192,73328,1,0,0:0:0:0:
192,192,73595,1,0,0:0:0:0:
64,192,73595,1,0,0:0:0:0:
320,192,73863,1,0,0:0:0:0:
448,192,73863,1,0,0:0:0:0:
192,192,74131,1,0,0:0:0:0:
64,192,74131,1,0,0:0:0:0:
448,192,74399,1,0,0:0:0:0:
320,192,74399,1,0,0:0:0:0:
192,192,74667,1,0,0:0:0:0:
64,192,74667,1,0,0:0:0:0:
320,192,74935,1,0,0:0:0:0:
448,192,74935,1,0,0:0:0:0:
192,192,75203,1,0,0:0:0:0:
64,192,75203,1,0,0:0:0:0:
320,192,75336,1,0,0:0:0:0:
448,192,75336,1,0,0:0:0:0:
192,192,75470,1,0,0:0:0:0:
64,192,75470,1,0,0:0:0:0:
448,192,75604,1,0,0:0:0:0:
320,192,75604,1,0,0:0:0:0:
192,192,75738,1,0,0:0:0:0:
64,192,75738,1,0,0:0:0:0:
320,192,75872,1,0,0:0:0:0:
448,192,75872,1,0,0:0:0:0:
192,192,76006,1,0,0:0:0:0:
64,192,76006,1,0,0:0:0:0:
320,192,76140,1,0,0:0:0:0:
448,192,76140,1,0,0:0:0:0:
192,192,76274,1,0,0:0:0:0:
64,192,76274,1,0,0:0:0:0:
320,192,76363,1,0,0:0:0:0:
448,192,76363,1,0,0:0:0:0:
192,192,76453,1,0,0:0:0:0:
64,192,76453,1,0,0:0:0:0:
320,192,76542,1,0,0:0:0:0:
448,192,76542,1,0,0:0:0:0:
192,192,76631,1,0,0:0:0:0:
64,192,76631,1,0,0:0:0:0:
320,192,76720,1,0,0:0:0:0:
448,192,76720,1,0,0:0:0:0:
64,192,76810,128,0,77345:0:0:0:0:
192,192,76810,128,0,77345:0:0:0:0:
320,192,77345,1,0,0:0:0:0:
448,192,77345,1,0,0:0:0:0:
320,192,77613,1,0,0:0:0:0:
64,192,77613,1,0,0:0:0:0:
448,192,77881,1,0,0:0:0:0:
320,192,77881,1,0,0:0:0:0:
448,192,78015,1,0,0:0:0:0:
320,192,78015,1,0,0:0:0:0:
64,192,78015,1,0,0:0:0:0:
192,192,78149,1,0,0:0:0:0:
448,192,78149,1,0,0:0:0:0:
64,192,78149,1,0,0:0:0:0:
448,192,78283,1,0,0:0:0:0:
448,192,78417,1,0,0:0:0:0:
320,192,78551,1,0,0:0:0:0:
64,192,78685,128,0,78953:0:0:0:0:
448,192,78819,1,0,0:0:0:0:
192,192,78953,1,0,0:0:0:0:
320,192,78953,1,0,0:0:0:0:
448,192,79220,1,0,0:0:0:0:
320,192,79254,1,0,0:0:0:0:
192,192,79287,1,0,0:0:0:0:
64,192,79321,1,0,0:0:0:0:
192,192,79488,1,0,0:0:0:0:
320,192,79488,1,0,0:0:0:0:
448,192,79488,1,0,0:0:0:0:
192,192,79756,1,0,0:0:0:0:
320,192,79890,1,0,0:0:0:0:
64,192,80024,128,0,80292:0:0:0:0:
448,192,80024,1,0,0:0:0:0:
192,192,80158,1,0,0:0:0:0:
320,192,80292,1,0,0:0:0:0:
192,192,80426,1,0,0:0:0:0:
448,192,80560,1,0,0:0:0:0:
64,192,80694,1,0,0:0:0:0:
320,192,80828,1,0,0:0:0:0:
192,192,80961,1,0,0:0:0:0:
448,192,81095,1,0,0:0:0:0:
64,192,81095,1,0,0:0:0:0:
320,192,81095,1,0,0:0:0:0:
448,192,81363,1,0,0:0:0:0:
320,192,81408,1,0,0:0:0:0:
192,192,81453,1,0,0:0:0:0:
64,192,81497,1,0,0:0:0:0:
448,192,81542,1,0,0:0:0:0:
320,192,81586,1,0,0:0:0:0:
192,192,81631,1,0,0:0:0:0:
64,192,81631,1,0,0:0:0:0:
320,192,81899,1,0,0:0:0:0:
64,192,82167,1,0,0:0:0:0:
192,192,82167,1,0,0:0:0:0:
448,192,82167,1,0,0:0:0:0:
320,192,82435,1,0,0:0:0:0:
192,192,82703,1,0,0:0:0:0:
448,192,82703,1,0,0:0:0:0:
64,192,82703,1,0,0:0:0:0:
192,192,82970,1,0,0:0:0:0:
64,192,83238,1,0,0:0:0:0:
192,192,83238,1,0,0:0:0:0:
320,192,83238,1,0,0:0:0:0:
320,192,83506,1,0,0:0:0:0:
192,192,83774,1,0,0:0:0:0:
320,192,83774,1,0,0:0:0:0:
64,192,83774,1,0,0:0:0:0:
448,192,84176,1,0,0:0:0:0:
320,192,84176,1,0,0:0:0:0:
64,192,84176,1,0,0:0:0:0:
448,192,84578,1,0,0:0:0:0:
320,192,84578,1,0,0:0:0:0:
192,192,84578,1,0,0:0:0:0:
64,192,84845,1,0,0:0:0:0:
192,192,84845,1,0,0:0:0:0:
448,192,84845,1,0,0:0:0:0:
64,192,85247,1,0,0:0:0:0:
192,192,85247,1,0,0:0:0:0:
448,192,85247,1,0,0:0:0:0:
320,192,85247,1,0,0:0:0:0:
448,192,85649,1,0,0:0:0:0:
320,192,85649,1,0,0:0:0:0:
192,192,85649,1,0,0:0:0:0:
64,192,85649,1,0,0:0:0:0:
448,192,85917,1,0,0:0:0:0:
192,192,86185,1,0,0:0:0:0:
320,192,86453,1,0,0:0:0:0:
320,192,86586,1,0,0:0:0:0:
320,192,86720,128,0,86988:0:0:0:0:
192,192,86988,1,0,0:0:0:0:
64,192,87256,1,0,0:0:0:0:
192,192,87390,1,0,0:0:0:0:
448,192,87524,1,0,0:0:0:0:
320,192,87658,1,0,0:0:0:0:
64,192,87792,1,0,0:0:0:0:
192,192,87836,1,0,0:0:0:0:
320,192,87881,1,0,0:0:0:0:
448,192,87926,1,0,0:0:0:0:
64,192,87970,1,0,0:0:0:0:
192,192,88015,1,0,0:0:0:0:
320,192,88060,1,0,0:0:0:0:
448,192,88060,1,0,0:0:0:0:
192,192,88328,1,0,0:0:0:0:
64,192,88595,1,0,0:0:0:0:
320,192,88595,1,0,0:0:0:0:
192,192,88863,1,0,0:0:0:0:
448,192,89131,1,0,0:0:0:0:
64,192,89131,1,0,0:0:0:0:
320,192,89399,1,0,0:0:0:0:
64,192,89667,1,0,0:0:0:0:
192,192,89667,1,0,0:0:0:0:
320,192,89935,1,0,0:0:0:0:
192,192,90203,1,0,0:0:0:0:
64,192,90203,1,0,0:0:0:0:
448,192,90203,128,0,90470:0:0:0:0:
192,192,90470,128,0,90738:0:0:0:0:
64,192,90738,128,0,91006:0:0:0:0:
320,192,91006,128,0,91274:0:0:0:0:
192,192,91274,128,0,91542:0:0:0:0:
448,192,91542,128,0,91810:0:0:0:0:
192,192,91810,128,0,92078:0:0:0:0:
320,192,92078,128,0,92345:0:0:0:0:
64,192,92345,1,0,0:0:0:0:
192,192,92345,1,0,0:0:0:0:
448,192,92345,1,0,0:0:0:0:
192,192,92747,1,0,0:0:0:0:
64,192,92747,1,0,0:0:0:0:
320,192,92747,1,0,0:0:0:0:
448,192,93149,1,0,0:0:0:0:
320,192,93149,1,0,0:0:0:0:
64,192,93149,1,0,0:0:0:0:
192,192,93417,1,0,0:0:0:0:
320,192,93417,1,0,0:0:0:0:
448,192,93417,1,0,0:0:0:0:
64,192,93819,128,0,94354:0:0:0:0:
192,192,93819,128,0,94354:0:0:0:0:
320,192,93819,128,0,94354:0:0:0:0:
448,192,93819,128,0,94354:0:0:0:0:
