osu file format v14

[General]
AudioFilename: audio.mp3
AudioLeadIn: 0
PreviewTime: 46
Countdown: 0
SampleSet: Soft
StackLeniency: 0.3
Mode: 0
LetterboxInBreaks: 0
WidescreenStoryboard: 0

[Editor]
Bookmarks: 17188,25760,34285,68571,85760
DistanceSpacing: 1
BeatDivisor: 4
GridSize: 16
TimelineZoom: 2.1

[Metadata]
Title:Fingerbang
TitleUnicode:Fingerbang
Artist:MDK
ArtistUnicode:MDK
Creator:CookieBite
Version:Normal
Source:Geometry Dash
Tags:fingerdash 2.1 electronic dance edm Morgan David King DeRandom Otaku 6th LowComboFC JBHyperion
BeatmapID:1296132
BeatmapSetID:559525

[Difficulty]
HPDrainRate:4
CircleSize:3
OverallDifficulty:4
ApproachRate:5.5
SliderMultiplier:1.6
SliderTickRate:1

[Events]
//Background and Video events
0,0,"oops.jpg",0,0
//Break Periods
//Storyboard Layer 0 (Background)
//Storyboard Layer 1 (Fail)
//Storyboard Layer 2 (Pass)
//Storyboard Layer 3 (Foreground)
//Storyboard Sound Samples

[TimingPoints]
46,535.714285714286,4,2,77,40,1,0
6206,-100,4,2,77,30,0,0
6474,-100,4,2,77,40,0,0
7813,-100,4,2,77,50,0,0
8617,-100,4,2,1,50,0,0
9956,-100,4,2,77,50,0,0
10760,-100,4,2,1,50,0,0
11831,-100,4,2,77,50,0,0
12903,-100,4,2,1,50,0,0
14242,-100,4,2,77,50,0,0
14510,-100,4,2,77,30,0,0
15046,-100,4,2,1,50,0,0
16117,-100,4,2,77,50,0,0
16653,-100,4,1,77,35,0,0
17188,-100,4,2,77,80,0,0
17322,-100,4,2,77,60,0,0
18796,-100,4,3,77,75,0,0
19331,-100,4,2,1,60,0,0
23081,-100,4,3,77,50,0,0
23148,-100,4,3,77,48,0,0
23215,-100,4,3,77,46,0,0
23282,-100,4,3,77,44,0,0
23349,-100,4,3,77,42,0,0
23416,-100,4,3,77,40,0,0
23483,-100,4,3,77,38,0,0
23617,-100,4,2,1,60,0,0
25224,-100,4,1,77,35,0,0
25760,-100,4,2,1,50,0,0
30046,-100,4,2,1,52,0,0
30581,-100,4,2,1,54,0,0
31117,-100,4,2,1,56,0,0
31653,-100,4,2,1,58,0,0
32188,-100,4,2,1,60,0,0
33260,-100,4,2,1,50,0,0
33796,-100,4,1,77,40,0,0
34331,-100,4,2,1,70,0,1
34465,-100,4,2,1,60,0,1
36206,-100,4,2,77,40,0,1
36474,-100,4,2,1,60,0,1
38349,-100,4,2,1,60,0,1
39421,-100,4,2,77,50,0,1
39688,-100,4,2,1,60,0,1
39956,-100,4,2,77,50,0,1
40492,-100,4,2,77,50,0,1
40760,-100,4,2,1,60,0,1
42903,-100,4,3,77,60,0,0
43171,-100,4,3,77,50,0,0
43438,-100,4,2,1,60,0,1
44778,-100,4,2,77,40,0,1
45046,-100,4,2,1,60,0,1
46653,-100,4,2,1,50,0,1
46921,-100,4,2,1,60,0,1
47456,-100,4,2,77,50,0,1
48260,-100,4,2,1,60,0,1
48527,-100,4,2,77,50,0,1
48796,-100,4,2,1,50,0,1
49331,-100,4,2,1,60,0,1
50938,-100,4,3,77,80,0,1
51474,-100,4,2,1,60,0,0
51608,-100,4,2,1,50,0,0
58171,-100,4,2,77,50,0,0
58438,-100,4,2,1,50,0,0
58706,-100,4,2,77,50,0,0
58974,-100,4,2,1,50,0,0
59242,-100,4,2,77,50,0,0
59510,-100,4,1,77,35,0,0
59912,-100,4,2,1,40,0,0
60046,-100,4,2,1,50,0,0
63796,-100,4,2,99,50,0,0
64331,-100,4,2,1,50,0,0
66206,-100,4,2,77,40,0,0
66742,-100,4,2,77,60,0,0
67010,-100,4,2,1,60,0,0
67277,-100,4,2,77,60,0,0
67546,-100,4,2,1,60,0,0
67813,-100,4,2,77,60,0,0
68081,-100,4,1,77,35,0,0
68483,-100,4,2,1,40,0,0
68617,-100,4,2,1,60,0,0
72099,-100,4,2,77,60,0,0
72367,-100,4,2,1,60,0,0
74242,-100,4,2,77,40,0,0
74510,-100,4,2,1,60,0,0
80938,-100,4,2,1,50,0,0
81206,-100,4,2,1,60,0,0
83349,-100,4,2,1,60,0,0
85224,-100,4,3,77,60,0,0
85760,-100,4,2,77,80,0,0

[Colours]
Combo1 : 116,203,52
Combo2 : 166,96,251
Combo3 : 255,47,68
Combo4 : 107,153,228

[HitObjects]
127,74,46,5,4,0:0:0:0:
127,74,849,2,0,L|124:123,1,40,0|8,0:0|0:0,0:0:0:0:
320,157,1653,6,0,P|391:143|456:215,1,160,2|8,0:0|0:0,0:0:0:0:
451,197,2992,1,0,0:0:0:0:
409,265,3260,2,0,B|361:281|329:265|329:265|297:249|249:265,1,160,8|2,0:0|0:0,0:0:0:0:
96,229,4331,6,0,L|106:318,1,80,2|0,0:0|0:0,0:0:0:0:
172,352,4867,1,0,0:0:0:0:
235,303,5135,1,2,0:0:0:0:
301,347,5403,1,0,0:0:0:0:
342,278,5671,2,0,P|443:293|480:242,1,160,0|2,0:0|0:0,0:0:0:0:
463,177,6474,6,0,L|452:55,2,120,2|0|0,0:0|0:0|0:0,0:0:0:0:
475,256,7546,1,2,0:0:0:0:
413,307,7813,6,0,B|392:309|373:323|373:323|353:319|337:307|337:307|319:312|301:323|301:323|279:319|261:307,1,160,2|2,0:0|0:0,0:0:0:0:
245,232,8617,6,0,L|257:92,2,120,8|8|8,0:0|0:0|0:0,0:0:0:0:
190,291,9688,2,0,P|152:298|107:288,1,80,0|2,0:0|0:0,0:0:0:0:
55,232,10224,2,0,P|48:194|58:149,1,80,8|0,0:0|0:0,0:0:0:0:
120,105,10760,6,0,L|241:110,2,120,8|8|8,0:0|0:0|0:0,0:0:0:0:
99,27,11831,2,0,L|178:24,1,80,8|0,0:0|0:0,0:0:0:0:
258,33,12367,2,0,L|337:30,1,80,2|0,0:0|0:0,0:0:0:0:
402,77,12903,6,0,B|384:111|384:111|395:209,2,120,8|8|8,0:0|0:0|0:0,0:0:0:0:
337,29,13974,2,0,L|250:25,1,80,0|2,0:0|0:0,0:0:0:0:
204,86,14510,2,0,L|200:173,1,80,8|2,0:0|0:0,0:0:0:0:
261,217,15046,6,0,L|402:224,2,120,8|8|8,0:0|0:0|0:0,0:0:0:0:
186,245,16117,2,0,P|125:197|136:117,1,160,8|4,0:0|0:0,0:0:0:0:
132,121,17188,6,0,L|256:114,2,120,4|2|8,0:0|0:0|0:0,0:0:0:0:
45,204,18394,2,0,P|33:251|62:322,1,120,8|4,0:0|0:0,0:0:0:0:
56,316,19331,6,0,B|93:305|93:305|177:322,2,120,8|8|8,0:0|0:0|0:0,0:0:0:0:
12,203,20537,2,0,L|26:82,1,120,8|8,0:0|0:0,0:0:0:0:
92,39,21206,1,8,0:0:0:0:
140,102,21474,6,0,L|261:116,1,120,8|8,0:0|0:0,0:0:0:0:
330,212,22278,2,0,L|210:225,1,120,8|8,0:0|0:0,0:0:0:0:
159,336,23081,6,0,B|191:340|216:325|216:325|252:328|278:349,1,120,8|8,0:0|0:0,0:0:0:0:
306,366,23617,6,0,L|298:239,1,120,8|8,0:0|0:0,0:0:0:0:
214,160,24421,1,8,0:0:0:0:
155,214,24688,2,0,L|75:206,2,80,8|8|4,0:0|0:0|0:0,0:0:0:0:
155,214,25760,6,0,P|136:145|151:90,1,120,8|8,0:0|0:0,0:0:0:0:
246,34,26563,2,0,P|265:103|250:158,1,120,8|8,0:0|0:0,0:0:0:0:
155,214,27367,2,0,L|73:205,1,80,8|8,0:0|0:0,0:0:0:0:
57,126,27903,6,0,L|176:113,1,120,8|8,0:0|0:0,0:0:0:0:
284,164,28706,2,0,B|299:199|299:199|287:289,1,120,8|8,0:0|0:0,0:0:0:0:
185,342,29510,1,8,0:0:0:0:
106,325,29778,1,8,0:0:0:0:
51,266,30046,6,0,L|57:182,1,80,8|8,0:0|0:0,0:0:0:0:
134,167,30581,2,0,L|139:246,1,80,8|8,0:0|0:0,0:0:0:0:
216,267,31117,2,0,L|222:183,1,80,8|8,0:0|0:0,0:0:0:0:
299,168,31653,2,0,L|304:247,1,80,8|8,0:0|0:0,0:0:0:0:
381,269,32188,6,0,L|391:107,1,160,8|8,0:0|0:0,0:0:0:0:
333,52,32992,1,8,0:0:0:0:
261,88,33260,2,0,L|182:81,2,80,8|8|4,0:0|0:0|0:0,0:0:0:0:
122,167,34331,6,0,B|106:205|106:205|132:343,1,160,4|8,0:0|0:0,0:0:0:0:
198,360,35135,1,0,0:0:0:0:
252,301,35403,2,0,L|331:294,1,80,2|0,0:0|0:0,0:0:0:0:
386,352,35938,2,0,L|465:359,1,80,8|8,0:0|0:0,0:0:0:0:
489,282,36474,6,0,B|469:251|469:251|481:125,1,160,2|8,0:0|0:0,0:0:0:0:
429,66,37278,1,0,0:0:0:0:
374,124,37546,2,0,P|333:135|294:137,1,80,2|0,0:0|0:0,0:0:0:0:
244,75,38081,1,8,0:0:0:0:
171,109,38349,1,0,0:0:0:0:
101,70,38617,6,0,P|79:114|87:234,1,160,2|8,0:0|0:0,0:0:0:0:
133,283,39421,1,8,0:0:0:0:
204,317,39688,2,0,L|284:312,1,80,2|8,0:0|0:0,0:0:0:0:
348,264,40224,1,8,0:0:0:0:
328,186,40492,1,2,0:0:0:0:
258,145,40760,6,0,L|133:152,2,120,2|0|0,0:0|0:0|0:0,0:0:0:0:
317,91,41831,2,0,L|442:98,2,120,2|0|0,0:0|0:0|0:0,0:0:0:0:
255,40,42903,2,0,L|163:46,1,80,8|8,0:0|0:0,0:0:0:0:
106,87,43438,6,0,B|89:129|89:129|102:254,1,160,8|2,0:0|0:0,0:0:0:0:
155,302,44242,1,0,0:0:0:0:
229,272,44510,1,8,0:0:0:0:
280,333,44778,1,8,0:0:0:0:
348,290,45046,6,0,P|411:297|474:221,1,160,2|8,0:0|0:0,0:0:0:0:
444,155,45849,1,0,0:0:0:0:
383,207,46117,1,2,0:0:0:0:
318,159,46385,1,0,0:0:0:0:
251,204,46653,2,0,L|172:206,1,80,8|0,0:0|0:0,0:0:0:0:
111,153,47188,5,2,0:0:0:0:
44,197,47456,1,2,0:0:0:0:
30,275,47724,2,0,L|38:362,1,80,8|8,0:0|0:0,0:0:0:0:
117,364,48260,1,2,0:0:0:0:
179,312,48528,1,8,0:0:0:0:
245,357,48796,2,0,L|332:349,1,80,8|2,0:0|0:0,0:0:0:0:
376,288,49331,6,0,L|389:166,2,120,2|0|0,0:0|0:0|0:0,0:0:0:0:
423,353,50403,2,0,L|509:345,1,80,2|2,0:0|0:0,0:0:0:0:
503,265,50938,1,10,0:0:0:0:
431,228,51206,1,8,0:0:0:0:
376,288,51474,6,0,L|217:271,1,160,6|8,0:0|0:0,0:0:0:0:
144,236,52278,1,0,0:0:0:0:
91,175,52546,2,0,P|94:135|117:90,1,80,2|2,0:0|0:0,0:0:0:0:
163,38,53081,1,8,0:0:0:0:
237,65,53349,1,2,0:0:0:0:
272,137,53617,6,0,P|346:168|423:142,1,160,2|8,0:0|0:0,0:0:0:0:
461,77,54421,1,2,0:0:0:0:
497,147,54688,2,0,L|488:236,1,80,2|0,0:0|0:0,0:0:0:0:
422,271,55224,1,8,0:0:0:0:
454,343,55492,1,0,0:0:0:0:
374,336,55760,6,0,P|314:289|218:287,1,160,2|8,0:0|0:0,0:0:0:0:
163,322,56563,1,2,0:0:0:0:
102,271,56831,2,0,L|110:192,1,80,2|0,0:0|0:0,0:0:0:0:
168,135,57367,1,8,0:0:0:0:
237,177,57635,1,2,0:0:0:0:
294,120,57903,6,0,L|375:115,1,80,2|2,0:0|0:0,0:0:0:0:
387,36,58438,2,0,L|306:31,1,80,2|8,0:0|0:0,0:0:0:0:
236,66,58974,2,0,L|155:61,1,80,2|8,0:0|0:0,0:0:0:0:
82,32,59510,6,0,P|110:82|103:157,1,120,4|0,0:0|0:0,0:0:0:0:
88,177,60046,6,0,L|185:172,1,80,2|0,0:0|0:0,0:0:0:0:
238,133,60581,2,0,L|318:137,1,80,8|0,0:0|0:0,0:0:0:0:
374,195,61117,1,2,0:0:0:0:
442,152,61385,1,2,0:0:0:0:
500,207,61653,2,0,L|496:286,1,80,8|2,0:0|0:0,0:0:0:0:
423,319,62188,6,0,P|384:305|345:301,1,80,2|2,0:0|0:0,0:0:0:0:
282,350,62724,1,8,0:0:0:0:
214,309,62992,1,2,0:0:0:0:
139,336,63260,2,0,P|114:280|146:163,1,160,2|10,0:0|0:0,0:0:0:0:
185,126,64063,1,2,0:0:0:0:
256,163,64331,6,0,L|344:156,1,80,2|0,0:0|0:0,0:0:0:0:
408,192,64867,1,8,0:0:0:0:
426,269,65135,1,0,0:0:0:0:
359,312,65403,2,0,L|279:305,1,80,2|2,0:0|0:0,0:0:0:0:
200,317,65938,1,8,0:0:0:0:
140,370,66206,1,2,0:0:0:0:
84,311,66474,6,0,L|77:230,1,80,2|2,0:0|0:0,0:0:0:0:
128,169,67010,1,2,0:0:0:0:
82,103,67278,1,8,0:0:0:0:
133,41,67546,2,0,L|213:34,1,80,2|8,0:0|0:0,0:0:0:0:
285,68,68081,2,0,L|408:78,1,120,4|0,0:0|0:0,0:0:0:0:
444,90,68617,6,0,P|398:133|414:243,1,160,6|8,0:0|0:0,0:0:0:0:
464,274,69421,1,0,0:0:0:0:
430,345,69688,2,0,L|335:336,1,80,0|0,0:0|0:0,0:0:0:0:
285,291,70224,2,0,L|206:298,1,80,8|2,0:0|0:0,0:0:0:0:
140,344,70760,6,0,P|167:284|152:191,1,160,2|8,0:0|0:0,0:0:0:0:
82,157,71563,1,2,0:0:0:0:
124,88,71831,2,0,L|210:94,1,80,2|8,0:0|0:0,0:0:0:0:
270,49,72367,2,0,L|356:55,1,80,8|8,0:0|0:0,0:0:0:0:
420,92,72903,6,0,B|403:135|403:135|418:253,1,160,2|8,0:0|0:0,0:0:0:0:
356,299,73706,1,2,0:0:0:0:
306,236,73974,2,0,P|268:225|228:228,1,80,0|8,0:0|0:0,0:0:0:0:
157,265,74510,1,8,0:0:0:0:
185,339,74778,1,2,0:0:0:0:
261,363,75046,6,0,L|341:361,1,80,2|0,0:0|0:0,0:0:0:0:
417,338,75581,1,8,0:0:0:0:
469,277,75849,2,0,P|474:233|465:195,1,80,2|2,0:0|0:0,0:0:0:0:
417,134,76385,1,0,0:0:0:0:
356,186,76653,1,8,0:0:0:0:
281,155,76921,1,2,0:0:0:0:
232,218,77188,6,0,L|73:214,1,160,2|8,0:0|0:0,0:0:0:0:
14,158,77992,1,0,0:0:0:0:
59,91,78260,2,0,L|139:87,1,80,2|0,0:0|0:0,0:0:0:0:
204,134,78796,1,8,0:0:0:0:
269,87,79063,1,2,0:0:0:0:
334,134,79331,6,0,P|350:184|349:222,1,80,2|0,0:0|0:0,0:0:0:0:
306,277,79867,1,8,0:0:0:0:
246,224,80135,1,0,0:0:0:0:
175,259,80403,2,0,P|96:253|28:309,1,160,2|8,0:0|0:0,0:0:0:0:
84,362,81206,1,0,0:0:0:0:
164,371,81474,6,0,L|256:367,1,80,2|0,0:0|0:0,0:0:0:0:
306,315,82010,1,8,0:0:0:0:
380,346,82278,1,2,0:0:0:0:
448,303,82546,2,0,L|457:144,1,160,2|8,0:0|0:0,0:0:0:0:
395,93,83349,1,8,0:0:0:0:
327,135,83617,6,0,L|322:217,1,80,2|0,0:0|0:0,0:0:0:0:
261,267,84153,1,8,0:0:0:0:
188,233,84421,1,2,0:0:0:0:
120,274,84688,6,0,P|50:256|20:171,1,160,2|4,0:0|0:0,0:0:0:0:
152,91,85760,1,4,0:0:0:0:
