osu file format v14

[General]
AudioFilename: audio.mp3
AudioLeadIn: 0
PreviewTime: 46
Countdown: 0
SampleSet: Soft
StackLeniency: 0.5
Mode: 0
LetterboxInBreaks: 0
WidescreenStoryboard: 0

[Editor]
DistanceSpacing: 1.2
BeatDivisor: 8
GridSize: 32
TimelineZoom: 2.5

[Metadata]
Title:Fingerbang
TitleUnicode:Fingerbang
Artist:MDK
ArtistUnicode:MDK
Creator:CookieBite
Version:LCFC's Extra
Source:Geometry Dash
Tags:fingerdash 2.1 electronic dance edm Morgan David King DeRandom Otaku 6th LowComboFC JBHyperion
BeatmapID:1250656
BeatmapSetID:559525

[Difficulty]
HPDrainRate:5.5
CircleSize:4
OverallDifficulty:9
ApproachRate:9.7
SliderMultiplier:3.59999990463257
SliderTickRate:1

[Events]
//Background and Video events
0,0,"oops.jpg",0,0
//Break Periods
//Storyboard Layer 0 (Background)
//Storyboard Layer 1 (Fail)
//Storyboard Layer 2 (Pass)
//Storyboard Layer 3 (Foreground)
//Storyboard Sound Samples

[TimingPoints]
46,535.714285714286,4,2,77,40,1,0
46,-200,4,2,77,40,0,0
5938,-100,4,2,77,30,0,0
6474,-200,4,2,77,40,0,0
7813,-133.333333333333,4,2,77,50,0,0
8617,-133.333333333333,4,2,1,50,0,0
14510,-133.333333333333,4,2,77,30,0,0
15046,-133.333333333333,4,2,1,50,0,0
16117,-200,4,2,77,50,0,0
16653,-100,4,1,77,35,0,0
17054,-100,4,2,1,40,0,0
17188,-133.333333333333,4,2,77,80,0,0
17322,-133.333333333333,4,2,77,60,0,0
18796,-200,4,3,77,75,0,0
19063,-200,4,2,77,40,0,0
19331,-133.333333333333,4,2,1,60,0,0
20671,-133.333333333333,4,2,77,50,0,0
20938,-100,4,2,1,60,0,0
21474,-133.333333333333,4,2,1,60,0,0
22813,-133.333333333333,4,2,77,50,0,0
23081,-133.333333333333,4,3,77,50,0,0
23148,-133.333333333333,4,3,77,48,0,0
23215,-133.333333333333,4,3,77,46,0,0
23282,-133.333333333333,4,3,77,44,0,0
23349,-133.333333333333,4,3,77,42,0,0
23416,-133.333333333333,4,3,77,40,0,0
23483,-133.333333333333,4,3,77,38,0,0
23550,-133.333333333333,4,3,77,36,0,0
23617,-133.333333333333,4,2,1,60,0,0
25224,-200,4,1,77,35,0,0
25626,-200,4,2,1,40,0,0
25760,-133.333333333333,4,2,1,50,0,0
30046,-133.333333333333,4,2,1,52,0,0
30581,-133.333333333333,4,2,1,54,0,0
31117,-133.333333333333,4,2,1,56,0,0
31653,-133.333333333333,4,2,1,58,0,0
32188,-133.333333333333,4,2,1,60,0,0
33260,-133.333333333333,4,2,1,50,0,0
33796,-200,4,1,77,40,0,0
34331,-66.6666666666667,4,2,1,70,0,1
34465,-66.6666666666667,4,2,1,60,0,1
34599,-80,4,2,1,60,0,1
34867,-66.6666666666667,4,2,1,60,0,1
35938,-100,4,2,1,60,0,1
36206,-100,4,2,77,40,0,1
36474,-100,4,2,1,60,0,1
37010,-66.6666666666667,4,2,1,60,0,1
37546,-80,4,2,1,60,0,1
38081,-100,4,2,1,60,0,1
38115,-100,4,2,77,60,0,1
38349,-100,4,2,1,60,0,1
38617,-133.333333333333,4,2,1,60,0,1
38885,-66.6666666666667,4,2,77,50,0,1
39019,-66.6666666666667,4,2,1,60,0,1
39153,-133.333333333333,4,2,1,60,0,1
39421,-66.6666666666667,4,2,77,50,0,1
39555,-66.6666666666667,4,2,1,60,0,1
39688,-133.333333333333,4,2,1,60,0,1
39956,-66.6666666666667,4,2,77,50,0,1
40090,-66.6666666666667,4,2,1,60,0,1
40224,-133.333333333333,4,2,1,60,0,1
40492,-66.6666666666667,4,2,77,50,0,1
40626,-66.6666666666667,4,2,1,60,0,1
40760,-100,4,2,1,60,0,1
41831,-200,4,2,1,60,0,1
42367,-66.6666666666667,4,2,1,60,0,1
42903,-100,4,3,77,60,0,0
43037,-100,4,2,78,80,0,0
43171,-100,4,3,77,50,0,0
43438,-66.6666666666667,4,2,1,60,0,1
43706,-100,4,2,1,60,0,1
43974,-66.6666666666667,4,2,1,60,0,1
44510,-80,4,2,1,60,0,1
44778,-100,4,2,77,40,0,1
45046,-133.333333333333,4,2,1,60,0,1
45313,-133.333333333333,4,2,77,50,0,1
45581,-66.6666666666667,4,2,1,60,0,1
46117,-100,4,2,1,60,0,1
46653,-80,4,2,1,50,0,1
46921,-80,4,2,1,60,0,1
47188,-133.333333333333,4,2,1,60,0,1
47456,-66.6666666666667,4,2,77,50,0,1
47590,-66.6666666666667,4,2,1,60,0,1
47724,-133.333333333333,4,2,1,60,0,1
47992,-66.6666666666667,4,2,77,50,0,1
48126,-66.6666666666667,4,2,1,60,0,1
48260,-133.333333333333,4,2,1,60,0,1
48527,-133.333333333333,4,2,77,50,0,1
48528,-66.6666666666667,4,2,77,50,0,1
48661,-66.6666666666667,4,2,1,60,0,1
48796,-133.333333333333,4,2,1,50,0,1
49063,-66.6666666666667,4,2,77,50,0,1
49197,-66.6666666666667,4,2,1,60,0,1
49331,-100,4,2,1,60,0,1
50938,-100,4,3,77,80,0,1
51474,-100,4,2,1,60,0,0
51675,-100,4,2,1,50,0,0
55224,-133.333333333333,4,2,1,50,0,0
55760,-100,4,2,1,50,0,0
58171,-100,4,2,77,50,0,0
58304,-100,4,2,1,50,0,0
58706,-100,4,2,77,50,0,0
58839,-100,4,2,1,50,0,0
59242,-100,4,2,77,50,0,0
59376,-100,4,2,1,50,0,0
59510,-133.333333333333,4,1,77,35,0,0
59912,-133.333333333333,4,2,1,40,0,0
60046,-100,4,2,1,50,0,0
63796,-80,4,2,99,50,0,0
64197,-80,4,2,1,50,0,0
64331,-100,4,2,1,50,0,0
66206,-100,4,2,77,40,0,0
66742,-100,4,2,77,60,0,0
66875,-100,4,2,1,60,0,0
67277,-100,4,2,77,60,0,0
67410,-100,4,2,1,60,0,0
67813,-100,4,2,77,60,0,0
67946,-100,4,2,1,60,0,0
68081,-133.333333333333,4,1,77,35,0,0
68483,-133.333333333333,4,2,1,40,0,0
68617,-66.6666666666667,4,2,1,60,0,0
68885,-80,4,2,77,50,0,0
69153,-66.6666666666667,4,2,1,60,0,0
69554,-66.6666666666667,4,2,77,60,0,0
69688,-100,4,2,1,60,0,0
72099,-100,4,2,77,60,0,0
72233,-100,4,2,1,60,0,0
74242,-100,4,2,77,40,0,0
74510,-100,4,2,1,60,0,0
76653,-80,4,2,1,60,0,0
77456,-80,4,2,77,60,0,0
77724,-66.6666666666667,4,2,1,60,0,0
78260,-100,4,2,1,60,0,0
80938,-100,4,2,1,50,0,0
81206,-100,4,2,1,60,0,0
83148,-100,4,2,77,50,0,0
83349,-100,4,2,1,60,0,0
83751,-100,4,2,77,50,0,0
83885,-100,4,2,1,60,0,0
85224,-66.6666666666667,4,3,77,60,0,0
85626,-66.6666666666667,4,2,77,30,0,0
85760,-66.6666666666667,4,2,77,80,0,0

[Colours]
Combo1 : 116,203,52
Combo2 : 166,96,251
Combo3 : 255,47,68
Combo4 : 107,153,228

[HitObjects]
80,117,46,6,0,P|159:48|149:152,1,269.999992847443,4|0,0:0|0:0,0:0:0:0:
52,242,983,2,0,B|85:220|117:233|117:233|152:246|181:232,1,134.999996423721,8|0,0:0|0:0,0:0:0:0:
374,128,1653,2,0,P|324:128|287:159,1,89.9999976158143,2|0,0:0|0:0,0:0:0:0:
254,314,2054,1,0,0:0:0:0:
329,367,2188,22,0,B|345:306|345:306|329:273|329:273|349:194,1,179.999995231629,8|2,0:0|0:0,0:0:0:0:
349,195,2992,1,0,0:0:0:0:
142,90,3260,2,0,B|96:124|96:124|218:113,1,179.999995231629,8|2,0:0|0:0,0:0:0:0:
30,250,4331,22,0,L|119:242,1,89.9999976158143,2|0,0:0|0:0,0:0:0:0:
360,222,4867,2,0,L|270:229,1,89.9999976158143,0|2,0:0|0:0,0:0:0:0:
187,326,5403,22,0,L|194:236,1,89.9999976158143,0|0,0:0|0:0,0:0:0:0:
208,56,5938,1,8,0:0:0:0:
206,78,6072,1,8,0:0:0:0:
204,101,6206,1,2,0:0:0:0:
202,123,6340,1,2,0:0:0:0:
200,146,6474,22,0,P|263:131|306:179,2,134.999996423721,2|0|0,0:0|0:0|0:0,0:0:0:0:
88,291,7546,2,0,L|84:246,1,44.9999988079071,2|0,0:0|0:0,0:0:0:0:
70,130,7813,37,2,0:0:0:0:
57,142,7880,1,2,0:0:0:0:
40,148,7947,1,2,0:0:0:0:
21,147,8014,1,2,0:0:0:0:
3,139,8081,2,0,L|12:72,1,67.5000007867814,8|0,0:0|0:0,0:0:0:0:
214,25,8349,2,0,B|228:73|228:73|191:121,1,101.250001180172,2|0,0:0|0:0,0:0:0:0:
129,57,8617,37,8,0:0:0:0:
200,194,8751,2,0,P|195:227|186:260,1,67.5000007867814,2|2,0:0|0:0,0:0:0:0:
317,55,9019,2,0,P|320:122|333:188,1,135.000001573563,8|2,0:0|0:0,0:0:0:0:
417,10,9421,1,8,0:0:0:0:
434,184,10760,21,8,0:0:0:0:
385,268,10894,2,0,L|451:279,1,67.5000007867814,2|2,0:0|0:0,0:0:0:0:
253,215,11162,2,0,B|206:223|206:223|173:209|173:209|122:216,1,135.000001573563,8|2,0:0|0:0,0:0:0:0:
294,344,11563,1,8,0:0:0:0:
76,95,12903,21,8,0:0:0:0:
160,80,13037,2,0,P|161:113|147:143,1,67.5000007867814,2|2,0:0|0:0,0:0:0:0:
82,313,13304,2,0,L|73:178,1,135.000001573563,8|2,0:0|0:0,0:0:0:0:
65,11,13706,1,8,0:0:0:0:
420,88,14510,5,8,0:0:0:0:
420,88,14644,1,8,0:0:0:0:
339,140,14778,1,2,0:0:0:0:
343,156,14845,1,0,0:0:0:0:
347,172,14912,1,2,0:0:0:0:
351,188,14979,1,0,0:0:0:0:
355,204,15046,5,8,0:0:0:0:
246,288,15179,2,0,L|260:212,1,67.5000007867814,2|2,0:0|0:0,0:0:0:0:
462,367,15447,2,0,B|481:304|481:304|450:241,1,135.000001573563,8|2,0:0|0:0,0:0:0:0:
366,313,15849,1,8,0:0:0:0:
465,119,16117,2,0,B|481:13|481:13|443:47,1,157.499995827675,8|0,0:0|0:0,0:0:0:0:
454,63,16653,38,0,B|389:78|357:24|357:24|284:-1|248:48|248:48|263:89|311:89,1,314.99999165535,4|0,0:0|0:0,0:0:0:0:
311,89,17188,38,0,B|321:121|321:121|297:160,1,67.5000007867814,4|0,0:0|0:0,0:0:0:0:
182,108,17456,1,0,0:0:0:0:
70,287,17590,2,0,B|110:306|110:306|197:280,1,135.000001573563,2|0,0:0|0:0,0:0:0:0:
70,47,17992,22,0,P|77:79|79:113,1,67.5000007867814,8|0,0:0|0:0,0:0:0:0:
50,193,18260,1,0,0:0:0:0:
167,30,18394,1,8,0:0:0:0:
182,108,18528,1,0,0:0:0:0:
198,187,18662,1,0,0:0:0:0:
433,265,18796,38,0,B|374:253|374:253|334:269|334:269|280:257,1,157.499995827675,4|0,0:0|0:0,0:0:0:0:
265,244,19331,38,0,P|248:215|244:182,1,67.5000007867814,8|2,0:0|0:0,0:0:0:0:
328,33,19599,1,2,0:0:0:0:
447,151,19733,2,0,P|415:162|328:122,1,135.000001573563,8|0,0:0|0:0,0:0:0:0:
484,22,20135,22,0,L|498:101,1,67.5000007867814,8|2,0:0|0:0,0:0:0:0:
404,69,20403,1,2,0:0:0:0:
416,322,20537,1,8,0:0:0:0:
440,241,20670,1,8,0:0:0:0:
498,303,20804,1,8,0:0:0:0:
192,284,20938,6,0,B|174:220|174:220|220:169,1,134.999996423721,8|0,0:0|0:0,0:0:0:0:
319,189,21206,2,0,B|337:253|337:253|290:303,1,134.999996423721,8|0,0:0|0:0,0:0:0:0:
192,284,21474,6,0,P|159:276|125:274,1,67.5000007867814,8|2,0:0|0:0,0:0:0:0:
47,330,21742,1,2,0:0:0:0:
341,356,21876,2,0,P|274:343|215:312,1,135.000001573563,8|0,0:0|0:0,0:0:0:0:
319,189,22278,22,0,P|286:196|252:198,1,67.5000007867814,8|2,0:0|0:0,0:0:0:0:
174,143,22546,1,2,0:0:0:0:
468,170,22679,1,8,0:0:0:0:
454,250,22812,1,8,0:0:0:0:
416,322,22946,1,8,0:0:0:0:
209,333,23081,37,8,0:0:0:0:
198,320,23148,1,8,0:0:0:0:
191,304,23215,1,8,0:0:0:0:
188,287,23282,1,8,0:0:0:0:
190,270,23349,1,8,0:0:0:0:
196,253,23416,1,8,0:0:0:0:
206,238,23483,1,8,0:0:0:0:
219,226,23550,1,0,0:0:0:0:
235,219,23617,38,0,L|247:153,1,67.5000007867814,8|2,0:0|0:0,0:0:0:0:
261,50,23885,1,2,0:0:0:0:
454,250,24019,2,0,L|433:116,1,135.000001573563,8|2,0:0|0:0,0:0:0:0:
155,77,24421,1,8,0:0:0:0:
190,270,24554,1,0,0:0:0:0:
59,89,24688,22,0,P|89:75|122:69,1,67.5000007867814,8|2,0:0|0:0,0:0:0:0:
278,94,24956,2,0,P|305:113|327:139,1,67.5000007867814,8|2,0:0|0:0,0:0:0:0:
366,283,25224,38,0,P|325:216|326:139,1,157.499995827675,4|0,0:0|0:0,0:0:0:0:
343,123,25760,37,8,0:0:0:0:
488,78,25894,2,0,L|502:12,1,67.5000007867814,0|0,0:0|0:0,0:0:0:0:
402,286,26162,1,8,0:0:0:0:
257,241,26296,2,0,L|243:175,1,67.5000007867814,0|0,0:0|0:0,0:0:0:0:
102,382,26563,21,8,0:0:0:0:
247,337,26697,2,0,L|261:271,1,67.5000007867814,0|0,0:0|0:0,0:0:0:0:
161,219,26965,1,8,0:0:0:0:
16,174,27099,2,0,L|2:108,1,67.5000007867814,0|0,0:0|0:0,0:0:0:0:
172,29,27367,22,0,L|158:95,1,67.5000007867814,8|2,0:0|0:0,0:0:0:0:
23,272,27635,2,0,L|38:206,1,67.5000007867814,8|2,0:0|0:0,0:0:0:0:
82,74,27903,21,8,0:0:0:0:
130,223,28037,2,0,P|162:233|195:229,1,67.5000007867814,0|0,0:0|0:0,0:0:0:0:
430,74,28304,1,8,0:0:0:0:
382,223,28438,2,0,P|350:233|317:229,1,67.5000007867814,0|0,0:0|0:0,0:0:0:0:
256,0,28706,21,8,0:0:0:0:
345,145,28840,2,0,P|349:111|340:80,1,67.5000007867814,0|0,0:0|0:0,0:0:0:0:
256,0,29108,1,8,0:0:0:0:
166,145,29242,2,0,P|162:111|172:80,1,67.5000007867814,0|0,0:0|0:0,0:0:0:0:
337,248,29510,22,0,P|342:282|331:313,1,67.5000007867814,8|2,0:0|0:0,0:0:0:0:
181,313,29778,2,0,P|170:282|174:249,1,67.5000007867814,8|2,0:0|0:0,0:0:0:0:
187,237,29979,1,0,0:0:0:0:
200,225,30046,22,0,L|273:214,1,67.5000007867814,8|0,0:0|0:0,0:0:0:0:
400,173,30313,2,0,L|327:162,1,67.5000007867814,8|0,0:0|0:0,0:0:0:0:
118,144,30581,22,0,L|191:133,1,67.5000007867814,8|0,0:0|0:0,0:0:0:0:
454,93,30849,2,0,L|381:82,1,67.5000007867814,8|0,0:0|0:0,0:0:0:0:
64,32,31117,22,0,L|137:43,1,67.5000007867814,8|0,0:0|0:0,0:0:0:0:
512,194,31385,2,0,L|446:204,1,67.5000007867814,8|0,0:0|0:0,0:0:0:0:
257,2,31653,22,0,L|246:75,1,67.5000007867814,8|0,0:0|0:0,0:0:0:0:
360,340,31921,2,0,L|350:273,1,67.5000007867814,8|0,0:0|0:0,0:0:0:0:
160,64,32188,21,8,0:0:0:0:
202,162,32322,1,8,0:0:0:0:
85,137,32456,21,8,0:0:0:0:
205,185,32590,1,8,0:0:0:0:
86,251,32724,21,8,0:0:0:0:
222,191,32858,1,8,0:0:0:0:
173,337,32992,21,8,0:0:0:0:
234,177,33126,1,8,0:0:0:0:
443,188,33260,37,8,0:0:0:0:
427,181,33327,1,8,0:0:0:0:
412,190,33394,1,8,0:0:0:0:
395,185,33461,1,8,0:0:0:0:
380,193,33528,1,8,0:0:0:0:
364,185,33595,1,8,0:0:0:0:
349,193,33662,1,8,0:0:0:0:
333,185,33729,1,0,0:0:0:0:
320,194,33796,2,0,B|288:173|243:184|243:184|200:194|168:176,1,157.499995827675,4|0,0:0|0:0,0:0:0:0:
129,99,34331,22,0,B|189:52|189:52|167:177,1,202.500002360344,4|0,0:0|0:0,0:0:0:0:
17,326,34599,2,0,B|85:313|85:313|117:332|117:332|180:321,1,168.749995529652,0|0,0:0|0:0,0:0:0:0:
198,316,34867,21,8,0:0:0:0:
86,234,35001,2,0,B|60:213|60:213|26:218,1,67.5000007867813,0|0,0:0|0:0,0:0:0:0:
16,117,35135,2,0,B|48:104|48:104|59:74,1,67.5000007867813,0|0,0:0|0:0,0:0:0:0:
151,116,35269,2,0,B|146:149|146:149|168:176,1,67.5000007867813,0|0,0:0|0:0,0:0:0:0:
370,288,35403,21,2,0:0:0:0:
422,195,35537,2,0,P|389:191|356:182,1,67.5000007867813,0|0,0:0|0:0,0:0:0:0:
261,294,35671,2,0,P|276:324|284:357,1,67.5000007867813,0|0,0:0|0:0,0:0:0:0:
428,383,35804,2,0,P|448:355|472:331,1,67.5000007867813,0|0,0:0|0:0,0:0:0:0:
426,74,35938,22,0,B|397:109|397:109|422:195,1,134.999996423721,8|0,0:0|0:0,0:0:0:0:
370,288,36206,2,0,L|360:339,2,44.9999988079071,8|8|8,0:0|0:0|0:0,0:0:0:0:
309,91,36474,22,0,B|241:79|241:79|198:130,1,134.999996423721,2|0,0:0|0:0,0:0:0:0:
144,227,36742,2,0,B|181:204|212:221|212:221|244:238|273:218,1,134.999996423721,0|0,0:0|0:0,0:0:0:0:
289,206,37010,21,8,0:0:0:0:
144,49,37144,2,0,L|77:55,1,67.5000007867814,0|0,0:0|0:0,0:0:0:0:
31,148,37278,2,0,L|99:141,1,67.5000007867814,0|0,0:0|0:0,0:0:0:0:
144,227,37412,2,0,L|77:233,1,67.5000007867814,0|0,0:0|0:0,0:0:0:0:
31,326,37546,21,2,0:0:0:0:
206,164,37679,2,0,B|268:174|268:174|305:156|305:156|369:167,1,168.749995529652,0|0,0:0|0:0,0:0:0:0:
388,172,37947,1,0,0:0:0:0:
287,319,38081,22,0,B|250:318|229:350|229:350|203:329|167:340,1,134.999996423721,8|0,0:0|0:0,0:0:0:0:
149,351,38349,1,0,0:0:0:0:
362,381,38483,1,2,0:0:0:0:
103,261,38617,22,0,P|144:233|193:240,1,101.250001180172,2|0,0:0|0:0,0:0:0:0:
391,303,38885,2,0,B|431:344|431:344|287:319,1,202.500002360344,2|0,0:0|0:0,0:0:0:0:
193,240,39153,22,0,B|167:197|167:197|180:147,1,101.250001180172,8|0,0:0|0:0,0:0:0:0:
387,215,39421,2,0,B|276:267|308:184|193:240,1,202.500002360344,8|0,0:0|0:0,0:0:0:0:
207,26,39688,22,0,B|144:39|144:39|113:18,1,101.250001180172,2|0,0:0|0:0,0:0:0:0:
291,194,39956,2,0,B|306:132|306:132|282:76|282:76|303:2,1,202.500002360344,8|0,0:0|0:0,0:0:0:0:
185,175,40224,22,0,L|204:274,1,101.250001180172,8|0,0:0|0:0,0:0:0:0:
298,368,40492,2,0,B|223:359|223:359|200:366|200:366|179:355|179:355|101:345,1,202.500002360344,2|0,0:0|0:0,0:0:0:0:
31,141,40760,22,0,B|77:105|77:105|106:166|62:220,1,179.999995231629,2|0,0:0|0:0,0:0:0:0:
64,218,41162,1,0,0:0:0:0:
366,205,41296,2,0,B|322:198|322:198|286:225,1,89.9999976158143,8|0,0:0|0:0,0:0:0:0:
167,375,41563,2,0,L|179:285,1,89.9999976158143,0|0,0:0|0:0,0:0:0:0:
216,22,41831,22,0,L|202:122,1,89.9999976158143,2|0,0:0|0:0,0:0:0:0:
191,198,42233,1,0,0:0:0:0:
377,130,42367,22,0,B|429:88|429:88|295:104,1,202.500002360344,8|0,0:0|0:0,0:0:0:0:
279,108,42635,1,0,0:0:0:0:
257,309,42769,1,2,0:0:0:0:
76,60,42903,5,8,0:0:0:0:
66,75,43037,21,2,0:0:0:0:
98,113,43171,21,8,0:0:0:0:
57,185,43304,21,0,0:0:0:0:
97,304,43438,38,0,L|177:291,1,67.5000007867814,8|0,0:0|0:0,0:0:0:0:
287,225,43572,2,0,L|353:236,1,67.5000007867814,0|0,0:0|0:0,0:0:0:0:
381,364,43706,2,0,B|429:351|429:351|464:363|464:363|510:349,1,134.999996423721,0|0,0:0|0:0,0:0:0:0:
512,333,43974,21,2,0:0:0:0:
422,168,44108,2,0,P|397:146|365:137,1,67.5000007867814,0|0,0:0|0:0,0:0:0:0:
232,260,44242,2,0,P|264:248|287:224,1,67.5000007867814,0|0,0:0|0:0,0:0:0:0:
247,50,44376,2,0,P|241:82|250:115,1,67.5000007867814,0|0,0:0|0:0,0:0:0:0:
474,231,44510,22,0,B|483:185|459:150|459:150|434:115|444:69,1,168.749995529652,8|0,0:0|0:0,0:0:0:0:
247,50,44778,2,0,B|225:23|225:23|325:37,1,134.999996423721,8|0,0:0|0:0,0:0:0:0:
185,179,45046,22,0,B|157:185|139:203|139:203|122:190|93:186,1,101.250001180172,2|0,0:0|0:0,0:0:0:0:
34,64,45313,2,0,B|80:40|80:40|127:56,1,101.250001180172,2|0,0:0|0:0,0:0:0:0:
132,74,45581,21,8,0:0:0:0:
253,237,45715,2,0,B|230:261|230:261|197:269,1,67.5000007867814,0|0,0:0|0:0,0:0:0:0:
226,354,45849,2,0,B|195:363|195:363|162:353,1,67.5000007867814,0|0,0:0|0:0,0:0:0:0:
217,123,45983,2,0,B|210:155|210:155|185:179,1,67.5000007867814,0|0,0:0|0:0,0:0:0:0:
7,246,46117,21,2,0:0:0:0:
205,44,46251,2,0,P|267:61|297:119,1,134.999996423721,0|0,0:0|0:0,0:0:0:0:
293,141,46519,1,0,0:0:0:0:
134,361,46653,22,0,B|90:320|90:320|117:214,1,168.749995529652,8|0,0:0|0:0,0:0:0:0:
122,199,46921,1,0,0:0:0:0:
325,299,47054,1,2,0:0:0:0:
82,136,47188,22,0,B|34:159|34:159|26:206,1,101.250001180172,2|0,0:0|0:0,0:0:0:0:
167,300,47456,2,0,P|214:215|163:133,1,202.500002360344,2|0,0:0|0:0,0:0:0:0:
6,285,47724,22,0,L|26:384,1,101.250001180172,8|0,0:0|0:0,0:0:0:0:
253,318,47992,2,0,B|306:284|306:284|167:300,1,202.500002360344,8|0,0:0|0:0,0:0:0:0:
89,69,48260,22,0,B|62:111|62:111|67:162,1,101.250001180172,2|0,0:0|0:0,0:0:0:0:
264,152,48528,2,0,B|146:127|186:192|67:162,1,202.500002360344,8|0,0:0|0:0,0:0:0:0:
277,69,48796,22,0,P|323:87|348:131,1,101.250001180172,8|0,0:0|0:0,0:0:0:0:
246,347,49063,2,0,B|261:279|261:279|244:229|244:229|264:152,1,202.500002360344,2|0,0:0|0:0,0:0:0:0:
422,57,49331,22,0,B|455:111|455:111|413:219,1,179.999995231629,2|0,0:0|0:0,0:0:0:0:
413,219,49733,1,0,0:0:0:0:
191,271,49867,2,0,B|226:242|226:242|269:254,1,89.9999976158143,8|0,0:0|0:0,0:0:0:0:
457,345,50135,2,0,L|368:334,1,89.9999976158143,0|0,0:0|0:0,0:0:0:0:
191,271,50403,5,2,0:0:0:0:
132,283,50492,21,2,0:0:0:0:
73,295,50581,21,2,0:0:0:0:
14,307,50671,21,2,0:0:0:0:
73,313,50760,21,2,0:0:0:0:
132,319,50849,21,2,0:0:0:0:
191,325,50938,22,0,L|280:309,1,89.9999976158143,10|8,0:0|0:0,0:0:0:0:
168,179,51206,2,0,L|257:163,1,89.9999976158143,8|8,0:0|0:0,0:0:0:0:
278,173,51407,1,0,0:0:0:0:
299,183,51474,22,0,B|363:189|363:189|394:224|394:224|464:230,1,179.999995231629,6|0,0:0|0:0,0:0:0:0:
447,133,51876,1,2,0:0:0:0:
312,288,52010,2,0,P|307:335|324:377,1,89.9999976158143,8|0,0:0|0:0,0:0:0:0:
444,112,52278,2,0,P|406:84|361:77,1,89.9999976158143,0|0,0:0|0:0,0:0:0:0:
149,194,52546,21,2,0:0:0:0:
194,112,52679,2,0,L|173:290,1,179.999995231629,0|0,0:0|0:0,0:0:0:0:
312,288,53081,2,0,B|357:285|357:285|382:247,1,89.9999976158143,8|2,0:0|0:0,0:0:0:0:
91,252,53349,2,0,B|72:292|72:292|92:332,1,89.9999976158143,2|0,0:0|0:0,0:0:0:0:
347,163,53617,21,2,0:0:0:0:
194,112,53751,1,0,0:0:0:0:
227,270,53885,1,2,0:0:0:0:
227,270,54019,1,2,0:0:0:0:
294,82,54153,1,8,0:0:0:0:
312,288,54287,1,2,0:0:0:0:
124,201,54421,2,0,L|35:191,1,89.9999976158143,2|0,0:0|0:0,0:0:0:0:
212,284,54688,21,2,0:0:0:0:
382,188,54822,2,0,P|393:144|397:99,1,89.9999976158143,2|0,0:0|0:0,0:0:0:0:
148,13,55090,1,2,0:0:0:0:
322,73,55224,6,0,B|389:86|389:86|436:37,1,135.000001573563,8|0,0:0|0:0,0:0:0:0:
359,0,55626,1,2,0:0:0:0:
222,134,55760,6,0,P|133:133|44:116,1,179.999995231629,2|0,0:0|0:0,0:0:0:0:
122,38,56162,1,2,0:0:0:0:
155,227,56296,2,0,L|143:316,1,89.9999976158143,8|0,0:0|0:0,0:0:0:0:
370,316,56563,2,0,L|357:227,1,89.9999976158143,2|0,0:0|0:0,0:0:0:0:
256,288,56831,21,2,0:0:0:0:
386,141,56965,2,0,B|510:127|510:127|460:148,1,179.999995231629,2|0,0:0|0:0,0:0:0:0:
248,99,57367,2,0,P|240:55|256:13,1,89.9999976158143,8|2,0:0|0:0,0:0:0:0:
469,232,57635,2,0,P|435:260|391:266,1,89.9999976158143,2|0,0:0|0:0,0:0:0:0:
325,66,57903,21,2,0:0:0:0:
279,236,58037,1,0,0:0:0:0:
342,78,58171,2,0,L|330:-11,1,89.9999976158143,2|0,0:0|0:0,0:0:0:0:
431,172,58438,21,2,0:0:0:0:
261,218,58572,1,0,0:0:0:0:
419,155,58706,2,0,L|509:167,1,89.9999976158143,8|0,0:0|0:0,0:0:0:0:
242,98,58974,21,2,0:0:0:0:
295,312,59108,1,0,0:0:0:0:
233,116,59242,2,0,L|144:128,1,89.9999976158143,8|0,0:0|0:0,0:0:0:0:
132,261,59510,38,0,B|182:286|231:252|231:252|269:207|326:228,1,202.500002360344,4|0,0:0|0:0,0:0:0:0:
512,342,60046,6,0,P|434:371|381:305,1,179.999995231629,2|0,0:0|0:0,0:0:0:0:
420,220,60447,1,2,0:0:0:0:
344,52,60581,2,0,P|348:96|359:140,1,89.9999976158143,8|0,0:0|0:0,0:0:0:0:
219,337,60849,2,0,P|231:293|234:248,1,89.9999976158143,0|0,0:0|0:0,0:0:0:0:
184,111,61117,21,2,0:0:0:0:
97,150,61251,2,0,B|166:134|166:134|204:159|204:159|268:147,1,179.999995231629,0|0,0:0|0:0,0:0:0:0:
481,101,61653,2,0,B|444:125|444:125|399:115,1,89.9999976158143,8|2,0:0|0:0,0:0:0:0:
209,44,61921,2,0,B|246:20|246:20|292:29,1,89.9999976158143,2|0,0:0|0:0,0:0:0:0:
351,205,62188,21,2,0:0:0:0:
428,35,62322,1,2,0:0:0:0:
409,283,62456,1,2,0:0:0:0:
409,283,62590,1,2,0:0:0:0:
211,181,62724,1,8,0:0:0:0:
327,328,62858,1,0,0:0:0:0:
110,364,62992,2,0,L|22:347,1,89.9999976158143,2|0,0:0|0:0,0:0:0:0:
70,153,63260,21,2,0:0:0:0:
117,236,63394,2,0,L|92:57,1,179.999995231629,2|0,0:0|0:0,0:0:0:0:
264,72,63796,1,10,0:0:0:0:
251,61,63862,1,2,0:0:0:0:
235,56,63929,1,2,0:0:0:0:
219,54,63996,1,2,0:0:0:0:
203,55,64063,1,2,0:0:0:0:
336,195,64197,1,2,0:0:0:0:
357,17,64331,22,0,P|342:106|335:196,1,179.999995231629,2|0,0:0|0:0,0:0:0:0:
375,286,64733,1,2,0:0:0:0:
156,254,64867,2,0,P|199:251|250:240,1,89.9999976158143,8|0,0:0|0:0,0:0:0:0:
464,298,65135,2,0,P|420:289|375:286,1,89.9999976158143,0|0,0:0|0:0,0:0:0:0:
195,352,65403,21,2,0:0:0:0:
70,314,65537,2,0,P|148:283|195:352,1,179.999995231629,0|0,0:0|0:0,0:0:0:0:
20,200,65938,2,0,L|13:110,1,89.9999976158143,8|2,0:0|0:0,0:0:0:0:
238,151,66206,2,0,L|245:241,1,89.9999976158143,2|0,0:0|0:0,0:0:0:0:
134,44,66474,21,2,0:0:0:0:
318,4,66608,1,0,0:0:0:0:
123,59,66742,2,0,P|79:59|39:39,1,89.9999976158143,2|0,0:0|0:0,0:0:0:0:
328,185,67010,21,2,0:0:0:0:
144,145,67144,1,0,0:0:0:0:
339,200,67278,2,0,P|384:200|424:180,1,89.9999976158143,8|0,0:0|0:0,0:0:0:0:
275,75,67546,21,2,0:0:0:0:
297,291,67679,1,0,0:0:0:0:
289,60,67813,2,0,L|277:157,1,89.9999976158143,8|0,0:0|0:0,0:0:0:0:
394,345,68081,38,0,B|338:315|290:336|290:336|234:357|199:333,1,202.500002360344,4|0,0:0|0:0,0:0:0:0:
105,188,68617,22,0,B|152:140|152:140|167:217|131:270,1,202.500002360344,6|0,0:0|0:0,0:0:0:0:
28,353,68885,2,0,B|17:291|17:291|30:255|30:255|17:188,1,168.749995529652,0|0,0:0|0:0,0:0:0:0:
62,107,69153,21,8,0:0:0:0:
191,12,69287,2,0,B|204:45|204:45|191:74,1,67.5000007867814,0|0,0:0|0:0,0:0:0:0:
311,183,69421,2,0,B|298:153|298:153|311:120,1,67.5000007867814,0|0,0:0|0:0,0:0:0:0:
407,37,69554,1,8,0:0:0:0:
453,254,69688,22,0,B|410:279|410:279|282:260,1,179.999995231629,0|0,0:0|0:0,0:0:0:0:
173,164,70090,2,0,L|183:207,1,44.9999988079071,2|0,0:0|0:0,0:0:0:0:
220,360,70224,21,8,0:0:0:0:
107,325,70358,1,0,0:0:0:0:
310,183,70492,2,0,L|403:197,1,89.9999976158143,2|0,0:0|0:0,0:0:0:0:
89,168,70760,21,2,0:0:0:0:
173,164,70894,2,0,P|90:196|2:180,1,179.999995231629,0|2,0:0|0:0,0:0:0:0:
277,22,71296,2,0,B|290:66|290:66|266:103,1,89.9999976158143,8|0,0:0|0:0,0:0:0:0:
104,86,71563,2,0,B|91:42|91:42|116:4,1,89.9999976158143,2|0,0:0|0:0,0:0:0:0:
383,68,71831,21,2,0:0:0:0:
197,156,71965,1,2,0:0:0:0:
342,149,72099,1,8,0:0:0:0:
188,55,72233,1,2,0:0:0:0:
353,167,72367,21,8,0:0:0:0:
353,167,72434,2,0,L|408:153,2,44.9999988079071,0|0|0,0:0|0:0|0:0,0:0:0:0:
282,259,72635,21,8,0:0:0:0:
282,259,72702,2,0,L|227:245,2,44.9999988079071,0|2|0,0:0|0:0|0:0,0:0:0:0:
394,282,72903,21,2,0:0:0:0:
260,360,73037,1,2,0:0:0:0:
413,271,73171,2,0,P|458:273|502:282,1,89.9999976158143,2|2,0:0|0:0,0:0:0:0:
194,221,73438,2,0,P|174:180|160:138,1,89.9999976158143,8|0,0:0|0:0,0:0:0:0:
225,47,73706,1,2,0:0:0:0:
388,84,73840,22,0,P|375:126|354:166,1,89.9999976158143,2|0,0:0|0:0,0:0:0:0:
213,31,74108,1,2,0:0:0:0:
452,15,74242,2,0,L|498:24,2,44.9999988079071,8|8|8,0:0|0:0|0:0,0:0:0:0:
270,155,74510,22,0,L|281:244,1,89.9999976158143,8|0,0:0|0:0,0:0:0:0:
364,347,74778,1,2,0:0:0:0:
197,288,74912,1,0,0:0:0:0:
452,211,75046,21,2,0:0:0:0:
420,58,75179,1,0,0:0:0:0:
469,227,75313,2,0,L|455:315,1,89.9999976158143,0|2,0:0|0:0,0:0:0:0:
113,320,75581,22,0,L|197:288,1,89.9999976158143,8|0,0:0|0:0,0:0:0:0:
367,224,75849,1,2,0:0:0:0:
231,148,75983,1,2,0:0:0:0:
316,359,76117,21,2,0:0:0:0:
388,311,76251,2,0,B|260:329|260:329|229:378,1,179.999995231629,2|2,0:0|0:0,0:0:0:0:
465,251,76653,22,0,B|508:177|508:177|467:105,1,168.749995529652,8|0,0:0|0:0,0:0:0:0:
312,102,76921,2,0,B|269:176|269:176|311:247,1,168.749995529652,2|0,0:0|0:0,0:0:0:0:
387,178,77188,21,2,0:0:0:0:
224,62,77322,1,0,0:0:0:0:
236,298,77456,2,0,B|297:291|297:291|313:276|313:276|333:287|333:287|395:280,1,168.749995529652,2|0,0:0|0:0,0:0:0:0:
474,335,77724,21,8,0:0:0:0:
219,279,77858,2,0,L|230:212,1,67.5000007867814,0|0,0:0|0:0,0:0:0:0:
387,178,77992,2,0,L|377:111,1,67.5000007867814,0|0,0:0|0:0,0:0:0:0:
197,53,78126,1,0,0:0:0:0:
455,69,78260,22,0,B|398:60|398:60|347:84|347:84|283:72,1,179.999995231629,2|0,0:0|0:0,0:0:0:0:
107,33,78662,2,0,L|117:82,1,44.9999988079071,2|0,0:0|0:0,0:0:0:0:
144,233,78796,21,8,0:0:0:0:
42,160,78929,1,0,0:0:0:0:
250,209,79063,2,0,L|235:306,1,89.9999976158143,2|0,0:0|0:0,0:0:0:0:
31,139,79331,21,2,0:0:0:0:
48,330,79465,2,0,B|36:271|36:271|59:231|59:231|42:160,1,179.999995231629,0|0,0:0|0:0,0:0:0:0:
185,23,79867,2,0,L|275:32,1,89.9999976158143,8|0,0:0|0:0,0:0:0:0:
340,218,80135,2,0,L|251:208,1,89.9999976158143,0|0,0:0|0:0,0:0:0:0:
405,60,80403,22,0,L|452:54,3,44.9999988079071,2|0|0|0,0:0|0:0|0:0|0:0,0:0:0:0:
315,147,80671,2,0,L|268:141,3,44.9999988079071,2|0|0|0,0:0|0:0|0:0|0:0,0:0:0:0:
439,188,80938,21,8,0:0:0:0:
436,201,81005,1,0,0:0:0:0:
433,214,81072,1,0,0:0:0:0:
430,227,81139,1,0,0:0:0:0:
427,240,81206,2,0,L|435:294,1,44.9999988079071,0|0,0:0|0:0,0:0:0:0:
448,368,81340,1,2,0:0:0:0:
263,377,81474,21,2,0:0:0:0:
264,377,81742,2,0,P|255:332|252:287,1,89.9999976158143,0|2,0:0|0:0,0:0:0:0:
415,151,82010,2,0,P|425:195|427:240,1,89.9999976158143,8|0,0:0|0:0,0:0:0:0:
153,272,82278,1,2,0:0:0:0:
349,333,82412,1,0,0:0:0:0:
140,258,82546,22,0,B|6:278|6:278|53:295,1,179.999995231629,2|0,0:0|0:0,0:0:0:0:
220,180,82947,1,2,0:0:0:0:
64,85,83081,1,8,0:0:0:0:
60,72,83148,1,2,0:0:0:0:
56,59,83215,2,0,L|114:69,1,44.9999988079071,8|0,0:0|0:0,0:0:0:0:
203,75,83349,1,8,0:0:0:0:
39,172,83483,1,2,0:0:0:0:
203,335,83617,21,2,0:0:0:0:
139,257,83751,2,0,P|221:296|310:308,1,179.999995231629,8|2,0:0|0:0,0:0:0:0:
309,49,84153,21,8,0:0:0:0:
203,75,84287,2,0,P|292:87|372:126,1,179.999995231629,0|0,0:0|0:0,0:0:0:0:
405,374,84688,5,2,0:0:0:0:
448,332,84777,21,2,0:0:0:0:
453,274,84866,21,2,0:0:0:0:
419,226,84955,21,2,0:0:0:0:
377,184,85046,21,2,0:0:0:0:
372,126,85135,21,2,0:0:0:0:
406,78,85224,22,0,B|311:60|311:60|260:81|260:81|147:46|147:46|197:100|178:172,1,405.000004720688,4|0,0:0|0:0,0:0:0:0:
140,258,85760,21,4,0:0:0:0:
