osu file format v14

[General]
AudioFilename: audio.mp3
AudioLeadIn: 0
PreviewTime: 46
Countdown: 0
SampleSet: Soft
StackLeniency: 0.4
Mode: 0
LetterboxInBreaks: 0
WidescreenStoryboard: 0

[Editor]
Bookmarks: 34285,68571,85714
DistanceSpacing: 1
BeatDivisor: 4
GridSize: 8
TimelineZoom: 1.6

[Metadata]
Title:Fingerbang
TitleUnicode:Fingerbang
Artist:MDK
ArtistUnicode:MDK
Creator:CookieBite
Version:Another
Source:Geometry Dash
Tags:fingerdash 2.1 electronic dance edm Morgan David King DeRandom Otaku 6th LowComboFC JBHyperion
BeatmapID:1183336
BeatmapSetID:559525

[Difficulty]
HPDrainRate:6
CircleSize:4
OverallDifficulty:8.5
ApproachRate:9.4
SliderMultiplier:2.2
SliderTickRate:1

[Events]
//Background and Video events
0,0,"oops.jpg",0,0
//Break Periods
//Storyboard Layer 0 (Background)
//Storyboard Layer 1 (Fail)
//Storyboard Layer 2 (Pass)
//Storyboard Layer 3 (Foreground)
//Storyboard Sound Samples

[TimingPoints]
46,535.714285714286,4,2,77,40,1,0
5938,-142.857142857143,4,2,77,30,0,0
6474,-100,4,2,77,40,0,0
7813,-142.857142857143,4,2,77,50,0,0
8617,-83.3333333333333,4,2,1,50,0,0
10224,-100,4,2,77,50,0,0
10760,-83.3333333333333,4,2,1,50,0,0
11831,-100,4,2,77,50,0,0
12903,-83.3333333333333,4,2,1,50,0,0
13974,-100,4,2,1,50,0,0
14242,-100,4,2,77,50,0,0
14510,-142.857142857143,4,2,77,30,0,0
15046,-83.3333333333333,4,2,1,50,0,0
16117,-100,4,2,77,50,0,0
16653,-100,4,1,77,35,0,0
17188,-76.9230769230769,4,2,77,80,0,0
17322,-76.9230769230769,4,2,77,60,0,0
18796,-200,4,3,77,75,0,0
19197,-200,4,2,77,40,0,0
19331,-76.9230769230769,4,2,1,60,0,0
20804,-76.9230769230769,4,2,77,50,0,0
20938,-76.9230769230769,4,2,1,60,0,0
22947,-76.9230769230769,4,2,77,50,0,0
23081,-142.857142857143,4,3,77,50,0,0
23148,-142.857142857143,4,3,77,48,0,0
23215,-142.857142857143,4,3,77,46,0,0
23282,-142.857142857143,4,3,77,44,0,0
23349,-142.857142857143,4,3,77,42,0,0
23416,-142.857142857143,4,3,77,40,0,0
23483,-142.857142857143,4,3,77,38,0,0
23617,-76.9230769230769,4,2,1,60,0,0
24688,-62.5,4,2,1,60,0,0
25224,-142.857142857143,4,1,77,35,0,0
25626,-142.857142857143,4,2,1,40,0,0
25760,-76.9230769230769,4,2,1,50,0,0
30046,-71.4285714285714,4,2,1,52,0,0
30581,-71.4285714285714,4,2,1,54,0,0
31117,-71.4285714285714,4,2,1,56,0,0
31653,-71.4285714285714,4,2,1,58,0,0
32188,-68.9655172413793,4,2,1,60,0,0
33260,-142.857142857143,4,2,1,50,0,0
33796,-90.909090909091,4,1,77,40,0,0
34331,-62.5,4,2,1,70,0,1
34465,-62.5,4,2,1,60,0,1
34867,-66.6666666666667,4,2,1,60,0,1
36206,-55.5555555555556,4,2,77,40,0,1
36474,-66.6666666666667,4,2,1,60,0,1
36742,-58.8235294117647,4,2,1,60,0,1
37010,-66.6666666666667,4,2,1,60,0,1
37679,-58.8235294117647,4,2,1,60,0,1
38081,-52.6315789473684,4,2,1,60,0,1
38115,-52.6315789473684,4,2,77,60,0,1
38349,-52.6315789473684,4,2,1,60,0,1
38617,-66.6666666666667,4,2,1,60,0,1
38885,-55.5555555555556,4,2,77,50,0,1
39019,-55.5555555555556,4,2,1,60,0,1
39153,-62.5,4,2,1,60,0,1
39421,-52.6315789473684,4,2,77,50,0,1
39555,-52.6315789473684,4,2,1,60,0,1
39688,-66.6666666666667,4,2,1,60,0,1
39956,-55.5555555555556,4,2,77,50,0,1
40090,-55.5555555555556,4,2,1,60,0,1
40224,-62.5,4,2,1,60,0,1
40492,-52.6315789473684,4,2,77,50,0,1
40626,-52.6315789473684,4,2,1,60,0,1
40760,-62.5,4,2,1,60,0,1
42903,-125,4,3,77,60,0,0
42970,-125,4,3,77,50,0,0
43037,-125,4,2,78,80,0,0
43171,-125,4,3,77,50,0,0
43438,-66.6666666666667,4,2,1,60,0,1
44778,-66.6666666666667,4,2,77,40,0,1
45046,-66.6666666666667,4,2,1,60,0,1
45313,-66.6666666666667,4,2,77,50,0,1
45581,-66.6666666666667,4,2,1,60,0,1
46653,-66.6666666666667,4,2,1,50,0,1
46921,-66.6666666666667,4,2,1,60,0,1
47456,-55.5555555555556,4,2,77,50,0,1
47590,-55.5555555555556,4,2,1,60,0,1
47724,-62.5,4,2,1,60,0,1
47992,-52.6315789473684,4,2,77,50,0,1
48126,-52.6315789473684,4,2,1,60,0,1
48260,-66.6666666666667,4,2,1,60,0,1
48527,-66.6666666666667,4,2,77,50,0,1
48528,-55.5555555555556,4,2,77,50,0,1
48661,-55.5555555555556,4,2,1,60,0,1
48796,-62.5,4,2,1,50,0,1
49063,-52.6315789473684,4,2,77,50,0,1
49197,-52.6315789473684,4,2,1,60,0,1
49331,-66.6666666666667,4,2,1,60,0,1
50938,-55.5555555555556,4,3,77,80,0,1
51474,-71.4285714285714,4,2,1,60,0,0
51675,-71.4285714285714,4,2,1,50,0,0
55224,-58.8235294117647,4,2,1,50,0,0
55760,-71.4285714285714,4,2,1,50,0,0
58171,-58.8235294117647,4,2,77,50,0,0
58304,-58.8235294117647,4,2,1,50,0,0
58438,-66.6666666666667,4,2,1,50,0,0
58706,-55.5555555555556,4,2,77,50,0,0
58839,-55.5555555555556,4,2,1,50,0,0
58974,-71.4285714285714,4,2,1,50,0,0
59242,-58.8235294117647,4,2,77,50,0,0
59376,-58.8235294117647,4,2,1,50,0,0
59510,-100,4,1,77,35,0,0
59912,-100,4,2,1,40,0,0
60046,-71.4285714285714,4,2,1,50,0,0
63796,-142.857142857143,4,2,99,50,0,0
64197,-142.857142857143,4,2,1,50,0,0
64331,-71.4285714285714,4,2,1,50,0,0
66206,-71.4285714285714,4,2,77,40,0,0
66742,-58.8235294117647,4,2,77,60,0,0
66875,-58.8235294117647,4,2,1,60,0,0
67010,-66.6666666666667,4,2,1,60,0,0
67277,-66.6666666666667,4,2,77,60,0,0
67278,-55.5555555555556,4,2,77,60,0,0
67410,-55.5555555555556,4,2,1,60,0,0
67546,-71.4285714285714,4,2,1,60,0,0
67813,-58.8235294117647,4,2,77,60,0,0
67946,-58.8235294117647,4,2,1,60,0,0
68081,-100,4,1,77,35,0,0
68483,-100,4,2,1,40,0,0
68617,-66.6666666666667,4,2,1,60,0,0
68885,-66.6666666666667,4,2,77,50,0,0
69153,-58.8235294117647,4,2,1,60,0,0
69554,-58.8235294117647,4,2,77,60,0,0
69688,-90.9090909090909,4,2,1,60,0,0
70224,-55.5555555555556,4,2,1,60,0,0
70760,-66.6666666666667,4,2,1,60,0,0
72099,-66.6666666666667,4,2,77,60,0,0
72233,-66.6666666666667,4,2,1,60,0,0
72367,-100,4,2,1,60,0,0
72903,-66.6666666666667,4,2,1,60,0,0
74108,-58.8235294117647,4,2,1,60,0,0
74242,-58.8235294117647,4,2,77,40,0,0
74510,-66.6666666666667,4,2,1,60,0,0
75983,-52.6315789473684,4,2,1,60,0,0
76653,-55.5555555555556,4,2,1,60,0,0
77188,-66.6666666666667,4,2,1,60,0,0
77456,-55.5555555555556,4,2,77,60,0,0
77724,-55.5555555555556,4,2,1,60,0,0
78260,-71.4285714285714,4,2,1,60,0,0
78796,-62.5,4,2,1,60,0,0
79331,-66.6666666666667,4,2,1,60,0,0
80938,-100,4,2,1,50,0,0
81206,-100,4,2,1,60,0,0
81474,-66.6666666666667,4,2,1,60,0,0
81742,-55.5555555555556,4,2,1,60,0,0
82546,-66.6666666666667,4,2,1,60,0,0
83081,-100,4,2,1,60,0,0
83148,-100,4,2,77,50,0,0
83349,-100,4,2,1,60,0,0
83751,-66.6666666666667,4,2,77,50,0,0
83885,-66.6666666666667,4,2,1,60,0,0
85224,-50,4,3,77,60,0,0
85626,-50,4,2,77,30,0,0
85760,-100,4,2,77,80,0,0

[Colours]
Combo1 : 116,203,52
Combo2 : 166,96,251
Combo3 : 255,47,68
Combo4 : 107,153,228

[HitObjects]
128,64,46,6,0,B|140:128|140:128|112:176|112:176|128:272|128:272|160:224|160:224|152:168,1,330,4|0,0:0|0:0,0:0:0:0:
52,112,983,1,8,0:0:0:0:
320,64,1653,6,0,B|384:80|384:80|400:128|400:128|352:112,1,165,2|0,0:0|0:0,0:0:0:0:
390,210,2188,2,0,P|468:169|456:51,1,220,8|2,0:0|0:0,0:0:0:0:
262,205,2992,1,0,0:0:0:0:
262,205,3260,2,0,B|240:336|240:336|304:320|304:320|272:304,1,220,8|2,0:0|0:0,0:0:0:0:
40,161,4331,5,2,0:0:0:0:
124,137,4599,1,0,0:0:0:0:
173,210,4867,1,0,0:0:0:0:
119,279,5135,1,2,0:0:0:0:
37,249,5403,1,0,0:0:0:0:
108,187,5671,1,0,0:0:0:0:
199,287,5938,2,0,L|201:334,3,38.4999988250733,8|8|2|2,0:0|0:0|0:0|0:0,0:0:0:0:
300,239,6474,6,0,B|240:230|240:230|194:251|194:251|137:241,2,165,2|0|0,0:0|0:0|0:0,0:0:0:0:
412,319,7546,1,2,0:0:0:0:
504,213,7813,6,0,L|501:242,3,19.2499994125366,2|2|2|2,0:0|0:0|0:0|0:0,0:0:0:0:
508,189,8081,1,8,0:0:0:0:
410,233,8215,1,0,0:0:0:0:
420,127,8349,1,2,0:0:0:0:
420,127,8617,6,0,P|369:161|296:143,1,131.99999597168,8|2,0:0|0:0,0:0:0:0:
270,72,9019,2,0,B|370:60|370:60|350:88,1,131.99999597168,8|2,0:0|0:0,0:0:0:0:
254,219,9421,1,8,0:0:0:0:
254,219,10224,6,0,P|191:206|124:274,1,165,8|0,0:0|0:0,0:0:0:0:
200,350,10760,6,0,B|205:281,1,65.9999979858399,8|2,0:0|0:0,0:0:0:0:
25,202,11028,1,2,0:0:0:0:
25,202,11162,2,0,P|86:216|125:277,1,131.99999597168,8|2,0:0|0:0,0:0:0:0:
36,293,11563,1,8,0:0:0:0:
332,270,11831,2,0,B|252:254|252:254|188:286|188:286|124:270,1,220,8|2,0:0|0:0,0:0:0:0:
123,269,12903,6,0,B|188:286|188:286|249:255,1,131.99999597168,8|2,0:0|0:0,0:0:0:0:
226,48,13304,2,0,B|202:80|202:80|218:176,1,131.99999597168,8|2,0:0|0:0,0:0:0:0:
386,221,13706,1,8,0:0:0:0:
285,116,13974,1,0,0:0:0:0:
245,256,14242,1,2,0:0:0:0:
394,333,14510,2,0,L|390:287,3,38.4999988250733,8|8|2|2,0:0|0:0|0:0|0:0,0:0:0:0:
284,360,15046,6,0,B|229:350|229:350|210:337|210:337|151:328,1,131.99999597168,8|2,0:0|0:0,0:0:0:0:
188,256,15447,2,0,B|241:264|241:264|259:276|259:276|314:286,1,131.99999597168,8|2,0:0|0:0,0:0:0:0:
388,256,15849,1,8,0:0:0:0:
216,172,16117,5,8,0:0:0:0:
122,203,16653,5,4,0:0:0:0:
111,302,17188,6,0,B|152:292|152:292|248:320,1,142.99999345398,4|0,0:0|0:0,0:0:0:0:
380,176,17590,2,0,P|316:176|268:248,1,142.99999345398,2|0,0:0|0:0,0:0:0:0:
365,384,17992,2,0,B|375:343|375:343|347:247,1,142.99999345398,8|0,0:0|0:0,0:0:0:0:
211,123,18394,2,0,P|213:192|268:233,1,142.99999345398,8|0,0:0|0:0,0:0:0:0:
235,50,18796,6,0,B|211:42|211:42|179:50|179:50|155:42,1,82.5,4|0,0:0|0:0,0:0:0:0:
268,233,19331,6,0,B|304:242|304:242|339:228,1,71.4999967269899,8|2,0:0|0:0,0:0:0:0:
240,55,19599,1,2,0:0:0:0:
240,55,19733,2,0,P|227:91|225:130,1,71.4999967269899,8|0,0:0|0:0,0:0:0:0:
394,149,20001,1,0,0:0:0:0:
394,149,20135,2,0,P|390:113|378:80,1,71.4999967269899,8|2,0:0|0:0,0:0:0:0:
324,198,20403,1,2,0:0:0:0:
324,198,20537,2,0,P|386:232|456:208,1,142.99999345398,8|8,0:0|0:0,0:0:0:0:
284,127,20938,2,0,P|254:156|243:198,1,71.4999967269899,8|0,0:0|0:0,0:0:0:0:
335,266,21206,2,0,P|337:230|323:197,1,71.4999967269899,8|0,0:0|0:0,0:0:0:0:
265,304,21474,6,0,B|302:346|302:346|393:339,1,142.99999345398,8|2,0:0|0:0,0:0:0:0:
240,216,21876,2,0,B|192:248|192:248|181:279|181:279|133:311,1,142.99999345398,8|0,0:0|0:0,0:0:0:0:
0,182,22278,2,0,P|60:175|120:229,1,142.99999345398,8|2,0:0|0:0,0:0:0:0:
52,334,22679,2,0,B|21:358|21:358|41:245,1,142.99999345398,8|8,0:0|0:0,0:0:0:0:
139,327,23081,6,0,L|136:300,6,19.2499994125366,8|8|8|8|8|8|8,0:0|0:0|0:0|0:0|0:0|0:0|0:0,0:0:0:0:
189,217,23617,6,0,B|214:209|214:209|258:214,1,71.4999967269899,8|2,0:0|0:0,0:0:0:0:
389,306,23885,1,2,0:0:0:0:
389,306,24019,2,0,P|364:330|326:343,1,71.4999967269899,8|2,0:0|0:0,0:0:0:0:
336,165,24287,1,2,0:0:0:0:
337,166,24421,2,0,P|370:178|396:202,1,71.4999967269899,8|0,0:0|0:0,0:0:0:0:
253,201,24688,6,0,P|247:154|266:109,1,88,8|2,0:0|0:0,0:0:0:0:
304,289,24956,2,0,P|262:303|219:296,1,88,8|2,0:0|0:0,0:0:0:0:
337,166,25224,6,0,B|370:195|365:239|365:239|383:224|401:219,1,115.49999647522,4|0,0:0|0:0,0:0:0:0:
439,334,25760,6,0,B|416:350|416:350|288:338,1,142.99999345398,8|0,0:0|0:0,0:0:0:0:
124,241,26162,2,0,B|238:230|238:230|261:246,1,142.99999345398,8|0,0:0|0:0,0:0:0:0:
82,309,26563,2,0,P|43:244|69:180,1,142.99999345398,8|0,0:0|0:0,0:0:0:0:
238,230,26965,2,0,B|262:248|262:248|270:367,1,142.99999345398,8|0,0:0|0:0,0:0:0:0:
148,152,27367,2,0,L|210:118,1,71.4999967269899,8|2,0:0|0:0,0:0:0:0:
151,286,27635,2,0,L|89:252,1,71.4999967269899,8|2,0:0|0:0,0:0:0:0:
238,230,27903,6,0,P|294:219|358:286,1,142.99999345398,8|0,0:0|0:0,0:0:0:0:
260,365,28304,2,0,B|219:376|219:376|285:291,1,142.99999345398,8|0,0:0|0:0,0:0:0:0:
440,154,28706,2,0,B|481:143|481:143|415:228,1,142.99999345398,8|0,0:0|0:0,0:0:0:0:
200,244,29108,2,0,P|267:203|330:211,1,142.99999345398,8|0,0:0|0:0,0:0:0:0:
199,344,29510,2,0,L|126:329,1,71.4999967269899,8|2,0:0|0:0,0:0:0:0:
286,311,29778,2,0,L|356:296,1,71.4999967269899,8|2,0:0|0:0,0:0:0:0:
373,314,29979,1,0,0:0:0:0:
390,328,30046,6,0,P|401:288|398:246,1,76.9999976501466,8|0,0:0|0:0,0:0:0:0:
249,306,30313,2,0,P|272:336|304:357,1,76.9999976501466,8|0,0:0|0:0,0:0:0:0:
259,199,30581,6,0,B|209:193|209:193|175:211,1,76.9999976501466,8|0,0:0|0:0,0:0:0:0:
305,358,30849,2,0,B|355:364|355:364|389:346,1,76.9999976501466,8|0,0:0|0:0,0:0:0:0:
241,280,31117,6,0,P|217:306|202:346,1,76.9999976501466,8|0,0:0|0:0,0:0:0:0:
349,185,31385,2,0,P|335:149|310:120,1,76.9999976501466,8|0,0:0|0:0,0:0:0:0:
355,296,31653,6,0,B|381:304|381:304|437:297,1,76.9999976501466,8|0,0:0|0:0,0:0:0:0:
239,193,31921,2,0,B|213:185|213:185|157:192,1,76.9999976501466,8|0,0:0|0:0,0:0:0:0:
385,133,32188,5,8,0:0:0:0:
401,38,32322,1,8,0:0:0:0:
307,22,32456,1,8,0:0:0:0:
290,116,32590,1,8,0:0:0:0:
408,128,32724,5,8,0:0:0:0:
397,15,32858,1,8,0:0:0:0:
286,25,32992,1,8,0:0:0:0:
296,137,33126,1,8,0:0:0:0:
431,116,33260,6,0,L|427:148,6,19.2499994125366,8|8|8|8|8|8|8,0:0|0:0|0:0|0:0|0:0|0:0|0:0,0:0:0:0:
390,216,33796,6,0,B|449:235|478:217|499:199|499:199|479:230|479:261,1,181.500005538941,4|0,0:0|0:0,0:0:0:0:
495,71,34331,6,0,P|456:43|411:40,1,88,4|0,0:0|0:0,0:0:0:0:
312,249,34599,2,0,P|355:243|389:216,1,88,0|0,0:0|0:0,0:0:0:0:
243,126,34867,1,8,0:0:0:0:
184,301,35001,2,0,L|231:297,1,41.2500015735627,0|0,0:0|0:0,0:0:0:0:
159,283,35135,2,0,L|206:279,1,41.2500015735627,0|0,0:0|0:0,0:0:0:0:
135,262,35269,2,0,L|182:258,1,41.2500015735627,0|0,0:0|0:0,0:0:0:0:
99,101,35403,5,2,0:0:0:0:
61,224,35537,1,0,0:0:0:0:
243,126,35671,1,0,0:0:0:0:
135,262,35804,1,0,0:0:0:0:
267,253,35938,6,0,B|296:243|296:243|353:254,1,82.5000031471254,8|0,0:0|0:0,0:0:0:0:
252,372,36206,2,0,B|220:368|220:368|205:359|205:359|188:365|188:365|156:361,1,98.9999969787599,8|8,0:0|0:0,0:0:0:0:
188,147,36474,6,0,B|198:170|198:170|189:236,1,82.5000031471254,2|0,0:0|0:0,0:0:0:0:
33,257,36742,2,0,P|72:221|121:212,1,93.500001783371,0|0,0:0|0:0,0:0:0:0:
252,372,37010,1,8,0:0:0:0:
32,336,37144,2,0,L|28:386,1,41.2500015735627,0|0,0:0|0:0,0:0:0:0:
69,319,37278,2,0,L|65:369,1,41.2500015735627,0|0,0:0|0:0,0:0:0:0:
106,301,37412,2,0,L|102:351,1,41.2500015735627,0|0,0:0|0:0,0:0:0:0:
202,239,37546,5,2,0:0:0:0:
360,296,37679,2,0,B|328:304|328:304|296:296|296:296|264:304,2,93.500001783371,0|0|0,0:0|0:0|0:0,0:0:0:0:
373,177,38081,2,0,B|360:145|360:145|335:235,1,104.499997209549,8|0,0:0|0:0,0:0:0:0:
440,348,38349,2,0,B|453:380|453:380|478:290,1,104.499997209549,0|2,0:0|0:0,0:0:0:0:
360,296,38617,6,0,P|347:326|350:376,1,82.5000031471254,2|0,0:0|0:0,0:0:0:0:
469,185,38885,2,0,B|437:177|437:177|405:185|405:185|373:177,1,98.9999969787599,2|0,0:0|0:0,0:0:0:0:
288,48,39153,6,0,P|272:80|264:136,1,88,8|0,0:0|0:0,0:0:0:0:
255,340,39421,2,0,B|279:316|279:316|287:244,1,104.499997209549,8|0,0:0|0:0,0:0:0:0:
90,322,39688,6,0,P|132:353|177:359,1,82.5000031471254,2|0,0:0|0:0,0:0:0:0:
128,184,39956,2,0,B|96:176|96:176|64:184|64:184|32:176,1,98.9999969787599,8|0,0:0|0:0,0:0:0:0:
207,111,40224,6,0,P|229:148|235:191,1,88,8|0,0:0|0:0,0:0:0:0:
364,297,40492,2,0,P|371:246|402:205,1,104.499997209549,2|0,0:0|0:0,0:0:0:0:
255,340,40760,6,0,B|223:348|223:348|199:340|199:340|167:348,1,88,2|0,0:0|0:0,0:0:0:0:
141,190,41028,2,0,P|175:224|187:266,1,88,0|0,0:0|0:0,0:0:0:0:
82,354,41296,2,0,B|77:294|77:294|92:271,1,88,8|0,0:0|0:0,0:0:0:0:
151,106,41563,2,0,B|156:166|156:166|141:189,1,88,0|0,0:0|0:0,0:0:0:0:
48,81,41831,6,0,P|75:33|109:11,1,88,2|0,0:0|0:0,0:0:0:0:
121,282,42099,2,0,P|73:255|51:221,1,88,0|0,0:0|0:0,0:0:0:0:
189,115,42367,2,0,B|197:144|197:144|185:207,1,88,8|0,0:0|0:0,0:0:0:0:
51,314,42635,2,0,B|43:285|43:285|55:222,1,88,0|2,0:0|0:0,0:0:0:0:
194,326,42903,6,0,L|188:373,3,44,8|2|8|0,0:0|0:0|0:0|0:0,0:0:0:0:
288,208,43438,6,0,B|312:200|312:200|344:208|344:208|368:200,1,82.5000031471254,8|0,0:0|0:0,0:0:0:0:
222,152,43706,2,0,P|204:191|207:235,1,82.5000031471254,0|0,0:0|0:0,0:0:0:0:
326,303,43974,1,2,0:0:0:0:
344,125,44108,1,0,0:0:0:0:
429,269,44242,2,0,B|471:263|471:263|504:234,1,82.5000031471254,0|0,0:0|0:0,0:0:0:0:
333,223,44510,2,0,P|320:269|329:312,1,82.5000031471254,8|0,0:0|0:0,0:0:0:0:
433,153,44778,2,0,P|437:112|425:73,1,82.5000031471254,8|8,0:0|0:0,0:0:0:0:
264,119,45046,6,0,B|293:131|293:131|350:124,1,82.5000031471254,2|0,0:0|0:0,0:0:0:0:
208,48,45313,2,0,B|184:40|184:40|152:48|152:48|128:40,1,82.5000031471254,2|2,0:0|0:0,0:0:0:0:
36,97,45581,1,8,0:0:0:0:
205,184,45715,2,0,L|206:225,1,41.2500015735627,0|0,0:0|0:0,0:0:0:0:
172,169,45849,2,0,L|173:210,1,41.2500015735627,0|0,0:0|0:0,0:0:0:0:
135,156,45983,2,0,L|136:197,1,41.2500015735627,0|0,0:0|0:0,0:0:0:0:
36,97,46117,5,2,0:0:0:0:
210,42,46251,2,0,B|149:35|149:35|108:47,2,82.5000031471254,0|0|0,0:0|0:0|0:0,0:0:0:0:
262,183,46653,2,0,P|232:159|213:120,1,82.5000031471254,8|2,0:0|0:0,0:0:0:0:
325,11,46921,1,0,0:0:0:0:
303,101,47054,1,2,0:0:0:0:
354,255,47188,6,0,L|441:250,1,82.5000031471254,2|0,0:0|0:0,0:0:0:0:
262,183,47456,2,0,B|230:175|230:175|198:183|198:183|166:175,1,98.9999969787599,2|2,0:0|0:0,0:0:0:0:
197,338,47724,6,0,P|231:298|238:248,1,88,8|0,0:0|0:0,0:0:0:0:
202,3,47992,2,0,B|188:29|188:29|192:103,1,104.499997209549,8|0,0:0|0:0,0:0:0:0:
358,112,48260,6,0,P|324:94|276:98,1,82.5000031471254,2|0,0:0|0:0,0:0:0:0:
401,228,48528,2,0,B|433:220|433:220|465:228|465:228|497:220,1,98.9999969787599,8|2,0:0|0:0,0:0:0:0:
294,276,48796,6,0,B|283:303|283:303|291:361,1,88,8|0,0:0|0:0,0:0:0:0:
157,200,49063,2,0,B|178:160|178:160|170:102,1,104.499997209549,2|0,0:0|0:0,0:0:0:0:
52,309,49331,6,0,P|95:310|131:288,1,82.5000031471254,2|0,0:0|0:0,0:0:0:0:
169,101,49599,2,0,P|128:99|92:119,1,82.5000031471254,0|0,0:0|0:0,0:0:0:0:
242,209,49867,2,0,B|273:216|273:216|322:201,1,82.5000031471254,8|0,0:0|0:0,0:0:0:0:
374,49,50135,2,0,B|343:42|343:42|294:57,1,82.5000031471254,0|0,0:0|0:0,0:0:0:0:
477,269,50403,6,0,L|466:216,2,55.0000020980836,2|2|2,0:0|0:0|0:0,0:0:0:0:
399,170,50671,2,0,L|410:117,2,55.0000020980836,2|2|2,0:0|0:0|0:0,0:0:0:0:
511,63,50938,6,0,B|485:54|485:54|452:58,1,49.4999984893799,10|0,0:0|0:0,0:0:0:0:
471,22,51072,2,0,B|443:27|443:27|417:47,1,49.4999984893799,8|0,0:0|0:0,0:0:0:0:
407,10,51206,2,0,B|386:28|386:28|373:58,1,49.4999984893799,8|0,0:0|0:0,0:0:0:0:
354,21,51340,2,0,B|345:46|345:46|349:80,1,49.4999984893799,8|0,0:0|0:0,0:0:0:0:
320,72,51474,6,0,B|313:114|313:114|351:218,1,153.999995300293,6|0,0:0|0:0,0:0:0:0:
476,283,51876,1,2,0:0:0:0:
476,283,52010,2,0,B|456:241|456:241|348:218,1,153.999995300293,8|0,0:0|0:0,0:0:0:0:
200,139,52546,6,0,P|262:114|291:36,1,153.999995300293,2|2,0:0|0:0,0:0:0:0:
113,90,52947,1,0,0:0:0:0:
113,90,53081,2,0,L|102:170,1,76.9999976501466,8|2,0:0|0:0,0:0:0:0:
221,265,53349,2,0,L|210:188,1,76.9999976501466,2|0,0:0|0:0,0:0:0:0:
152,313,53617,6,0,P|209:350|285:320,1,153.999995300293,2|2,0:0|0:0,0:0:0:0:
130,188,54019,1,2,0:0:0:0:
70,255,54153,2,0,L|61:335,1,76.9999976501466,8|2,0:0|0:0,0:0:0:0:
221,265,54421,2,0,L|212:188,1,76.9999976501466,2|0,0:0|0:0,0:0:0:0:
198,59,54688,5,2,0:0:0:0:
213,71,54956,2,0,P|245:65|282:36,1,76.9999976501466,0|2,0:0|0:0,0:0:0:0:
111,21,55224,6,0,B|101:44|101:44|111:116,1,93.500001783371,8|0,0:0|0:0,0:0:0:0:
298,214,55492,2,0,B|308:191|308:191|298:123,1,93.500001783371,0|2,0:0|0:0,0:0:0:0:
212,182,55760,6,0,P|219:262|293:303,1,153.999995300293,2|0,0:0|0:0,0:0:0:0:
426,176,56162,1,2,0:0:0:0:
426,176,56296,2,0,L|433:100,1,76.9999976501466,8|0,0:0|0:0,0:0:0:0:
290,137,56563,2,0,L|297:213,1,76.9999976501466,2|0,0:0|0:0,0:0:0:0:
206,310,56831,6,0,P|166:308|129:332,1,76.9999976501466,2|2,0:0|0:0,0:0:0:0:
297,213,57099,2,0,P|318:179|316:135,1,76.9999976501466,0|0,0:0|0:0,0:0:0:0:
347,341,57367,2,0,P|412:351|478:296,1,153.999995300293,8|2,0:0|0:0,0:0:0:0:
393,261,57769,1,0,0:0:0:0:
247,331,57903,6,0,L|255:251,1,76.9999976501466,2|0,0:0|0:0,0:0:0:0:
138,110,58171,2,0,L|150:204,1,93.500001783371,2|0,0:0|0:0,0:0:0:0:
291,46,58438,6,0,P|255:33|202:38,1,82.5000031471254,2|0,0:0|0:0,0:0:0:0:
382,136,58706,2,0,B|411:145|411:145|480:127,1,98.9999969787599,8|0,0:0|0:0,0:0:0:0:
236,154,58974,6,0,P|207:188|193:238,1,76.9999976501466,2|0,0:0|0:0,0:0:0:0:
371,328,59242,2,0,P|356:292|316:251,1,93.500001783371,8|0,0:0|0:0,0:0:0:0:
118,339,59510,6,0,B|157:359|157:359|278:335,1,165,4|0,0:0|0:0,0:0:0:0:
109,234,60046,6,0,P|48:259|16:349,1,153.999995300293,2|0,0:0|0:0,0:0:0:0:
202,267,60447,1,2,0:0:0:0:
202,267,60581,2,0,P|209:227|192:183,1,76.9999976501466,8|0,0:0|0:0,0:0:0:0:
77,84,60849,2,0,P|70:124|87:168,1,76.9999976501466,0|0,0:0|0:0,0:0:0:0:
231,344,61117,6,0,B|274:330|274:330|388:342,1,153.999995300293,2|2,0:0|0:0,0:0:0:0:
503,249,61519,1,0,0:0:0:0:
503,249,61653,2,0,L|421:240,1,76.9999976501466,8|2,0:0|0:0,0:0:0:0:
385,89,61921,2,0,L|461:97,1,76.9999976501466,2|0,0:0|0:0,0:0:0:0:
294,175,62188,6,0,P|259:111|275:32,1,153.999995300293,2|2,0:0|0:0,0:0:0:0:
454,216,62590,1,2,0:0:0:0:
454,216,62724,2,0,L|376:220,1,76.9999976501466,8|0,0:0|0:0,0:0:0:0:
308,350,62992,2,0,L|384:346,1,76.9999976501466,2|0,0:0|0:0,0:0:0:0:
197,155,63260,5,2,0:0:0:0:
176,252,63394,1,2,0:0:0:0:
274,273,63528,1,2,0:0:0:0:
294,175,63662,1,0,0:0:0:0:
176,252,63796,2,0,L|179:280,4,19.2499994125366,10|2|2|2|2,0:0|0:0|0:0|0:0|0:0,0:0:0:0:
192,42,64197,5,2,0:0:0:0:
235,196,64331,2,0,P|311:194|367:139,1,153.999995300293,2|0,0:0|0:0,0:0:0:0:
110,65,64733,1,2,0:0:0:0:
110,65,64867,2,0,L|103:148,1,76.9999976501466,8|0,0:0|0:0,0:0:0:0:
241,272,65135,2,0,L|235:194,1,76.9999976501466,0|0,0:0|0:0,0:0:0:0:
59,317,65403,6,0,P|117:378|193:375,1,153.999995300293,2|2,0:0|0:0,0:0:0:0:
97,225,65804,1,0,0:0:0:0:
97,225,65938,2,0,L|20:230,1,76.9999976501466,8|2,0:0|0:0,0:0:0:0:
82,85,66206,2,0,L|159:90,1,76.9999976501466,2|0,0:0|0:0,0:0:0:0:
274,181,66474,6,0,B|266:208|266:208|276:270,1,76.9999976501466,2|0,0:0|0:0,0:0:0:0:
450,331,66742,2,0,B|458:304|458:304|448:239,1,93.500001783371,2|0,0:0|0:0,0:0:0:0:
301,346,67010,6,0,P|335:366|378:370,1,82.5000031471254,2|0,0:0|0:0,0:0:0:0:
378,125,67278,2,0,P|337:128|287:161,1,98.9999969787599,8|0,0:0|0:0,0:0:0:0:
492,191,67546,6,0,B|503:163|503:163|496:115,1,76.9999976501466,2|0,0:0|0:0,0:0:0:0:
227,280,67813,2,0,B|216:308|216:308|227:371,1,93.500001783371,8|0,0:0|0:0,0:0:0:0:
467,342,68081,6,0,B|433:321|433:321|306:334,1,165,4|0,0:0|0:0,0:0:0:0:
153,206,68617,6,0,P|229:198|295:252,1,165.000006294251,6|0,0:0|0:0,0:0:0:0:
75,343,69019,1,0,0:0:0:0:
75,343,69153,2,0,B|4:336|4:336|20:322,1,93.500001783371,8|0,0:0|0:0,0:0:0:0:
98,184,69421,2,0,B|169:191|169:191|153:205,1,93.500001783371,0|8,0:0|0:0,0:0:0:0:
248,351,69688,6,0,B|140:303|177:389|69:340,1,181.500005538941,0|2,0:0|0:0,0:0:0:0:
248,351,70224,2,0,P|293:355|342:325,1,98.9999969787599,8|0,0:0|0:0,0:0:0:0:
298,160,70492,2,0,P|253:156|204:186,1,98.9999969787599,2|0,0:0|0:0,0:0:0:0:
332,247,70760,6,0,P|380:201|374:109,1,165.000006294251,2|0,0:0|0:0,0:0:0:0:
205,35,71162,1,2,0:0:0:0:
298,160,71296,1,8,0:0:0:0:
298,160,71563,2,0,P|258:190|239:232,1,82.5000031471254,2|0,0:0|0:0,0:0:0:0:
432,365,71831,5,2,0:0:0:0:
439,258,71965,1,2,0:0:0:0:
325,357,72099,1,8,0:0:0:0:
332,250,72233,1,2,0:0:0:0:
511,327,72367,2,0,L|513:291,3,27.5,8|0|0|0,0:0|0:0|0:0|0:0,0:0:0:0:
437,230,72635,2,0,L|439:266,3,27.5,8|0|2|0,0:0|0:0|0:0|0:0,0:0:0:0:
500,52,72903,5,2,0:0:0:0:
487,166,73037,1,2,0:0:0:0:
385,39,73171,1,2,0:0:0:0:
373,154,73304,1,2,0:0:0:0:
155,140,73438,2,0,P|222:81|295:92,1,165.000006294251,8|2,0:0|0:0,0:0:0:0:
82,212,73840,2,0,P|56:172|53:124,1,82.5000031471254,2|0,0:0|0:0,0:0:0:0:
291,90,74108,2,0,B|309:130|309:130|290:273,1,187.000003566742,2|8,0:0|0:0,0:0:0:0:
50,138,74510,6,0,P|64:98|88:61,1,82.5000031471254,8|0,0:0|0:0,0:0:0:0:
325,198,74778,2,0,P|311:238|287:275,1,82.5000031471254,2|0,0:0|0:0,0:0:0:0:
34,331,75046,5,2,0:0:0:0:
147,353,75179,1,0,0:0:0:0:
56,217,75313,1,0,0:0:0:0:
169,239,75447,1,2,0:0:0:0:
71,58,75581,2,0,B|55:112|55:112|71:160|71:160|55:216,1,165.000006294251,8|2,0:0|0:0,0:0:0:0:
283,33,75983,2,0,P|318:60|210:55,1,313.499991628647,2|0,0:0|0:0,0:0:0:0:
279,344,76519,5,2,0:0:0:0:
279,344,76653,2,0,L|271:221,1,98.9999969787599,8|0,0:0|0:0,0:0:0:0:
481,269,76921,2,0,L|474:367,1,98.9999969787599,2|0,0:0|0:0,0:0:0:0:
200,381,77188,6,0,P|152:371|124:355,1,82.5000031471254,2|0,0:0|0:0,0:0:0:0:
236,137,77456,2,0,B|244:163|244:163|236:242,1,98.9999969787599,2|0,0:0|0:0,0:0:0:0:
36,130,77724,1,8,0:0:0:0:
158,155,77858,1,0,0:0:0:0:
9,252,77992,1,0,0:0:0:0:
132,278,78126,1,0,0:0:0:0:
106,13,78260,2,0,P|80:86|173:41,1,230.99999295044,2|2,0:0|0:0,0:0:0:0:
96,208,78796,5,8,0:0:0:0:
126,61,78929,1,0,0:0:0:0:
240,238,79063,1,2,0:0:0:0:
272,93,79197,1,0,0:0:0:0:
480,225,79331,6,0,P|442:242|395:246,1,82.5000031471254,2|0,0:0|0:0,0:0:0:0:
246,145,79599,1,0,0:0:0:0:
378,240,79733,1,0,0:0:0:0:
234,312,79867,2,0,B|190:308|190:308|156:280,1,82.5000031471254,8|0,0:0|0:0,0:0:0:0:
378,240,80135,2,0,B|422:244|422:244|456:272,1,82.5000031471254,0|0,0:0|0:0,0:0:0:0:
141,268,80403,1,2,0:0:0:0:
279,287,80537,1,0,0:0:0:0:
299,148,80671,1,2,0:0:0:0:
160,129,80804,1,0,0:0:0:0:
280,38,80938,6,0,L|283:65,3,27.5,8|0|0|0,0:0|0:0|0:0|0:0,0:0:0:0:
387,120,81206,2,0,L|390:93,3,27.5,0|0|2|0,0:0|0:0|0:0|0:0,0:0:0:0:
245,219,81474,6,0,P|208:217|162:185,1,82.5000031471254,2|0,0:0|0:0,0:0:0:0:
387,120,81742,6,0,B|403:160|403:160|395:224,1,98.9999969787599,0|2,0:0|0:0,0:0:0:0:
253,362,82010,2,0,P|269:310|306:279,1,98.9999969787599,8|0,0:0|0:0,0:0:0:0:
506,322,82278,2,0,B|474:330|474:330|442:322|442:322|410:330,1,98.9999969787599,2|0,0:0|0:0,0:0:0:0:
309,200,82546,1,2,0:0:0:0:
334,355,82679,1,0,0:0:0:0:
208,233,82813,1,0,0:0:0:0:
228,355,82947,1,2,0:0:0:0:
95,316,83081,2,0,L|129:320,3,27.5,8|2|8|0,0:0|0:0|0:0|0:0,0:0:0:0:
155,146,83349,5,8,0:0:0:0:
14,242,83483,2,0,L|5:176,1,55,2|2,0:0|0:0,0:0:0:0:
95,316,83751,6,0,B|135:333|135:333|257:308,1,165.000006294251,8|2,0:0|0:0,0:0:0:0:
294,86,84153,1,8,0:0:0:0:
350,234,84287,1,0,0:0:0:0:
164,126,84421,2,0,P|150:93|152:45,1,82.5000031471254,2|0,0:0|0:0,0:0:0:0:
294,304,84688,6,0,P|264:300|236:298,2,55.0000020980836,2|2|2,0:0|0:0|0:0,0:0:0:0:
175,341,84956,2,0,P|147:343|120:346,2,55.0000020980836,2|2|2,0:0|0:0|0:0,0:0:0:0:
58,297,85224,6,0,B|87:285|114:309|110:358|38:390|-2:350|-10:286|30:238|30:238|14:182|14:182|30:126,1,330,4|0,0:0|0:0,0:0:0:0:
256,72,85760,5,4,0:0:0:0:
