osu file format v14

[General]
AudioFilename: audio.mp3
AudioLeadIn: 0
PreviewTime: 46
Countdown: 0
SampleSet: Soft
StackLeniency: 0.3
Mode: 0
LetterboxInBreaks: 0
WidescreenStoryboard: 0

[Editor]
Bookmarks: 17188,25760,34285,68571,85760
DistanceSpacing: 1.2
BeatDivisor: 4
GridSize: 8
TimelineZoom: 2.1

[Metadata]
Title:Fingerbang
TitleUnicode:Fingerbang
Artist:MDK
ArtistUnicode:MDK
Creator:CookieBite
Version:Advanced
Source:Geometry Dash
Tags:fingerdash 2.1 electronic dance edm Morgan David King DeRandom Otaku 6th LowComboFC JBHyperion
BeatmapID:1296187
BeatmapSetID:559525

[Difficulty]
HPDrainRate:5
CircleSize:4
OverallDifficulty:5
ApproachRate:7
SliderMultiplier:1.72
SliderTickRate:1

[Events]
//Background and Video events
0,0,"oops.jpg",0,0
//Break Periods
//Storyboard Layer 0 (Background)
//Storyboard Layer 1 (Fail)
//Storyboard Layer 2 (Pass)
//Storyboard Layer 3 (Foreground)
//Storyboard Sound Samples

[TimingPoints]
46,535.714285714286,4,2,77,40,1,0
46,-133.333333333333,4,2,77,40,0,0
5938,-133.333333333333,4,2,77,30,0,0
6474,-133.333333333333,4,2,77,40,0,0
7813,-100,4,2,77,50,0,0
8617,-100,4,2,1,50,0,0
9956,-100,4,2,77,50,0,0
10760,-100,4,2,1,50,0,0
11831,-100,4,2,77,50,0,0
12903,-100,4,2,1,50,0,0
14242,-100,4,2,77,50,0,0
14510,-100,4,2,77,30,0,0
15046,-100,4,2,1,50,0,0
16117,-100,4,2,77,50,0,0
16653,-100,4,1,77,35,0,0
17188,-100,4,2,77,80,0,0
17322,-100,4,2,77,60,0,0
18796,-100,4,3,77,75,0,0
19197,-100,4,2,77,40,0,0
19331,-100,4,2,1,60,0,0
20804,-100,4,2,77,50,0,0
20938,-100,4,2,1,60,0,0
22947,-100,4,2,77,50,0,0
23081,-100,4,3,77,50,0,0
23148,-100,4,3,77,48,0,0
23215,-100,4,3,77,46,0,0
23282,-100,4,3,77,44,0,0
23349,-100,4,3,77,42,0,0
23416,-100,4,3,77,40,0,0
23483,-100,4,3,77,38,0,0
23617,-100,4,2,1,60,0,0
25224,-100,4,1,77,35,0,0
25626,-100,4,2,1,40,0,0
25760,-100,4,2,1,50,0,0
30046,-100,4,2,1,52,0,0
30581,-100,4,2,1,54,0,0
31117,-100,4,2,1,56,0,0
31653,-100,4,2,1,58,0,0
32188,-100,4,2,1,60,0,0
33260,-100,4,2,1,50,0,0
33796,-100,4,1,77,40,0,0
34331,-90.9090909090909,4,2,1,70,0,1
34465,-90.9090909090909,4,2,1,60,0,1
36206,-90.9090909090909,4,2,77,40,0,1
36474,-90.9090909090909,4,2,1,60,0,1
38885,-90.9090909090909,4,2,77,50,0,1
39153,-90.9090909090909,4,2,1,60,0,1
39421,-90.9090909090909,4,2,77,50,0,1
39688,-90.9090909090909,4,2,1,60,0,1
39956,-90.9090909090909,4,2,77,50,0,1
40224,-90.9090909090909,4,2,1,60,0,1
40492,-90.9090909090909,4,2,77,50,0,1
40760,-90.9090909090909,4,2,1,60,0,1
42903,-100,4,3,77,60,0,0
42970,-100,4,3,77,50,0,0
43037,-100,4,2,78,80,0,0
43171,-100,4,3,77,50,0,0
43438,-90.9090909090909,4,2,1,60,0,1
44778,-90.9090909090909,4,2,77,40,0,1
45046,-90.9090909090909,4,2,1,60,0,1
45313,-90.9090909090909,4,2,77,50,0,1
45581,-90.9090909090909,4,2,1,60,0,1
46653,-90.9090909090909,4,2,1,50,0,1
46921,-90.9090909090909,4,2,1,60,0,1
47456,-90.9090909090909,4,2,77,50,0,1
47724,-90.9090909090909,4,2,1,60,0,1
47992,-90.9090909090909,4,2,77,50,0,1
48260,-90.9090909090909,4,2,1,60,0,1
48527,-90.9090909090909,4,2,77,50,0,1
48796,-90.9090909090909,4,2,1,50,0,1
49331,-90.9090909090909,4,2,1,60,0,1
50938,-90.9090909090909,4,3,77,80,0,1
51474,-100,4,2,1,60,0,0
51742,-100,4,2,1,50,0,0
58171,-100,4,2,77,50,0,0
58438,-100,4,2,1,50,0,0
58706,-100,4,2,77,50,0,0
58974,-100,4,2,1,50,0,0
59242,-100,4,2,77,50,0,0
59510,-100,4,1,77,35,0,0
59912,-100,4,2,1,40,0,0
60046,-100,4,2,1,50,0,0
63796,-100,4,2,99,50,0,0
64197,-100,4,2,1,50,0,0
66206,-100,4,2,77,40,0,0
66742,-100,4,2,77,60,0,0
67010,-100,4,2,1,60,0,0
67277,-100,4,2,77,60,0,0
67546,-100,4,2,1,60,0,0
67813,-100,4,2,77,60,0,0
68081,-100,4,1,77,35,0,0
68483,-100,4,2,1,40,0,0
68617,-100,4,2,1,60,0,0
68885,-100,4,2,77,50,0,0
69153,-100,4,2,1,60,0,0
69554,-100,4,2,77,60,0,0
69688,-100,4,2,1,60,0,0
72099,-100,4,2,77,60,0,0
72233,-100,4,2,1,60,0,0
74376,-100,4,2,77,40,0,0
74510,-100,4,2,1,60,0,0
77456,-100,4,2,77,60,0,0
77724,-100,4,2,1,60,0,0
80938,-100,4,2,1,50,0,0
81206,-100,4,2,1,60,0,0
85224,-100,4,3,77,60,0,0
85760,-100,4,2,77,80,0,0

[Colours]
Combo1 : 116,203,52
Combo2 : 166,96,251
Combo3 : 255,47,68
Combo4 : 107,153,228

[HitObjects]
256,80,46,5,4,0:0:0:0:
256,80,849,2,0,L|256:122,1,32.2500012302399,0|8,0:0|0:0,0:0:0:0:
256,110,1653,6,0,P|215:103|160:123,1,96.7500036907198,2|0,0:0|0:0,0:0:0:0:
141,156,2188,2,0,L|148:285,1,129.00000492096,8|2,0:0|0:0,0:0:0:0:
223,321,2992,1,0,0:0:0:0:
293,274,3260,2,0,L|365:270,1,64.5000024604798,8|0,0:0|0:0,0:0:0:0:
413,207,3796,2,0,L|409:135,1,64.5000024604798,2|0,0:0|0:0,0:0:0:0:
349,83,4331,5,2,0:0:0:0:
266,68,4599,1,0,0:0:0:0:
226,142,4867,1,0,0:0:0:0:
284,202,5135,1,2,0:0:0:0:
361,167,5403,2,0,P|371:129|373:92,1,64.5000024604798,0|0,0:0|0:0,0:0:0:0:
302,56,5938,6,0,L|263:50,1,32.2500012302399,8|8,0:0|0:0,0:0:0:0:
233,29,6206,2,0,L|201:33,1,32.2500012302399,2|2,0:0|0:0,0:0:0:0:
172,65,6474,2,0,L|75:49,2,96.7500036907198,2|0|0,0:0|0:0|0:0,0:0:0:0:
226,129,7546,1,2,0:0:0:0:
301,59,7813,6,0,P|324:54|347:42,1,43,2|2,0:0|0:0,0:0:0:0:
387,22,8081,2,0,L|381:79,2,43,8|0|2,0:0|0:0|0:0,0:0:0:0:
485,55,8617,6,0,L|490:153,1,86,8|2,0:0|0:0,0:0:0:0:
445,169,9019,2,0,P|402:152|352:157,1,86,8|2,0:0|0:0,0:0:0:0:
320,184,9421,1,8,0:0:0:0:
283,280,9688,2,0,L|188:271,1,86,0|2,0:0|0:0,0:0:0:0:
155,177,10224,6,0,B|195:169|195:169|243:177|243:177|283:169,1,129,8|0,0:0|0:0,0:0:0:0:
286,117,10760,6,0,L|279:32,1,86,8|2,0:0|0:0,0:0:0:0:
328,15,11162,2,0,P|369:29|411:30,1,86,8|2,0:0|0:0,0:0:0:0:
460,13,11563,1,8,0:0:0:0:
486,112,11831,6,0,B|494:160|494:160|486:192|486:192|494:240,1,129,8|0,0:0|0:0,0:0:0:0:
504,289,12367,2,0,P|448:278|393:322,1,129,2|0,0:0|0:0,0:0:0:0:
374,367,12903,6,0,L|280:356,1,86,8|2,0:0|0:0,0:0:0:0:
246,327,13304,2,0,P|198:326|149:341,1,86,8|2,0:0|0:0,0:0:0:0:
118,364,13706,1,8,0:0:0:0:
18,339,13974,1,0,0:0:0:0:
89,264,14242,1,2,0:0:0:0:
37,174,14510,6,0,L|42:125,3,43,8|8|2|2,0:0|0:0|0:0|0:0,0:0:0:0:
53,80,15046,6,0,P|91:98|134:98,1,86,8|2,0:0|0:0,0:0:0:0:
178,72,15447,2,0,L|172:164,1,86,8|2,0:0|0:0,0:0:0:0:
166,209,15849,1,8,0:0:0:0:
252,266,16117,6,0,P|328:281|290:345,1,172,8|4,0:0|0:0,0:0:0:0:
92,304,17188,6,0,L|97:209,1,86,4|0,0:0|0:0,0:0:0:0:
103,166,17590,2,0,B|142:189|188:186,1,86,2|0,0:0|0:0,0:0:0:0:
220,148,17992,2,0,B|259:125|302:127,1,86,8|0,0:0|0:0,0:0:0:0:
348,151,18394,2,0,B|371:190|368:233,1,86,8|0,0:0|0:0,0:0:0:0:
348,281,18796,2,0,B|308:289|284:281|284:281|260:273|220:281,1,129,4|0,0:0|0:0,0:0:0:0:
181,314,19331,6,0,L|186:218,1,86,8|2,0:0|0:0,0:0:0:0:
146,193,19733,2,0,L|60:197,1,86,8|0,0:0|0:0,0:0:0:0:
20,163,20135,2,0,L|24:77,1,86,8|2,0:0|0:0,0:0:0:0:
64,43,20537,2,0,L|149:47,1,86,8|8,0:0|0:0,0:0:0:0:
190,78,20938,1,8,0:0:0:0:
288,45,21206,1,8,0:0:0:0:
372,103,21474,6,0,P|357:148|354:200,1,86,8|2,0:0|0:0,0:0:0:0:
370,235,21876,2,0,L|464:228,1,86,8|0,0:0|0:0,0:0:0:0:
497,259,22278,2,0,L|490:353,1,86,8|2,0:0|0:0,0:0:0:0:
447,372,22679,2,0,L|361:365,1,86,8|8,0:0|0:0,0:0:0:0:
315,340,23081,2,0,L|308:297,3,43,8|8|8|8,0:0|0:0|0:0|0:0,0:0:0:0:
297,246,23617,6,0,P|248:258|206:241,1,86,8|2,0:0|0:0,0:0:0:0:
174,215,24019,2,0,L|189:307,1,86,8|2,0:0|0:0,0:0:0:0:
195,351,24421,1,8,0:0:0:0:
97,319,24688,2,0,P|51:310|9:310,1,86,8|8,0:0|0:0,0:0:0:0:
47,214,25224,6,0,B|87:202|111:214|111:214|135:226|175:214,1,129,4|0,0:0|0:0,0:0:0:0:
218,189,25760,6,0,B|211:228|211:228|221:280,1,86,8|0,0:0|0:0,0:0:0:0:
241,320,26162,2,0,P|278:303|329:303,1,86,8|0,0:0|0:0,0:0:0:0:
367,328,26563,2,0,P|405:345|448:346,1,86,8|0,0:0|0:0,0:0:0:0:
487,311,26965,2,0,L|478:221,1,86,8|0,0:0|0:0,0:0:0:0:
472,173,27367,1,8,0:0:0:0:
383,119,27635,1,8,0:0:0:0:
315,197,27903,6,0,P|267:202|231:185,1,86,8|0,0:0|0:0,0:0:0:0:
204,144,28304,2,0,L|208:50,1,86,8|0,0:0|0:0,0:0:0:0:
164,29,28706,2,0,L|78:32,1,86,8|0,0:0|0:0,0:0:0:0:
45,73,29108,2,0,L|48:158,1,86,8|0,0:0|0:0,0:0:0:0:
52,210,29510,1,8,0:0:0:0:
128,279,29778,2,0,L|172:276,1,43,8|2,0:0|0:0,0:0:0:0:
218,297,30046,6,0,L|317:301,1,86,8|8,0:0|0:0,0:0:0:0:
359,213,30581,2,0,L|273:209,1,86,8|8,0:0|0:0,0:0:0:0:
222,119,31117,2,0,L|321:123,1,86,8|8,0:0|0:0,0:0:0:0:
363,35,31653,2,0,L|277:31,1,86,8|8,0:0|0:0,0:0:0:0:
173,36,32188,6,0,L|130:37,3,43,8|8|8|8,0:0|0:0|0:0|0:0,0:0:0:0:
90,71,32724,2,0,L|53:94,3,43,8|8|8|8,0:0|0:0|0:0|0:0,0:0:0:0:
33,142,33260,2,0,B|25:186|25:186|33:226|33:226|25:270,1,129,8|8,0:0|0:0,0:0:0:0:
14,319,33796,2,0,P|70:285|133:290,1,129,4|0,0:0|0:0,0:0:0:0:
168,332,34331,6,0,P|211:340|259:320,1,94.600002886963,4|0,0:0|0:0,0:0:0:0:
327,231,34867,2,0,L|322:172,1,47.3000014434815,8|0,0:0|0:0,0:0:0:0:
270,160,35135,2,0,L|273:112,1,47.3000014434815,0|0,0:0|0:0,0:0:0:0:
311,70,35403,2,0,L|358:66,3,47.3000014434815,2|0|0|0,0:0|0:0|0:0|0:0,0:0:0:0:
414,64,35938,2,0,B|402:95|402:95|409:159,1,94.600002886963,8|8,0:0|0:0,0:0:0:0:
457,259,36474,6,0,P|408:243|358:242,1,94.600002886963,2|0,0:0|0:0,0:0:0:0:
282,319,37010,2,0,L|226:313,1,47.3000014434815,8|0,0:0|0:0,0:0:0:0:
188,279,37278,2,0,L|140:284,1,47.3000014434815,0|0,0:0|0:0,0:0:0:0:
84,294,37546,5,2,0:0:0:0:
38,260,37679,2,0,P|18:206|28:156,1,94.600002886963,0|0,0:0|0:0,0:0:0:0:
52,121,38081,2,0,L|153:111,1,94.600002886963,8|0,0:0|0:0,0:0:0:0:
201,125,38483,1,2,0:0:0:0:
235,169,38617,6,0,L|224:280,1,94.600002886963,2|2,0:0|0:0,0:0:0:0:
301,348,39153,2,0,P|355:359|405:343,1,94.600002886963,8|8,0:0|0:0,0:0:0:0:
482,280,39688,2,0,P|493:226|477:176,1,94.600002886963,2|8,0:0|0:0,0:0:0:0:
406,104,40224,2,0,P|352:93|302:109,1,94.600002886963,8|2,0:0|0:0,0:0:0:0:
232,181,40760,6,0,L|125:174,1,94.600002886963,2|0,0:0|0:0,0:0:0:0:
92,209,41162,2,0,B|102:238|102:238|89:308,1,94.600002886963,0|0,0:0|0:0,0:0:0:0:
78,356,41563,1,0,0:0:0:0:
185,318,41831,6,0,P|231:308|278:307,1,94.600002886963,2|0,0:0|0:0,0:0:0:0:
325,339,42233,2,0,P|371:349|418:350,1,94.600002886963,0|0,0:0|0:0,0:0:0:0:
467,320,42635,1,0,0:0:0:0:
493,220,42903,6,0,L|495:168,3,43,8|2|8|0,0:0|0:0|0:0|0:0,0:0:0:0:
449,142,43438,6,0,L|393:145,2,47.3000014434815,8|0|0,0:0|0:0|0:0,0:0:0:0:
386,46,43974,2,0,L|338:43,1,47.3000014434815,2|0,0:0|0:0,0:0:0:0:
285,23,44242,2,0,L|237:25,1,47.3000014434815,0|0,0:0|0:0,0:0:0:0:
192,59,44510,2,0,B|204:87|204:87|192:157,1,94.600002886963,8|8,0:0|0:0,0:0:0:0:
160,259,45046,6,0,P|208:242|257:241,1,94.600002886963,2|2,0:0|0:0,0:0:0:0:
346,303,45581,2,0,L|340:360,1,47.3000014434815,8|0,0:0|0:0,0:0:0:0:
391,376,45849,2,0,L|438:371,1,47.3000014434815,0|0,0:0|0:0,0:0:0:0:
482,335,46117,5,2,0:0:0:0:
500,281,46251,2,0,L|488:184,1,94.600002886963,0|0,0:0|0:0,0:0:0:0:
464,135,46653,2,0,P|432:164|375:170,1,94.600002886963,8|0,0:0|0:0,0:0:0:0:
332,143,47054,1,2,0:0:0:0:
289,105,47188,6,0,L|293:200,1,94.600002886963,2|2,0:0|0:0,0:0:0:0:
217,284,47724,2,0,P|166:294|123:281,1,94.600002886963,8|8,0:0|0:0,0:0:0:0:
45,201,48260,2,0,P|35:150|48:107,1,94.600002886963,2|8,0:0|0:0,0:0:0:0:
137,41,48796,2,0,P|188:31|231:44,1,94.600002886963,8|2,0:0|0:0,0:0:0:0:
304,126,49331,6,0,L|404:117,1,94.600002886963,2|0,0:0|0:0,0:0:0:0:
445,149,49733,2,0,L|436:249,1,94.600002886963,0|0,0:0|0:0,0:0:0:0:
429,299,50135,1,0,0:0:0:0:
328,351,50403,6,0,B|288:367|256:351|256:351|224:335|184:351,1,141.900004330444,2|0,0:0|0:0,0:0:0:0:
136,365,50938,2,0,P|150:302|140:217,1,141.900004330444,10|8,0:0|0:0,0:0:0:0:
108,186,51474,6,0,L|196:190,1,86,6|0,0:0|0:0,0:0:0:0:
242,170,51876,1,2,0:0:0:0:
242,170,52010,2,0,L|238:84,1,86,8|0,0:0|0:0,0:0:0:0:
340,69,52546,2,0,L|336:154,1,86,2|2,0:0|0:0,0:0:0:0:
410,226,53081,1,8,0:0:0:0:
384,326,53349,1,2,0:0:0:0:
285,356,53617,6,0,P|241:354|201:331,1,86,2|2,0:0|0:0,0:0:0:0:
178,289,54019,1,2,0:0:0:0:
178,289,54153,2,0,L|186:197,1,86,8|2,0:0|0:0,0:0:0:0:
232,111,54688,1,2,0:0:0:0:
326,153,54956,1,0,0:0:0:0:
326,153,55090,1,2,0:0:0:0:
326,153,55224,2,0,P|318:210|325:255,1,86,8|0,0:0|0:0,0:0:0:0:
391,315,55760,6,0,L|292:326,1,86,2|0,0:0|0:0,0:0:0:0:
265,357,56162,1,2,0:0:0:0:
265,357,56296,2,0,L|179:347,1,86,8|2,0:0|0:0,0:0:0:0:
136,253,56831,1,2,0:0:0:0:
47,306,57099,1,0,0:0:0:0:
16,207,57367,2,0,L|21:114,1,86,8|2,0:0|0:0,0:0:0:0:
62,90,57769,1,0,0:0:0:0:
62,90,57903,6,0,P|104:102|153:98,1,86,2|2,0:0|0:0,0:0:0:0:
238,54,58438,2,0,P|280:42|329:46,1,86,2|8,0:0|0:0,0:0:0:0:
407,102,58974,2,0,P|419:144|415:193,1,86,2|8,0:0|0:0,0:0:0:0:
358,271,59510,2,0,P|316:283|232:255,1,129,4|0,0:0|0:0,0:0:0:0:
204,217,60046,6,0,L|195:317,1,86,2|0,0:0|0:0,0:0:0:0:
163,342,60447,1,2,0:0:0:0:
163,342,60581,2,0,L|63:351,1,86,8|0,0:0|0:0,0:0:0:0:
27,258,61117,2,0,P|11:196|16:138,1,86,2|2,0:0|0:0,0:0:0:0:
34,127,61519,1,0,0:0:0:0:
34,127,61653,2,0,L|124:121,1,86,8|2,0:0|0:0,0:0:0:0:
209,172,62188,6,0,B|198:202|198:202|204:264,1,86,2|2,0:0|0:0,0:0:0:0:
232,298,62590,1,2,0:0:0:0:
232,298,62724,2,0,L|320:290,1,86,8|2,0:0|0:0,0:0:0:0:
392,218,63260,1,2,0:0:0:0:
474,279,63528,1,2,0:0:0:0:
474,279,63662,1,0,0:0:0:0:
474,279,63796,2,0,L|486:150,1,129,10|2,0:0|0:0,0:0:0:0:
465,103,64331,6,0,P|424:137|380:146,1,86,2|0,0:0|0:0,0:0:0:0:
357,107,64733,1,2,0:0:0:0:
357,107,64867,2,0,L|363:208,1,86,8|0,0:0|0:0,0:0:0:0:
329,233,65269,1,0,0:0:0:0:
329,233,65403,2,0,L|228:227,1,86,2|2,0:0|0:0,0:0:0:0:
196,250,65804,1,0,0:0:0:0:
196,250,65938,2,0,P|175:297|167:346,1,86,8|2,0:0|0:0,0:0:0:0:
207,364,66340,1,0,0:0:0:0:
207,364,66474,6,0,L|294:358,1,86,2|2,0:0|0:0,0:0:0:0:
379,301,67010,2,0,P|397:252|394:205,1,86,2|8,0:0|0:0,0:0:0:0:
343,129,67546,2,0,P|294:111|247:114,1,86,2|8,0:0|0:0,0:0:0:0:
165,151,68081,2,0,P|140:203|155:282,1,129,4|0,0:0|0:0,0:0:0:0:
182,311,68617,6,0,L|276:302,1,86,6|0,0:0|0:0,0:0:0:0:
317,212,69153,2,0,L|324:163,1,43,8|0,0:0|0:0,0:0:0:0:
292,127,69421,2,0,L|285:78,1,43,0|8,0:0|0:0,0:0:0:0:
310,39,69688,2,0,P|365:73|429:62,1,129,0|2,0:0|0:0,0:0:0:0:
468,33,70224,2,0,L|461:98,1,43,8|0,0:0|0:0,0:0:0:0:
484,123,70492,2,0,L|477:188,1,43,2|0,0:0|0:0,0:0:0:0:
471,217,70760,6,0,P|416:203|341:237,1,129,2|2,0:0|0:0,0:0:0:0:
326,273,71296,1,8,0:0:0:0:
234,225,71563,1,2,0:0:0:0:
150,285,71831,2,0,L|152:343,1,43,2|2,0:0|0:0,0:0:0:0:
194,356,72099,2,0,L|236:357,1,43,8|2,0:0|0:0,0:0:0:0:
277,325,72367,2,0,L|319:323,1,43,8|0,0:0|0:0,0:0:0:0:
364,296,72635,2,0,L|365:253,1,43,8|2,0:0|0:0,0:0:0:0:
401,215,72903,5,2,0:0:0:0:
401,215,73037,1,2,0:0:0:0:
401,215,73171,2,0,L|400:172,1,43,2|2,0:0|0:0,0:0:0:0:
396,120,73438,2,0,P|356:139|297:135,1,86,8|2,0:0|0:0,0:0:0:0:
281,99,73840,2,0,L|233:102,1,43,2|0,0:0|0:0,0:0:0:0:
195,132,74108,2,0,L|91:126,1,86,2|8,0:0|0:0,0:0:0:0:
58,139,74510,2,0,P|51:166|47:194,1,43,8|0,0:0|0:0,0:0:0:0:
77,224,74778,2,0,P|84:251|88:279,1,43,2|0,0:0|0:0,0:0:0:0:
72,315,75046,5,2,0:0:0:0:
72,315,75179,1,0,0:0:0:0:
72,315,75313,2,0,L|125:310,1,43,0|2,0:0|0:0,0:0:0:0:
159,283,75581,2,0,L|256:292,1,86,8|2,0:0|0:0,0:0:0:0:
295,299,75983,2,0,P|275:252|282:169,1,129,2|0,0:0|0:0,0:0:0:0:
301,74,76653,1,8,0:0:0:0:
204,111,76921,1,2,0:0:0:0:
107,74,77188,6,0,L|96:165,1,86,2|2,0:0|0:0,0:0:0:0:
141,252,77724,1,8,0:0:0:0:
141,252,77858,1,0,0:0:0:0:
141,252,77992,2,0,P|167:263|184:268,1,43,0|0,0:0|0:0,0:0:0:0:
233,268,78260,2,0,P|279:217|287:130,1,129,2|2,0:0|0:0,0:0:0:0:
199,81,78796,1,8,0:0:0:0:
199,81,78929,1,0,0:0:0:0:
199,81,79063,2,0,L|200:138,1,43,2|0,0:0|0:0,0:0:0:0:
161,159,79331,6,0,L|157:248,1,86,2|0,0:0|0:0,0:0:0:0:
185,288,79733,1,0,0:0:0:0:
185,288,79867,2,0,L|274:284,1,86,8|0,0:0|0:0,0:0:0:0:
351,218,80403,1,2,0:0:0:0:
424,290,80671,1,2,0:0:0:0:
494,215,80938,2,0,L|487:119,1,86,8|0,0:0|0:0,0:0:0:0:
396,79,81474,5,2,0:0:0:0:
319,148,81742,2,0,L|224:145,2,86,0|8|2,0:0|0:0|0:0,0:0:0:0:
393,219,82546,2,0,P|404:261|399:310,1,86,2|0,0:0|0:0,0:0:0:0:
319,367,83081,2,0,P|277:378|228:373,1,86,8|8,0:0|0:0,0:0:0:0:
193,343,83483,1,2,0:0:0:0:
193,343,83617,2,0,P|182:301|187:252,1,86,2|0,0:0|0:0,0:0:0:0:
259,186,84153,2,0,P|270:144|265:95,1,86,8|2,0:0|0:0,0:0:0:0:
179,46,84688,6,0,P|265:67|349:47,1,172,2|4,0:0|0:0,0:0:0:0:
499,186,85760,1,4,0:0:0:0:
