osu file format v14

[General]
AudioFilename: audio.mp3
AudioLeadIn: 0
PreviewTime: 14962
Countdown: 0
SampleSet: Normal
StackLeniency: 0.7
Mode: 1
LetterboxInBreaks: 0
WidescreenStoryboard: 1

[Editor]
Bookmarks: 16134,31134,46134,61134,76134,91134
DistanceSpacing: 1
BeatDivisor: 16
GridSize: 32
TimelineZoom: 1.7

[Metadata]
Title:Dash
TitleUnicode:Dash
Artist:MDK
ArtistUnicode:MDK
Creator:Fynbi
Version:Insane
Source:Geometry Dash
Tags:robtop games Morgan David King electronic instrumental wubstep 8-bit chiptune complextro dubstep cut video game ver. version original soundtrack ost official theme song unsightreadable
BeatmapID:4467954
BeatmapSetID:2125289

[Difficulty]
HPDrainRate:6
CircleSize:2
OverallDifficulty:5.5
ApproachRate:10
SliderMultiplier:1.4
SliderTickRate:1

[Events]
//Background and Video events
0,0,"vlcsnap-2024-01-25-21h55m50s803.png",0,30
//Break Periods
//Storyboard Layer 0 (Background)
//Storyboard Layer 1 (Fail)
//Storyboard Layer 2 (Pass)
//Storyboard Layer 3 (Foreground)
//Storyboard Layer 4 (Overlay)
//Storyboard Sound Samples

[TimingPoints]
1134,468.75,4,1,0,100,1,0
12354,-99.8004,4,1,0,100,0,0
12588,-98.27043,4,1,0,100,0,0
12705,-97.52291,4,1,0,100,0,0
12822,-96.78668,4,1,0,100,0,0
13057,-95.341,4,1,0,100,0,0
13291,-93.943756,4,1,0,100,0,0
13408,-93.26038,4,1,0,100,0,0
13525,-92.586876,4,1,0,100,0,0
13643,-91.9174,4,1,0,100,0,0
13877,-90.61801,4,1,0,100,0,0
13994,-89.982,4,1,0,100,0,0
14229,-88.73115,4,1,0,100,0,0
14346,-88.12126,4,1,0,100,0,0
14463,-87.519684,4,1,0,100,0,0
14580,-86.926285,4,1,0,100,0,0
14697,-86.34087,4,1,0,100,0,0
16104,-80,4,1,0,100,0,0
29229,-80.10253,4,1,0,100,0,0
29580,-81.321976,4,1,0,100,0,0
29932,-82.58275,4,1,0,100,0,0
30166,-83.44274,4,1,0,100,0,0
30283,-83.879486,4,1,0,100,0,0
30518,-84.77067,4,1,0,100,0,0
30635,-85.221466,4,1,0,100,0,0
31104,-86.9565217391304,4,1,0,100,0,0
46134,-86.9565217391304,4,1,0,40,0,0
47979,-100,4,1,0,40,0,0
49385,-80,4,1,0,40,0,0
49444,-100,4,1,0,40,0,0
52579,-100,4,1,0,60,0,0
52813,-100,4,1,0,70,0,0
53048,-100,4,1,0,80,0,0
53282,-100,4,1,0,90,0,0
53516,-100,4,1,0,100,0,0
53604,-99.8602,4,1,0,100,0,0
53838,-98.78299,4,1,0,100,0,0
54072,-97.72878,4,1,0,100,0,0
54307,-96.692474,4,1,0,100,0,0
54541,-95.68218,4,1,0,100,0,0
54775,-94.69278,4,1,0,100,0,0
55010,-93.719536,4,1,0,100,0,0
55244,-92.77012,4,1,0,100,0,0
55479,-91.8358,4,1,0,100,0,0
55713,-90.923965,4,1,0,100,0,0
55947,-90.03007,4,1,0,100,0,0
56182,-89.149864,4,1,0,100,0,0
56416,-88.290344,4,1,0,100,0,0
56650,-87.447235,4,1,0,100,0,0
56885,-86.616585,4,1,0,100,0,0
57119,-85.804985,4,1,0,100,0,0
57354,-85.0051,4,1,0,100,0,0
57471,-84.6124,4,1,0,100,0,0
57588,-84.22329,4,1,0,100,0,0
57705,-83.83775,4,1,0,100,0,0
57822,-83.455734,4,1,0,100,0,0
57939,-83.07717,4,1,0,100,0,0
58057,-82.698845,4,1,0,100,0,0
58291,-81.95871,4,1,0,100,0,0
58408,-81.593575,4,1,0,100,0,0
58525,-81.23169,4,1,0,100,0,0
58643,-80.86995,4,1,0,100,0,0
58760,-80.514435,4,1,0,100,0,0
58877,-80.16203,4,1,0,100,0,0
58994,-79.812706,4,1,0,100,0,0
59229,-79.12018,4,1,0,100,0,0
59346,-78.779854,4,1,0,100,0,0
59463,-78.442444,4,1,0,100,0,0
59580,-78.10792,4,1,0,100,0,0
59697,-77.77622,4,1,0,100,0,0
59814,-77.447334,4,1,0,100,0,0
59932,-77.11845,4,1,0,100,0,0
60635,-75.21549,4,1,0,100,0,0
60752,-74.90786,4,1,0,100,0,0
60869,-74.60274,4,1,0,100,0,0
60986,-74.30009,4,1,0,100,0,0
61104,-74.0740740740741,4,1,0,100,0,0
61602,-80,4,1,0,100,0,1
68634,-80,4,1,0,100,0,0
69102,-80,4,1,0,100,0,1
74024,-80,4,1,0,100,0,0
75400,-83.48156,4,1,0,100,0,0
75518,-84.06975,4,1,0,100,0,0
75635,-84.66118,4,1,0,100,0,0
75752,-85.260994,4,1,0,100,0,0
75869,-85.86937,4,1,0,100,0,0
76104,-83.3333333333333,4,1,0,100,0,0

[HitObjects]
256,192,1134,5,0,0:0:0:0:
256,192,1602,5,8,0:0:0:0:
256,192,2071,5,0,0:0:0:0:
256,192,2423,5,0,0:0:0:0:
256,192,2540,5,8,0:0:0:0:
256,192,2774,5,0,0:0:0:0:
256,192,3009,5,0,0:0:0:0:
256,192,3243,5,8,0:0:0:0:
256,192,3477,5,8,0:0:0:0:
256,192,3712,5,8,0:0:0:0:
256,192,3829,5,0,0:0:0:0:
256,192,4063,5,0,0:0:0:0:
256,192,4298,5,0,0:0:0:0:
256,192,4415,5,8,0:0:0:0:
256,192,4649,5,8,0:0:0:0:
256,192,4884,5,0,0:0:0:0:
256,192,5352,5,8,0:0:0:0:
256,192,5821,5,0,0:0:0:0:
256,192,6173,5,8,0:0:0:0:
256,192,6290,5,0,0:0:0:0:
256,192,6524,5,8,0:0:0:0:
256,192,6759,5,0,0:0:0:0:
256,192,6993,5,8,0:0:0:0:
256,192,7110,5,8,0:0:0:0:
256,192,7344,5,8,0:0:0:0:
256,192,7462,5,8,0:0:0:0:
256,192,7579,5,8,0:0:0:0:
256,192,7696,5,0,0:0:0:0:
256,192,8048,5,0,0:0:0:0:
256,192,8165,5,8,0:0:0:0:
256,192,8399,5,8,0:0:0:0:
256,192,8634,5,0,0:0:0:0:
256,192,8751,5,0,0:0:0:0:
256,192,8868,5,0,0:0:0:0:
256,192,8985,5,0,0:0:0:0:
256,192,9102,5,8,0:0:0:0:
256,192,9571,5,8,0:0:0:0:
256,192,9923,5,0,0:0:0:0:
256,192,10040,5,8,0:0:0:0:
256,192,10274,5,0,0:0:0:0:
256,192,10509,5,0,0:0:0:0:
256,192,10743,5,8,0:0:0:0:
256,192,10977,5,8,0:0:0:0:
256,192,11212,5,0,0:0:0:0:
256,192,11329,5,8,0:0:0:0:
256,192,11563,5,8,0:0:0:0:
256,192,11798,5,0,0:0:0:0:
256,192,11915,5,8,0:0:0:0:
256,192,12032,5,0,0:0:0:0:
256,192,12149,5,8,0:0:0:0:
256,192,12384,5,0,0:0:0:0:
256,192,12618,5,8,0:0:0:0:
256,192,12735,5,8,0:0:0:0:
256,192,12852,5,0,0:0:0:0:
256,192,13087,5,8,0:0:0:0:
256,192,13321,5,0,0:0:0:0:
256,192,13438,5,0,0:0:0:0:
256,192,13555,5,8,0:0:0:0:
256,192,13673,5,0,0:0:0:0:
256,192,13907,5,0,0:0:0:0:
256,192,14024,5,8,0:0:0:0:
256,192,14259,5,0,0:0:0:0:
256,192,14376,5,8,0:0:0:0:
256,192,14493,5,8,0:0:0:0:
256,192,14610,5,8,0:0:0:0:
256,192,14727,5,0,0:0:0:0:
256,192,16134,5,4,0:0:0:0:
256,192,16602,5,8,0:0:0:0:
256,192,16837,5,0,0:0:0:0:
256,192,17071,5,8,0:0:0:0:
256,192,17305,5,0,0:0:0:0:
256,192,17423,5,8,0:0:0:0:
256,192,17540,5,0,0:0:0:0:
256,192,17657,5,0,0:0:0:0:
256,192,17774,5,8,0:0:0:0:
256,192,18009,5,0,0:0:0:0:
256,192,18243,5,0,0:0:0:0:
256,192,18477,5,8,0:0:0:0:
256,192,18712,5,0,0:0:0:0:
256,192,18829,5,8,0:0:0:0:
256,192,19063,5,8,0:0:0:0:
256,192,19180,5,0,0:0:0:0:
256,192,19298,5,0,0:0:0:0:
256,192,19415,5,8,0:0:0:0:
256,192,19649,5,0,0:0:0:0:
256,192,19884,5,0,0:0:0:0:
256,192,20352,5,8,0:0:0:0:
256,192,20587,5,0,0:0:0:0:
256,192,20821,5,8,0:0:0:0:
256,192,21055,5,0,0:0:0:0:
256,192,21173,5,8,0:0:0:0:
256,192,21290,5,0,0:0:0:0:
256,192,21407,5,8,0:0:0:0:
256,192,21524,5,8,0:0:0:0:
256,192,21759,5,8,0:0:0:0:
256,192,21876,5,8,0:0:0:0:
256,192,21993,5,0,0:0:0:0:
256,192,22110,5,0,0:0:0:0:
256,192,22227,5,8,0:0:0:0:
256,192,22579,5,0,0:0:0:0:
256,192,22813,5,8,0:0:0:0:
256,192,23048,5,0,0:0:0:0:
256,192,23165,5,8,0:0:0:0:
256,192,23282,5,0,0:0:0:0:
256,192,23399,5,8,0:0:0:0:
256,192,23634,5,0,0:0:0:0:
256,192,24102,5,8,0:0:0:0:
256,192,24337,5,0,0:0:0:0:
256,192,24571,5,8,0:0:0:0:
256,192,24805,5,0,0:0:0:0:
256,192,24923,5,8,0:0:0:0:
256,192,25040,5,8,0:0:0:0:
256,192,25157,5,0,0:0:0:0:
256,192,25274,5,8,0:0:0:0:
256,192,25509,5,0,0:0:0:0:
256,192,25743,5,8,0:0:0:0:
256,192,25977,5,8,0:0:0:0:
256,192,26329,5,8,0:0:0:0:
256,192,26563,5,8,0:0:0:0:
256,192,26680,5,8,0:0:0:0:
256,192,26915,5,0,0:0:0:0:
256,192,27149,5,8,0:0:0:0:
256,192,27266,5,8,0:0:0:0:
256,192,27384,5,0,0:0:0:0:
256,192,27852,5,8,0:0:0:0:
256,192,28087,5,0,0:0:0:0:
256,192,28321,5,8,0:0:0:0:
256,192,28555,5,0,0:0:0:0:
256,192,28673,5,8,0:0:0:0:
256,192,28790,5,0,0:0:0:0:
256,192,28907,5,8,0:0:0:0:
256,192,29024,5,8,0:0:0:0:
256,192,29259,5,4,0:0:0:0:
256,192,29610,5,8,0:0:0:0:
256,192,29962,5,0,0:0:0:0:
256,192,30196,5,8,0:0:0:0:
256,192,30313,5,0,0:0:0:0:
256,192,30548,5,8,0:0:0:0:
256,192,30665,5,0,0:0:0:0:
256,192,31134,5,4,0:0:0:0:
256,192,31602,5,8,0:0:0:0:
256,192,31719,5,8,0:0:0:0:
256,192,31837,5,0,0:0:0:0:
256,192,31954,5,0,0:0:0:0:
256,192,32071,5,8,0:0:0:0:
256,192,32305,5,0,0:0:0:0:
256,192,32540,5,8,0:0:0:0:
256,192,32657,5,8,0:0:0:0:
256,192,32774,5,0,0:0:0:0:
256,192,33009,5,0,0:0:0:0:
256,192,33243,5,0,0:0:0:0:
256,192,33360,5,8,0:0:0:0:
256,192,33594,5,0,0:0:0:0:
256,192,33829,5,0,0:0:0:0:
256,192,34180,5,0,0:0:0:0:
256,192,34415,5,8,0:0:0:0:
256,192,34532,5,0,0:0:0:0:
256,192,34649,5,0,0:0:0:0:
256,192,34884,5,0,0:0:0:0:
256,192,35352,5,0,0:0:0:0:
256,192,35587,5,0,0:0:0:0:
256,192,35704,5,8,0:0:0:0:
256,192,35938,5,0,0:0:0:0:
256,192,36055,5,0,0:0:0:0:
256,192,36290,5,8,0:0:0:0:
256,192,36407,5,0,0:0:0:0:
256,192,36524,5,0,0:0:0:0:
256,192,36641,5,0,0:0:0:0:
256,192,36759,5,8,0:0:0:0:
256,192,36993,5,0,0:0:0:0:
256,192,37110,5,8,0:0:0:0:
256,192,37344,5,0,0:0:0:0:
256,192,37462,5,8,0:0:0:0:
256,192,37696,5,0,0:0:0:0:
256,192,37930,5,8,0:0:0:0:
256,192,38048,5,0,0:0:0:0:
256,192,38282,5,8,0:0:0:0:
256,192,38399,5,8,0:0:0:0:
256,192,38634,5,0,0:0:0:0:
256,192,39102,5,8,0:0:0:0:
256,192,39219,5,0,0:0:0:0:
256,192,39337,5,8,0:0:0:0:
256,192,39454,5,8,0:0:0:0:
256,192,39571,5,0,0:0:0:0:
256,192,39805,5,8,0:0:0:0:
256,192,40040,5,0,0:0:0:0:
256,192,40157,5,8,0:0:0:0:
256,192,40274,5,0,0:0:0:0:
256,192,40509,5,0,0:0:0:0:
256,192,40743,5,8,0:0:0:0:
256,192,40860,5,8,0:0:0:0:
256,192,40977,5,8,0:0:0:0:
256,192,41094,5,8,0:0:0:0:
256,192,41329,5,0,0:0:0:0:
256,192,41446,5,0,0:0:0:0:
256,192,41563,5,0,0:0:0:0:
256,192,41680,5,8,0:0:0:0:
256,192,41915,5,8,0:0:0:0:
256,192,42032,5,0,0:0:0:0:
256,192,42149,5,8,0:0:0:0:
256,192,42384,5,0,0:0:0:0:
256,192,42618,5,8,0:0:0:0:
256,192,42735,5,0,0:0:0:0:
256,192,42969,5,8,0:0:0:0:
256,192,43321,5,0,0:0:0:0:
256,192,43438,5,0,0:0:0:0:
256,192,43555,5,8,0:0:0:0:
256,192,43790,5,0,0:0:0:0:
256,192,44024,5,8,0:0:0:0:
256,192,44259,5,4,0:0:0:0:
256,192,44493,5,8,0:0:0:0:
256,192,44610,5,0,0:0:0:0:
256,192,44727,5,8,0:0:0:0:
256,192,44844,5,0,0:0:0:0:
256,192,44962,5,8,0:0:0:0:
256,192,45196,5,4,0:0:0:0:
256,192,45430,5,8,0:0:0:0:
256,192,45548,5,8,0:0:0:0:
256,192,45665,5,0,0:0:0:0:
256,192,45782,5,0,0:0:0:0:
256,192,45899,5,8,0:0:0:0:
256,192,46016,5,8,0:0:0:0:
256,192,49415,12,0,49884,0:0:0:0:
256,192,51759,5,0,0:0:0:0:
256,192,51993,5,8,0:0:0:0:
256,192,52110,5,0,0:0:0:0:
256,192,52462,5,0,0:0:0:0:
256,192,52579,5,0,0:0:0:0:
256,192,52813,5,8,0:0:0:0:
256,192,53048,5,0,0:0:0:0:
256,192,53165,5,12,0:0:0:0:
256,192,53634,5,0,0:0:0:0:
256,192,53868,5,0,0:0:0:0:
256,192,54102,5,0,0:0:0:0:
256,192,54337,5,0,0:0:0:0:
256,192,54571,5,8,0:0:0:0:
256,192,54805,5,8,0:0:0:0:
256,192,55040,5,8,0:0:0:0:
256,192,55274,5,8,0:0:0:0:
256,192,55509,5,0,0:0:0:0:
256,192,55743,5,0,0:0:0:0:
256,192,55977,5,8,0:0:0:0:
256,192,56212,5,8,0:0:0:0:
256,192,56446,5,8,0:0:0:0:
256,192,56680,5,8,0:0:0:0:
256,192,56915,5,8,0:0:0:0:
256,192,57149,5,8,0:0:0:0:
256,192,57384,5,0,0:0:0:0:
256,192,57501,5,0,0:0:0:0:
256,192,57618,5,8,0:0:0:0:
256,192,57735,5,8,0:0:0:0:
256,192,57852,5,0,0:0:0:0:
256,192,58087,5,8,0:0:0:0:
256,192,58321,5,0,0:0:0:0:
256,192,58555,5,8,0:0:0:0:
256,192,58673,5,8,0:0:0:0:
256,192,58790,5,0,0:0:0:0:
256,192,58907,5,0,0:0:0:0:
256,192,59024,5,8,0:0:0:0:
256,192,59259,5,0,0:0:0:0:
256,192,59376,5,0,0:0:0:0:
256,192,59493,5,0,0:0:0:0:
256,192,59610,5,0,0:0:0:0:
256,192,59727,5,0,0:0:0:0:
256,192,59844,5,0,0:0:0:0:
256,192,59962,5,0,0:0:0:0:
256,192,60665,5,8,0:0:0:0:
256,192,60782,5,8,0:0:0:0:
256,192,60899,5,8,0:0:0:0:
256,192,61016,5,8,0:0:0:0:
256,192,61134,5,0,0:0:0:0:
256,192,61602,5,12,0:0:0:0:
256,192,61837,5,0,0:0:0:0:
256,192,61954,5,8,0:0:0:0:
256,192,62071,5,0,0:0:0:0:
256,192,62305,5,0,0:0:0:0:
256,192,62540,5,8,0:0:0:0:
256,192,62657,5,0,0:0:0:0:
256,192,62774,5,8,0:0:0:0:
256,192,62891,5,8,0:0:0:0:
256,192,63009,5,0,0:0:0:0:
256,192,63243,5,12,0:0:0:0:
256,192,63477,5,0,0:0:0:0:
256,192,63712,5,12,0:0:0:0:
256,192,63946,5,0,0:0:0:0:
256,192,64180,5,8,0:0:0:0:
256,192,64298,5,0,0:0:0:0:
256,192,64415,5,8,0:0:0:0:
256,192,64532,5,0,0:0:0:0:
256,192,64649,5,8,0:0:0:0:
256,192,64884,5,8,0:0:0:0:
256,192,65118,5,0,0:0:0:0:
256,192,65352,5,8,0:0:0:0:
256,192,65587,5,0,0:0:0:0:
256,192,65704,5,0,0:0:0:0:
256,192,65821,5,0,0:0:0:0:
256,192,66055,5,8,0:0:0:0:
256,192,66290,5,0,0:0:0:0:
256,192,66524,5,8,0:0:0:0:
256,192,66641,5,8,0:0:0:0:
256,192,66759,5,8,0:0:0:0:
256,192,66876,5,8,0:0:0:0:
256,192,66993,5,0,0:0:0:0:
256,192,67227,5,8,0:0:0:0:
256,192,67344,5,8,0:0:0:0:
256,192,67462,5,8,0:0:0:0:
256,192,67696,5,0,0:0:0:0:
256,192,67930,5,8,0:0:0:0:
256,192,68165,5,8,0:0:0:0:
256,192,68634,5,0,0:0:0:0:
256,192,68751,5,0,0:0:0:0:
256,192,68868,5,8,0:0:0:0:
256,192,69102,5,12,0:0:0:0:
256,192,69337,5,0,0:0:0:0:
256,192,69454,5,8,0:0:0:0:
256,192,69571,5,0,0:0:0:0:
256,192,69688,5,8,0:0:0:0:
256,192,69805,5,0,0:0:0:0:
256,192,70040,5,8,0:0:0:0:
256,192,70274,5,0,0:0:0:0:
256,192,70509,5,12,0:0:0:0:
256,192,70743,5,12,0:0:0:0:
256,192,70977,5,12,0:0:0:0:
256,192,71212,5,0,0:0:0:0:
256,192,71329,5,12,0:0:0:0:
256,192,71563,5,8,0:0:0:0:
256,192,71798,5,8,0:0:0:0:
256,192,71915,5,0,0:0:0:0:
256,192,72149,5,8,0:0:0:0:
256,192,72266,5,8,0:0:0:0:
256,192,72501,5,0,0:0:0:0:
256,192,72618,5,8,0:0:0:0:
256,192,72852,5,0,0:0:0:0:
256,192,72969,5,0,0:0:0:0:
256,192,73087,5,8,0:0:0:0:
256,192,73204,5,8,0:0:0:0:
256,192,73321,5,0,0:0:0:0:
256,192,73555,5,0,0:0:0:0:
256,192,73790,5,8,0:0:0:0:
256,192,74024,5,12,0:0:0:0:
256,192,74493,5,8,0:0:0:0:
256,192,74727,5,0,0:0:0:0:
256,192,74962,5,4,0:0:0:0:
256,192,75430,5,8,0:0:0:0:
256,192,75548,5,8,0:0:0:0:
256,192,75665,5,0,0:0:0:0:
256,192,75782,5,8,0:0:0:0:
256,192,75899,5,0,0:0:0:0:
256,192,76134,5,4,0:0:0:0:
256,192,76602,5,0,0:0:0:0:
256,192,76719,5,8,0:0:0:0:
256,192,76837,5,8,0:0:0:0:
256,192,77071,5,0,0:0:0:0:
256,192,77188,5,8,0:0:0:0:
256,192,77305,5,8,0:0:0:0:
256,192,77540,5,0,0:0:0:0:
256,192,77657,5,0,0:0:0:0:
256,192,77774,5,0,0:0:0:0:
256,192,78009,5,12,0:0:0:0:
256,192,78360,5,12,0:0:0:0:
256,192,78712,5,12,0:0:0:0:
256,192,79180,5,0,0:0:0:0:
256,192,79298,5,8,0:0:0:0:
256,192,79415,5,0,0:0:0:0:
256,192,79532,5,0,0:0:0:0:
256,192,79649,5,8,0:0:0:0:
256,192,79884,5,0,0:0:0:0:
256,192,80352,5,0,0:0:0:0:
256,192,80469,5,8,0:0:0:0:
256,192,80587,5,8,0:0:0:0:
256,192,80821,5,0,0:0:0:0:
256,192,80938,5,8,0:0:0:0:
256,192,81055,5,8,0:0:0:0:
256,192,81290,5,0,0:0:0:0:
256,192,81407,5,8,0:0:0:0:
256,192,81524,5,0,0:0:0:0:
256,192,81641,5,8,0:0:0:0:
256,192,81759,5,0,0:0:0:0:
256,192,81993,5,12,0:0:0:0:
256,192,82462,5,4,0:0:0:0:
256,192,82930,5,8,0:0:0:0:
256,192,83048,5,8,0:0:0:0:
256,192,83165,5,0,0:0:0:0:
256,192,83282,5,0,0:0:0:0:
256,192,83399,5,8,0:0:0:0:
256,192,83634,5,4,0:0:0:0:
256,192,84102,5,0,0:0:0:0:
256,192,84219,5,8,0:0:0:0:
256,192,84337,5,8,0:0:0:0:
256,192,84571,5,0,0:0:0:0:
256,192,84688,5,8,0:0:0:0:
256,192,84805,5,8,0:0:0:0:
256,192,85040,5,0,0:0:0:0:
256,192,85157,5,0,0:0:0:0:
256,192,85274,5,0,0:0:0:0:
256,192,85509,5,12,0:0:0:0:
256,192,85860,5,12,0:0:0:0:
256,192,86212,5,12,0:0:0:0:
256,192,86446,5,0,0:0:0:0:
256,192,86798,5,8,0:0:0:0:
256,192,86915,5,0,0:0:0:0:
256,192,87149,5,8,0:0:0:0:
256,192,87384,5,4,0:0:0:0:
256,192,87852,5,0,0:0:0:0:
256,192,87969,5,0,0:0:0:0:
256,192,88087,5,8,0:0:0:0:
256,192,88204,5,8,0:0:0:0:
256,192,88321,5,0,0:0:0:0:
256,192,88555,5,0,0:0:0:0:
256,192,88790,5,8,0:0:0:0:
256,192,89024,5,12,0:0:0:0:
256,192,89493,5,8,0:0:0:0:
256,192,89727,5,8,0:0:0:0:
256,192,89962,6,0,L|320:192,6,41.9999987182618
256,192,91134,5,4,0:0:0:0:
