osu file format v14

[General]
AudioFilename: audio.mp3
AudioLeadIn: 0
PreviewTime: 14962
Countdown: 0
SampleSet: Normal
StackLeniency: 0.7
Mode: 1
LetterboxInBreaks: 0
WidescreenStoryboard: 1

[Editor]
Bookmarks: 16134,31134,46134,61134,76134,91134
DistanceSpacing: 1
BeatDivisor: 4
GridSize: 32
TimelineZoom: 1.4

[Metadata]
Title:Dash
TitleUnicode:Dash
Artist:MDK
ArtistUnicode:MDK
Creator:Fynbi
Version:Easy
Source:Geometry Dash
Tags:robtop games Morgan David King electronic instrumental wubstep 8-bit chiptune complextro dubstep cut video game ver. version original soundtrack ost official theme song unsightreadable
BeatmapID:4471474
BeatmapSetID:2125289

[Difficulty]
HPDrainRate:9
CircleSize:2
OverallDifficulty:3
ApproachRate:10
SliderMultiplier:1.4
SliderTickRate:1

[Events]
//Background and Video events
0,0,"vlcsnap-2024-01-25-21h55m50s803.png",0,30
//Break Periods
2,46134,51759
//Storyboard Layer 0 (Background)
//Storyboard Layer 1 (Fail)
//Storyboard Layer 2 (Pass)
//Storyboard Layer 3 (Foreground)
//Storyboard Layer 4 (Overlay)
//Storyboard Sound Samples

[TimingPoints]
1134,468.75,4,1,0,100,1,0
46134,-100,4,1,0,40,0,0
52579,-100,4,1,0,60,0,0
52813,-100,4,1,0,70,0,0
53048,-100,4,1,0,80,0,0
53282,-100,4,1,0,90,0,0
53516,-100,4,1,0,100,0,0
61602,-100,4,1,0,100,0,1
68634,-100,4,1,0,100,0,0
69102,-100,4,1,0,100,0,1
74024,-100,4,1,0,100,0,0

[HitObjects]
256,192,1134,5,0,0:0:0:0:
256,192,2071,5,8,0:0:0:0:
256,192,3009,5,0,0:0:0:0:
256,192,4884,5,0,0:0:0:0:
256,192,5821,5,8,0:0:0:0:
256,192,7696,5,8,0:0:0:0:
256,192,8634,5,0,0:0:0:0:
256,192,9571,5,8,0:0:0:0:
256,192,10509,5,0,0:0:0:0:
256,192,12384,5,0,0:0:0:0:
256,192,12852,5,0,0:0:0:0:
256,192,13321,5,0,0:0:0:0:
256,192,14259,5,0,0:0:0:0:
256,192,14727,5,8,0:0:0:0:
256,192,16134,5,4,0:0:0:0:
256,192,17071,5,8,0:0:0:0:
256,192,17540,5,8,0:0:0:0:
256,192,18009,5,0,0:0:0:0:
256,192,19415,5,8,0:0:0:0:
256,192,19884,5,0,0:0:0:0:
256,192,20821,5,0,0:0:0:0:
256,192,21290,5,0,0:0:0:0:
256,192,21759,5,8,0:0:0:0:
256,192,23634,5,0,0:0:0:0:
256,192,24571,5,0,0:0:0:0:
256,192,25040,5,8,0:0:0:0:
256,192,25509,5,0,0:0:0:0:
256,192,26915,5,8,0:0:0:0:
256,192,27384,5,0,0:0:0:0:
256,192,28321,5,8,0:0:0:0:
256,192,28790,5,0,0:0:0:0:
256,192,29259,5,12,0:0:0:0:
256,192,30196,5,12,0:0:0:0:
256,192,31134,5,4,0:0:0:0:
256,192,32071,5,8,0:0:0:0:
256,192,33009,5,0,0:0:0:0:
256,192,33477,5,8,0:0:0:0:
256,192,33829,5,8,0:0:0:0:
256,192,34884,5,0,0:0:0:0:
256,192,35352,5,0,0:0:0:0:
256,192,35821,5,0,0:0:0:0:
256,192,36759,5,0,0:0:0:0:
256,192,37227,5,0,0:0:0:0:
256,192,37696,5,8,0:0:0:0:
256,192,38165,5,8,0:0:0:0:
256,192,38634,5,0,0:0:0:0:
256,192,39571,5,8,0:0:0:0:
256,192,40509,5,0,0:0:0:0:
256,192,40977,5,8,0:0:0:0:
256,192,41329,5,8,0:0:0:0:
256,192,42384,5,0,0:0:0:0:
256,192,42852,5,8,0:0:0:0:
256,192,43321,5,0,0:0:0:0:
256,192,43790,5,8,0:0:0:0:
256,192,44259,5,4,0:0:0:0:
256,192,45196,5,4,0:0:0:0:
256,192,53634,5,0,0:0:0:0:
256,192,54102,5,0,0:0:0:0:
256,192,54571,5,8,0:0:0:0:
256,192,55509,5,0,0:0:0:0:
256,192,55977,5,8,0:0:0:0:
256,192,56446,5,8,0:0:0:0:
256,192,57384,5,0,0:0:0:0:
256,192,57852,5,0,0:0:0:0:
256,192,58321,5,0,0:0:0:0:
256,192,58790,5,0,0:0:0:0:
256,192,59259,5,8,0:0:0:0:
256,192,59727,5,8,0:0:0:0:
256,192,61134,5,0,0:0:0:0:
256,192,61602,5,12,0:0:0:0:
256,192,62071,5,0,0:0:0:0:
256,192,63243,5,12,0:0:0:0:
256,192,63712,5,12,0:0:0:0:
256,192,64884,5,0,0:0:0:0:
256,192,65352,5,0,0:0:0:0:
256,192,65821,5,0,0:0:0:0:
256,192,66524,5,8,0:0:0:0:
256,192,66993,5,8,0:0:0:0:
256,192,67462,5,8,0:0:0:0:
256,192,68634,5,0,0:0:0:0:
256,192,69102,5,12,0:0:0:0:
256,192,69571,5,0,0:0:0:0:
256,192,70509,5,12,0:0:0:0:
256,192,70977,5,12,0:0:0:0:
256,192,71329,5,12,0:0:0:0:
256,192,72852,5,0,0:0:0:0:
256,192,73321,5,0,0:0:0:0:
256,192,74024,5,12,0:0:0:0:
256,192,74962,5,12,0:0:0:0:
256,192,76134,5,0,0:0:0:0:
256,192,76602,5,8,0:0:0:0:
256,192,77071,5,8,0:0:0:0:
256,192,77540,5,0,0:0:0:0:
256,192,78009,5,12,0:0:0:0:
256,192,78712,5,12,0:0:0:0:
256,192,79884,5,0,0:0:0:0:
256,192,80352,5,8,0:0:0:0:
256,192,80821,5,8,0:0:0:0:
256,192,81290,5,8,0:0:0:0:
256,192,81993,5,4,0:0:0:0:
256,192,82462,5,4,0:0:0:0:
256,192,83634,5,0,0:0:0:0:
256,192,84102,5,8,0:0:0:0:
256,192,84571,5,8,0:0:0:0:
256,192,85040,5,0,0:0:0:0:
256,192,85509,5,12,0:0:0:0:
256,192,86212,5,12,0:0:0:0:
256,192,87384,5,0,0:0:0:0:
256,192,87852,5,8,0:0:0:0:
256,192,88321,5,0,0:0:0:0:
256,192,89024,5,12,0:0:0:0:
256,192,89962,5,8,0:0:0:0:
256,192,91134,5,4,0:0:0:0:
