osu file format v14

[General]
AudioFilename: audio.mp3
AudioLeadIn: 0
PreviewTime: 27958
Countdown: 0
SampleSet: Normal
StackLeniency: 0.2
Mode: 1
LetterboxInBreaks: 0
WidescreenStoryboard: 1

[Editor]
Bookmarks: 14244,27958,41672,55387,62244,75958
DistanceSpacing: 2
BeatDivisor: 4
GridSize: 32
TimelineZoom: 2.3

[Metadata]
Title:Ta Fluindo
TitleUnicode:Tá Fluindo
Artist:MC Poze do Rodo
ArtistUnicode:MC Poze do Rodo
Creator:Genjuro
Version:Normal do Skull Kid
Source:
Tags:portuguese funk carioca brazil brasil kqrth skull kid skid vrnl the bros 3 fácil difícil kantan futsuu muzukashii oni
BeatmapID:2594807
BeatmapSetID:1247959

[Difficulty]
HPDrainRate:6
CircleSize:2
OverallDifficulty:4
ApproachRate:10
SliderMultiplier:1.4
SliderTickRate:1

[Events]
//Background and Video events
0,0,"bg.jpg",0,-50
//Break Periods
2,730,5222
2,7587,13365
2,76158,80651
2,83015,88794
//Storyboard Layer 0 (Background)
//Storyboard Layer 1 (Fail)
//Storyboard Layer 2 (Pass)
//Storyboard Layer 3 (Foreground)
//Storyboard Layer 4 (Overlay)
//Storyboard Sound Samples

[TimingPoints]
530,428.571428571429,4,1,0,100,1,0
637,-100,4,1,0,25,0,0
5565,-100,4,1,0,100,0,0
7494,-100,4,1,0,25,0,0
13708,-100,4,1,0,100,0,0
14137,-100,4,1,0,100,0,0
27422,-100,4,1,0,100,0,0
27851,-100,4,1,0,100,0,0
41137,-100,4,1,0,100,0,0
41565,-100,4,1,0,100,0,0
54851,-100,4,1,0,100,0,0
55280,-100,4,1,0,100,0,0
62244,-100,4,1,0,100,0,1
75958,-100,4,1,0,100,0,0
76065,-100,4,1,0,25,0,0
80993,-100,4,1,0,100,0,0
82922,-100,4,1,0,25,0,0
89136,-100,4,1,0,100,0,0
89565,-100,4,1,0,100,0,0
102850,-100,4,1,0,100,0,0
103279,-100,4,1,0,100,0,0
116565,-100,4,1,0,100,0,0
116993,-100,4,1,0,100,0,0
130279,-100,4,1,0,100,0,0
130708,-100,4,1,0,100,0,0
137672,-100,4,1,0,100,0,1
151387,-100,4,1,0,100,0,0

[HitObjects]
256,192,530,5,4,0:0:0:0:
256,192,5672,5,8,0:0:0:0:
256,192,6315,1,8,0:0:0:0:
256,192,6958,1,8,0:0:0:0:
256,192,7387,1,4,0:0:0:0:
256,192,13815,5,12,0:0:0:0:
256,192,14244,1,4,0:0:0:0:
256,192,14672,1,8,0:0:0:0:
256,192,14887,1,8,0:0:0:0:
256,192,15101,1,0,0:0:0:0:
256,192,15530,1,8,0:0:0:0:
256,192,15958,1,0,0:0:0:0:
256,192,16387,1,8,0:0:0:0:
256,192,16601,1,8,0:0:0:0:
256,192,16815,1,8,0:0:0:0:
256,192,17244,1,0,0:0:0:0:
256,192,17672,1,8,0:0:0:0:
256,192,18530,1,0,0:0:0:0:
256,192,18958,1,8,0:0:0:0:
256,192,19387,1,0,0:0:0:0:
256,192,19815,1,8,0:0:0:0:
256,192,20030,1,8,0:0:0:0:
256,192,20244,1,8,0:0:0:0:
256,192,20672,1,8,0:0:0:0:
256,192,21101,1,0,0:0:0:0:
256,192,21530,1,8,0:0:0:0:
256,192,21744,1,8,0:0:0:0:
256,192,21958,1,0,0:0:0:0:
256,192,22387,1,8,0:0:0:0:
256,192,22815,1,0,0:0:0:0:
256,192,23244,1,8,0:0:0:0:
256,192,23458,1,8,0:0:0:0:
256,192,23672,1,8,0:0:0:0:
256,192,24101,1,0,0:0:0:0:
256,192,24530,1,12,0:0:0:0:
256,192,27530,1,12,0:0:0:0:
256,192,27958,1,4,0:0:0:0:
256,192,28387,1,8,0:0:0:0:
256,192,28601,1,8,0:0:0:0:
256,192,28815,1,8,0:0:0:0:
256,192,29244,1,8,0:0:0:0:
256,192,30101,1,8,0:0:0:0:
256,192,30530,1,0,0:0:0:0:
256,192,30744,1,0,0:0:0:0:
256,192,30958,1,8,0:0:0:0:
256,192,31387,1,0,0:0:0:0:
256,192,31815,1,8,0:0:0:0:
256,192,32030,1,8,0:0:0:0:
256,192,32244,1,8,0:0:0:0:
256,192,32672,1,8,0:0:0:0:
256,192,33530,1,0,0:0:0:0:
256,192,33958,1,8,0:0:0:0:
256,192,34172,1,0,0:0:0:0:
256,192,34387,1,8,0:0:0:0:
256,192,34815,1,0,0:0:0:0:
256,192,35244,1,8,0:0:0:0:
256,192,35458,1,8,0:0:0:0:
256,192,35672,1,8,0:0:0:0:
256,192,36101,1,0,0:0:0:0:
256,192,36530,1,8,0:0:0:0:
256,192,36958,1,0,0:0:0:0:
256,192,37172,1,0,0:0:0:0:
256,192,37387,1,8,0:0:0:0:
256,192,37601,1,8,0:0:0:0:
256,192,37815,1,0,0:0:0:0:
256,192,38244,1,8,0:0:0:0:
256,192,41244,1,12,0:0:0:0:
256,192,41672,1,4,0:0:0:0:
256,192,42101,1,8,0:0:0:0:
256,192,42315,1,8,0:0:0:0:
256,192,42530,1,8,0:0:0:0:
256,192,42958,1,8,0:0:0:0:
256,192,43815,1,8,0:0:0:0:
256,192,44244,1,0,0:0:0:0:
256,192,44458,1,0,0:0:0:0:
256,192,44672,1,8,0:0:0:0:
256,192,45101,1,0,0:0:0:0:
256,192,45530,1,8,0:0:0:0:
256,192,45744,1,8,0:0:0:0:
256,192,45958,1,8,0:0:0:0:
256,192,46387,1,8,0:0:0:0:
256,192,47244,1,0,0:0:0:0:
256,192,47672,1,8,0:0:0:0:
256,192,47887,1,0,0:0:0:0:
256,192,48101,1,8,0:0:0:0:
256,192,48530,1,0,0:0:0:0:
256,192,48958,1,8,0:0:0:0:
256,192,49172,1,8,0:0:0:0:
256,192,49387,1,8,0:0:0:0:
256,192,49815,1,0,0:0:0:0:
256,192,50244,1,8,0:0:0:0:
256,192,50672,1,0,0:0:0:0:
256,192,50887,1,0,0:0:0:0:
256,192,51101,1,8,0:0:0:0:
256,192,51315,1,8,0:0:0:0:
256,192,51530,1,0,0:0:0:0:
256,192,51958,1,8,0:0:0:0:
256,192,54958,1,12,0:0:0:0:
256,192,55387,1,4,0:0:0:0:
256,192,55815,1,8,0:0:0:0:
256,192,56030,1,8,0:0:0:0:
256,192,56244,1,0,0:0:0:0:
256,192,56458,1,0,0:0:0:0:
256,192,56672,1,8,0:0:0:0:
256,192,57101,1,0,0:0:0:0:
256,192,57958,1,8,0:0:0:0:
256,192,58387,1,8,0:0:0:0:
256,192,58815,1,0,0:0:0:0:
256,192,59244,1,8,0:0:0:0:
256,192,59458,1,8,0:0:0:0:
256,192,59672,1,0,0:0:0:0:
256,192,59887,1,0,0:0:0:0:
256,192,60101,1,8,0:0:0:0:
256,192,60530,1,0,0:0:0:0:
256,192,61387,1,8,0:0:0:0:
256,192,61815,1,8,0:0:0:0:
256,192,62244,1,4,0:0:0:0:
256,192,62672,1,8,0:0:0:0:
256,192,62887,1,8,0:0:0:0:
256,192,63530,1,8,0:0:0:0:
256,192,63744,1,8,0:0:0:0:
256,192,63958,1,0,0:0:0:0:
256,192,64387,1,8,0:0:0:0:
256,192,64601,1,8,0:0:0:0:
256,192,65244,1,8,0:0:0:0:
256,192,65458,1,8,0:0:0:0:
256,192,65672,1,0,0:0:0:0:
256,192,66530,1,0,0:0:0:0:
256,192,66958,1,0,0:0:0:0:
256,192,67387,1,8,0:0:0:0:
256,192,67601,1,8,0:0:0:0:
256,192,67815,1,8,0:0:0:0:
256,192,68030,1,8,0:0:0:0:
256,192,68244,1,8,0:0:0:0:
256,192,68672,1,8,0:0:0:0:
256,192,69101,1,0,0:0:0:0:
256,192,69530,1,8,0:0:0:0:
256,192,69744,1,8,0:0:0:0:
256,192,70387,1,8,0:0:0:0:
256,192,70601,1,8,0:0:0:0:
256,192,70815,1,0,0:0:0:0:
256,192,71244,1,8,0:0:0:0:
256,192,71458,1,8,0:0:0:0:
256,192,72101,1,8,0:0:0:0:
256,192,72315,1,8,0:0:0:0:
256,192,72530,1,0,0:0:0:0:
256,192,73387,1,0,0:0:0:0:
256,192,73815,1,0,0:0:0:0:
256,192,74244,1,8,0:0:0:0:
256,192,74458,1,8,0:0:0:0:
256,192,74672,1,8,0:0:0:0:
256,192,74887,1,8,0:0:0:0:
256,192,75101,1,8,0:0:0:0:
256,192,75530,1,8,0:0:0:0:
256,192,75958,1,4,0:0:0:0:
256,192,81101,5,8,0:0:0:0:
256,192,81744,1,8,0:0:0:0:
256,192,82387,1,8,0:0:0:0:
256,192,82815,1,4,0:0:0:0:
256,192,89244,5,12,0:0:0:0:
256,192,89672,1,4,0:0:0:0:
256,192,90101,1,8,0:0:0:0:
256,192,90315,1,8,0:0:0:0:
256,192,90530,1,0,0:0:0:0:
256,192,90958,1,8,0:0:0:0:
256,192,91387,1,0,0:0:0:0:
256,192,91815,1,8,0:0:0:0:
256,192,92030,1,8,0:0:0:0:
256,192,92244,1,8,0:0:0:0:
256,192,92672,1,0,0:0:0:0:
256,192,93101,1,8,0:0:0:0:
256,192,93958,1,0,0:0:0:0:
256,192,94387,1,8,0:0:0:0:
256,192,94815,1,0,0:0:0:0:
256,192,95244,1,8,0:0:0:0:
256,192,95458,1,8,0:0:0:0:
256,192,95672,1,8,0:0:0:0:
256,192,96101,1,8,0:0:0:0:
256,192,96530,1,0,0:0:0:0:
256,192,96958,1,8,0:0:0:0:
256,192,97172,1,8,0:0:0:0:
256,192,97387,1,0,0:0:0:0:
256,192,97815,1,8,0:0:0:0:
256,192,98244,1,0,0:0:0:0:
256,192,98672,1,8,0:0:0:0:
256,192,98887,1,8,0:0:0:0:
256,192,99101,1,8,0:0:0:0:
256,192,99530,1,0,0:0:0:0:
256,192,99958,1,12,0:0:0:0:
256,192,102958,1,12,0:0:0:0:
256,192,103387,1,4,0:0:0:0:
256,192,103815,1,8,0:0:0:0:
256,192,104030,1,8,0:0:0:0:
256,192,104244,1,8,0:0:0:0:
256,192,104672,1,8,0:0:0:0:
256,192,105530,1,8,0:0:0:0:
256,192,105958,1,0,0:0:0:0:
256,192,106172,1,0,0:0:0:0:
256,192,106387,1,8,0:0:0:0:
256,192,106815,1,0,0:0:0:0:
256,192,107244,1,8,0:0:0:0:
256,192,107458,1,8,0:0:0:0:
256,192,107672,1,8,0:0:0:0:
256,192,108101,1,8,0:0:0:0:
256,192,108958,1,0,0:0:0:0:
256,192,109387,1,8,0:0:0:0:
256,192,109601,1,0,0:0:0:0:
256,192,109815,1,8,0:0:0:0:
256,192,110244,1,0,0:0:0:0:
256,192,110672,1,8,0:0:0:0:
256,192,110887,1,8,0:0:0:0:
256,192,111101,1,8,0:0:0:0:
256,192,111530,1,0,0:0:0:0:
256,192,111958,1,8,0:0:0:0:
256,192,112387,1,0,0:0:0:0:
256,192,112601,1,0,0:0:0:0:
256,192,112815,1,8,0:0:0:0:
256,192,113030,1,8,0:0:0:0:
256,192,113244,1,0,0:0:0:0:
256,192,113672,1,8,0:0:0:0:
256,192,116672,1,12,0:0:0:0:
256,192,117101,1,4,0:0:0:0:
256,192,117530,1,8,0:0:0:0:
256,192,117744,1,8,0:0:0:0:
256,192,117958,1,8,0:0:0:0:
256,192,118387,1,8,0:0:0:0:
256,192,119244,1,8,0:0:0:0:
256,192,119672,1,0,0:0:0:0:
256,192,119887,1,0,0:0:0:0:
256,192,120101,1,8,0:0:0:0:
256,192,120530,1,0,0:0:0:0:
256,192,120958,1,8,0:0:0:0:
256,192,121172,1,8,0:0:0:0:
256,192,121387,1,8,0:0:0:0:
256,192,121815,1,8,0:0:0:0:
256,192,122672,1,0,0:0:0:0:
256,192,123101,1,8,0:0:0:0:
256,192,123315,1,0,0:0:0:0:
256,192,123530,1,8,0:0:0:0:
256,192,123958,1,0,0:0:0:0:
256,192,124387,1,8,0:0:0:0:
256,192,124601,1,8,0:0:0:0:
256,192,124815,1,8,0:0:0:0:
256,192,125244,1,0,0:0:0:0:
256,192,125672,1,8,0:0:0:0:
256,192,126101,1,0,0:0:0:0:
256,192,126315,1,0,0:0:0:0:
256,192,126530,1,8,0:0:0:0:
256,192,126744,1,8,0:0:0:0:
256,192,126958,1,0,0:0:0:0:
256,192,127387,1,8,0:0:0:0:
256,192,130387,1,12,0:0:0:0:
256,192,130815,1,4,0:0:0:0:
256,192,131244,1,8,0:0:0:0:
256,192,131458,1,8,0:0:0:0:
256,192,131672,1,0,0:0:0:0:
256,192,131887,1,0,0:0:0:0:
256,192,132101,1,8,0:0:0:0:
256,192,132530,1,0,0:0:0:0:
256,192,133387,1,8,0:0:0:0:
256,192,133815,1,8,0:0:0:0:
256,192,134244,1,0,0:0:0:0:
256,192,134672,1,8,0:0:0:0:
256,192,134887,1,8,0:0:0:0:
256,192,135101,1,0,0:0:0:0:
256,192,135315,1,0,0:0:0:0:
256,192,135530,1,8,0:0:0:0:
256,192,135958,1,0,0:0:0:0:
256,192,136815,1,8,0:0:0:0:
256,192,137244,1,8,0:0:0:0:
256,192,137672,1,4,0:0:0:0:
256,192,138101,1,8,0:0:0:0:
256,192,138315,1,8,0:0:0:0:
256,192,138958,1,8,0:0:0:0:
256,192,139172,1,8,0:0:0:0:
256,192,139387,1,0,0:0:0:0:
256,192,139815,1,8,0:0:0:0:
256,192,140030,1,8,0:0:0:0:
256,192,140672,1,8,0:0:0:0:
256,192,140887,1,8,0:0:0:0:
256,192,141101,1,0,0:0:0:0:
256,192,141958,1,0,0:0:0:0:
256,192,142387,1,0,0:0:0:0:
256,192,142815,1,8,0:0:0:0:
256,192,143030,1,8,0:0:0:0:
256,192,143244,1,8,0:0:0:0:
256,192,143458,1,8,0:0:0:0:
256,192,143672,1,8,0:0:0:0:
256,192,144101,1,8,0:0:0:0:
256,192,144530,1,0,0:0:0:0:
256,192,144958,1,8,0:0:0:0:
256,192,145172,1,8,0:0:0:0:
256,192,145815,1,8,0:0:0:0:
256,192,146030,1,8,0:0:0:0:
256,192,146244,1,0,0:0:0:0:
256,192,146672,1,8,0:0:0:0:
256,192,146887,1,8,0:0:0:0:
256,192,147530,1,8,0:0:0:0:
256,192,147744,1,8,0:0:0:0:
256,192,147958,1,0,0:0:0:0:
256,192,148815,1,0,0:0:0:0:
256,192,149244,1,0,0:0:0:0:
256,192,149672,1,8,0:0:0:0:
256,192,149887,1,8,0:0:0:0:
256,192,150101,1,8,0:0:0:0:
256,192,150315,1,8,0:0:0:0:
256,192,150530,1,8,0:0:0:0:
256,192,150958,1,8,0:0:0:0:
256,192,151387,1,12,0:0:0:0:
