osu file format v14

[General]
AudioFilename: audio.mp3
AudioLeadIn: 0
PreviewTime: 27958
Countdown: 0
SampleSet: Normal
StackLeniency: 0.2
Mode: 1
LetterboxInBreaks: 0
WidescreenStoryboard: 0

[Editor]
DistanceSpacing: 2
BeatDivisor: 2
GridSize: 32
TimelineZoom: 2.3

[Metadata]
Title:Ta Fluindo
TitleUnicode:Tá Fluindo
Artist:MC Poze do Rodo
ArtistUnicode:MC Poze do Rodo
Creator:Genjuro
Version:Extremo
Source:
Tags:portuguese funk carioca brazil brasil kqrth skull kid skid vrnl the bros 3 fácil difícil kantan futsuu muzukashii oni
BeatmapID:2593788
BeatmapSetID:1247959

[Difficulty]
HPDrainRate:6
CircleSize:2
OverallDifficulty:6
ApproachRate:10
SliderMultiplier:1.4
SliderTickRate:1

[Events]
//Background and Video events
0,0,"bg.jpg",0,-50
//Break Periods
//Storyboard Layer 0 (Background)
//Storyboard Layer 1 (Fail)
//Storyboard Layer 2 (Pass)
//Storyboard Layer 3 (Foreground)
//Storyboard Layer 4 (Overlay)
//Storyboard Sound Samples

[TimingPoints]
530,428.571428571429,4,1,0,100,1,0
637,-100,4,1,0,25,0,0
5565,-100,4,1,0,100,0,0
7494,-100,4,1,0,25,0,0
13708,-33.3333333333333,4,1,0,100,0,0
14137,-100,4,1,0,100,0,0
27422,-80,4,1,0,100,0,0
27851,-100,4,1,0,100,0,0
41137,-33.3333333333333,4,1,0,100,0,0
41565,-100,4,1,0,100,0,0
54851,-33.3333333333333,4,1,0,100,0,0
55280,-100,4,1,0,100,0,0
62244,-100,4,1,0,100,0,1
75958,-100,4,1,0,100,0,0
76065,-100,4,1,0,25,0,0
80993,-100,4,1,0,100,0,0
82922,-100,4,1,0,25,0,0
89136,-33.3333333333333,4,1,0,100,0,0
89565,-100,4,1,0,100,0,0
102850,-80,4,1,0,100,0,0
103279,-100,4,1,0,100,0,0
116565,-33.3333333333333,4,1,0,100,0,0
116993,-100,4,1,0,100,0,0
130279,-33.3333333333333,4,1,0,100,0,0
130708,-100,4,1,0,100,0,0
137672,-100,4,1,0,100,0,1
151387,-100,4,1,0,100,0,0

[HitObjects]
256,192,530,5,4,0:0:0:0:
256,192,1387,1,8,0:0:0:0:
256,192,1494,1,8,0:0:0:0:
256,192,1601,1,8,0:0:0:0:
256,192,1708,1,8,0:0:0:0:
256,192,5672,1,8,0:0:0:0:
256,192,6315,1,8,0:0:0:0:
256,192,6958,1,8,0:0:0:0:
256,192,7387,1,4,0:0:0:0:
256,192,8244,1,8,0:0:0:0:
256,192,8351,1,8,0:0:0:0:
256,192,8458,1,8,0:0:0:0:
256,192,8565,1,8,0:0:0:0:
256,192,10815,8,0,11672,0:0:0:0:
256,192,13815,5,12,0:0:0:0:
256,192,14244,1,4,0:0:0:0:
256,192,14530,1,8,0:0:0:0:
256,192,14851,1,8,0:0:0:0:
256,192,15315,1,0,0:0:0:0:
256,192,15530,1,8,0:0:0:0:
256,192,15958,1,0,0:0:0:0:
256,192,16244,1,8,0:0:0:0:
256,192,16565,1,8,0:0:0:0:
256,192,17030,1,0,0:0:0:0:
256,192,17244,1,8,0:0:0:0:
256,192,17458,1,0,0:0:0:0:
256,192,17672,1,0,0:0:0:0:
256,192,17958,1,8,0:0:0:0:
256,192,18280,1,8,0:0:0:0:
256,192,18744,1,0,0:0:0:0:
256,192,18958,1,8,0:0:0:0:
256,192,19387,1,0,0:0:0:0:
256,192,19672,1,8,0:0:0:0:
256,192,19994,1,8,0:0:0:0:
256,192,20458,1,0,0:0:0:0:
256,192,20672,1,8,0:0:0:0:
256,192,20887,1,0,0:0:0:0:
256,192,21101,1,0,0:0:0:0:
256,192,21387,1,8,0:0:0:0:
256,192,21708,1,8,0:0:0:0:
256,192,22172,1,0,0:0:0:0:
256,192,22387,1,8,0:0:0:0:
256,192,22815,1,0,0:0:0:0:
256,192,23101,1,8,0:0:0:0:
256,192,23422,1,8,0:0:0:0:
256,192,23887,1,0,0:0:0:0:
256,192,24101,1,8,0:0:0:0:
256,192,24315,1,0,0:0:0:0:
256,192,24530,1,4,0:0:0:0:
256,192,27530,1,12,0:0:0:0:
256,192,27958,1,4,0:0:0:0:
256,192,28244,1,8,0:0:0:0:
256,192,28565,1,8,0:0:0:0:
256,192,28815,1,0,0:0:0:0:
256,192,28922,1,0,0:0:0:0:
256,192,29030,1,0,0:0:0:0:
256,192,29244,1,8,0:0:0:0:
256,192,29512,1,8,0:0:0:0:
256,192,29672,1,0,0:0:0:0:
256,192,29958,1,8,0:0:0:0:
256,192,30280,1,8,0:0:0:0:
256,192,30530,1,8,0:0:0:0:
256,192,30744,1,0,0:0:0:0:
256,192,30958,1,8,0:0:0:0:
256,192,31172,1,0,0:0:0:0:
256,192,31387,1,0,0:0:0:0:
256,192,31672,1,8,0:0:0:0:
256,192,31994,1,8,0:0:0:0:
256,192,32244,1,0,0:0:0:0:
256,192,32351,1,0,0:0:0:0:
256,192,32458,1,0,0:0:0:0:
256,192,32565,1,0,0:0:0:0:
256,192,32672,1,8,0:0:0:0:
256,192,32940,1,8,0:0:0:0:
256,192,33101,1,0,0:0:0:0:
256,192,33387,1,8,0:0:0:0:
256,192,33708,1,8,0:0:0:0:
256,192,33958,1,8,0:0:0:0:
256,192,34172,1,0,0:0:0:0:
256,192,34387,1,8,0:0:0:0:
256,192,34601,1,0,0:0:0:0:
256,192,34815,1,0,0:0:0:0:
256,192,35101,1,8,0:0:0:0:
256,192,35422,1,8,0:0:0:0:
256,192,35672,1,0,0:0:0:0:
256,192,35780,1,0,0:0:0:0:
256,192,35887,1,0,0:0:0:0:
256,192,36101,1,8,0:0:0:0:
256,192,36369,1,8,0:0:0:0:
256,192,36530,1,0,0:0:0:0:
256,192,36815,1,8,0:0:0:0:
256,192,37137,1,8,0:0:0:0:
256,192,37387,1,8,0:0:0:0:
256,192,37601,1,0,0:0:0:0:
256,192,37815,1,8,0:0:0:0:
256,192,38030,1,0,0:0:0:0:
256,192,38244,1,0,0:0:0:0:
256,192,41244,1,12,0:0:0:0:
256,192,41672,1,4,0:0:0:0:
256,192,41958,1,8,0:0:0:0:
256,192,42280,1,8,0:0:0:0:
256,192,42530,1,0,0:0:0:0:
256,192,42637,1,8,0:0:0:0:
256,192,42744,1,0,0:0:0:0:
256,192,42958,1,8,0:0:0:0:
256,192,43226,1,8,0:0:0:0:
256,192,43387,1,0,0:0:0:0:
256,192,43672,1,8,0:0:0:0:
256,192,43994,1,8,0:0:0:0:
256,192,44244,1,8,0:0:0:0:
256,192,44458,1,0,0:0:0:0:
256,192,44672,1,8,0:0:0:0:
256,192,44887,1,0,0:0:0:0:
256,192,45101,1,0,0:0:0:0:
256,192,45387,1,8,0:0:0:0:
256,192,45708,1,8,0:0:0:0:
256,192,45958,1,0,0:0:0:0:
256,192,46065,1,8,0:0:0:0:
256,192,46172,1,0,0:0:0:0:
256,192,46280,1,0,0:0:0:0:
256,192,46387,1,8,0:0:0:0:
256,192,46655,1,8,0:0:0:0:
256,192,46815,1,0,0:0:0:0:
256,192,47101,1,8,0:0:0:0:
256,192,47422,1,8,0:0:0:0:
256,192,47672,1,8,0:0:0:0:
256,192,47887,1,0,0:0:0:0:
256,192,48101,1,8,0:0:0:0:
256,192,48315,1,0,0:0:0:0:
256,192,48530,1,0,0:0:0:0:
256,192,48815,1,8,0:0:0:0:
256,192,49137,1,8,0:0:0:0:
256,192,49387,1,0,0:0:0:0:
256,192,49494,1,8,0:0:0:0:
256,192,49601,1,0,0:0:0:0:
256,192,49815,1,8,0:0:0:0:
256,192,50083,1,8,0:0:0:0:
256,192,50244,1,0,0:0:0:0:
256,192,50530,1,8,0:0:0:0:
256,192,50851,1,8,0:0:0:0:
256,192,51101,1,8,0:0:0:0:
256,192,51315,1,0,0:0:0:0:
256,192,51530,1,8,0:0:0:0:
256,192,51744,1,0,0:0:0:0:
256,192,51958,1,0,0:0:0:0:
256,192,54958,1,12,0:0:0:0:
256,192,55387,1,4,0:0:0:0:
256,192,55672,1,8,0:0:0:0:
256,192,55994,1,8,0:0:0:0:
256,192,56244,1,8,0:0:0:0:
256,192,56351,1,8,0:0:0:0:
256,192,56458,1,0,0:0:0:0:
256,192,56672,1,8,0:0:0:0:
256,192,56940,1,8,0:0:0:0:
256,192,57101,1,0,0:0:0:0:
256,192,57387,1,8,0:0:0:0:
256,192,57708,1,8,0:0:0:0:
256,192,57958,1,8,0:0:0:0:
256,192,58172,1,0,0:0:0:0:
256,192,58387,1,8,0:0:0:0:
256,192,58601,1,0,0:0:0:0:
256,192,58815,1,0,0:0:0:0:
256,192,59101,1,8,0:0:0:0:
256,192,59422,1,8,0:0:0:0:
256,192,59672,1,8,0:0:0:0:
256,192,59780,1,8,0:0:0:0:
256,192,59887,1,0,0:0:0:0:
256,192,59994,1,0,0:0:0:0:
256,192,60101,1,8,0:0:0:0:
256,192,60369,1,8,0:0:0:0:
256,192,60530,1,0,0:0:0:0:
256,192,60815,1,8,0:0:0:0:
256,192,61137,1,8,0:0:0:0:
256,192,61387,1,8,0:0:0:0:
256,192,61601,1,0,0:0:0:0:
256,192,61815,1,8,0:0:0:0:
256,192,62030,1,0,0:0:0:0:
256,192,62244,1,4,0:0:0:0:
256,192,62458,1,0,0:0:0:0:
256,192,62672,1,8,0:0:0:0:
256,192,62887,1,8,0:0:0:0:
256,192,63101,1,0,0:0:0:0:
256,192,63315,1,0,0:0:0:0:
256,192,63530,1,8,0:0:0:0:
256,192,63637,1,8,0:0:0:0:
256,192,63744,1,8,0:0:0:0:
256,192,63958,1,0,0:0:0:0:
256,192,64172,1,0,0:0:0:0:
256,192,64387,1,8,0:0:0:0:
256,192,64601,1,8,0:0:0:0:
256,192,64815,1,0,0:0:0:0:
256,192,65030,1,0,0:0:0:0:
256,192,65244,1,8,0:0:0:0:
256,192,65351,1,8,0:0:0:0:
256,192,65458,1,8,0:0:0:0:
256,192,65672,1,0,0:0:0:0:
256,192,65887,1,0,0:0:0:0:
256,192,66101,1,0,0:0:0:0:
256,192,66315,1,0,0:0:0:0:
256,192,66530,1,0,0:0:0:0:
256,192,66744,1,0,0:0:0:0:
256,192,66958,1,0,0:0:0:0:
256,192,67172,1,0,0:0:0:0:
256,192,67387,1,8,0:0:0:0:
256,192,67601,1,8,0:0:0:0:
256,192,67815,1,8,0:0:0:0:
256,192,68030,1,8,0:0:0:0:
256,192,68244,1,8,0:0:0:0:
256,192,68458,1,8,0:0:0:0:
256,192,68672,1,8,0:0:0:0:
256,192,68887,1,8,0:0:0:0:
256,192,69101,1,0,0:0:0:0:
256,192,69315,1,0,0:0:0:0:
256,192,69530,1,8,0:0:0:0:
256,192,69744,1,8,0:0:0:0:
256,192,69958,1,0,0:0:0:0:
256,192,70172,1,0,0:0:0:0:
256,192,70387,1,8,0:0:0:0:
256,192,70494,1,8,0:0:0:0:
256,192,70601,1,8,0:0:0:0:
256,192,70815,1,0,0:0:0:0:
256,192,71030,1,0,0:0:0:0:
256,192,71244,1,8,0:0:0:0:
256,192,71458,1,8,0:0:0:0:
256,192,71672,1,0,0:0:0:0:
256,192,71887,1,0,0:0:0:0:
256,192,72101,1,8,0:0:0:0:
256,192,72208,1,8,0:0:0:0:
256,192,72315,1,8,0:0:0:0:
256,192,72530,1,0,0:0:0:0:
256,192,72744,1,0,0:0:0:0:
256,192,72958,1,0,0:0:0:0:
256,192,73172,1,0,0:0:0:0:
256,192,73387,1,0,0:0:0:0:
256,192,73601,1,0,0:0:0:0:
256,192,73815,1,0,0:0:0:0:
256,192,74030,1,0,0:0:0:0:
256,192,74244,1,8,0:0:0:0:
256,192,74458,1,8,0:0:0:0:
256,192,74672,1,8,0:0:0:0:
256,192,74887,1,8,0:0:0:0:
256,192,75101,1,8,0:0:0:0:
256,192,75315,1,8,0:0:0:0:
256,192,75530,1,8,0:0:0:0:
256,192,75744,1,8,0:0:0:0:
256,192,75958,1,4,0:0:0:0:
256,192,76815,1,8,0:0:0:0:
256,192,76922,1,8,0:0:0:0:
256,192,77030,1,8,0:0:0:0:
256,192,77137,1,8,0:0:0:0:
256,192,81101,1,8,0:0:0:0:
256,192,81744,1,8,0:0:0:0:
256,192,82387,1,8,0:0:0:0:
256,192,82815,1,4,0:0:0:0:
256,192,83672,1,8,0:0:0:0:
256,192,83780,1,8,0:0:0:0:
256,192,83887,1,8,0:0:0:0:
256,192,83994,1,8,0:0:0:0:
256,192,86244,8,0,87101,0:0:0:0:
256,192,89244,5,12,0:0:0:0:
256,192,89672,1,4,0:0:0:0:
256,192,89958,1,8,0:0:0:0:
256,192,90280,1,8,0:0:0:0:
256,192,90744,1,0,0:0:0:0:
256,192,90958,1,8,0:0:0:0:
256,192,91387,1,0,0:0:0:0:
256,192,91672,1,8,0:0:0:0:
256,192,91994,1,8,0:0:0:0:
256,192,92458,1,0,0:0:0:0:
256,192,92672,1,8,0:0:0:0:
256,192,92887,1,0,0:0:0:0:
256,192,93101,1,0,0:0:0:0:
256,192,93387,1,8,0:0:0:0:
256,192,93708,1,8,0:0:0:0:
256,192,94172,1,0,0:0:0:0:
256,192,94387,1,8,0:0:0:0:
256,192,94815,1,0,0:0:0:0:
256,192,95101,1,8,0:0:0:0:
256,192,95422,1,8,0:0:0:0:
256,192,95887,1,0,0:0:0:0:
256,192,96101,1,8,0:0:0:0:
256,192,96315,1,0,0:0:0:0:
256,192,96530,1,0,0:0:0:0:
256,192,96815,1,8,0:0:0:0:
256,192,97137,1,8,0:0:0:0:
256,192,97601,1,0,0:0:0:0:
256,192,97815,1,8,0:0:0:0:
256,192,98244,1,0,0:0:0:0:
256,192,98530,1,8,0:0:0:0:
256,192,98851,1,8,0:0:0:0:
256,192,99315,1,0,0:0:0:0:
256,192,99530,1,8,0:0:0:0:
256,192,99744,1,0,0:0:0:0:
256,192,99958,1,4,0:0:0:0:
256,192,102958,1,12,0:0:0:0:
256,192,103387,1,4,0:0:0:0:
256,192,103672,1,8,0:0:0:0:
256,192,103994,1,8,0:0:0:0:
256,192,104244,1,0,0:0:0:0:
256,192,104351,1,0,0:0:0:0:
256,192,104458,1,0,0:0:0:0:
256,192,104672,1,8,0:0:0:0:
256,192,104940,1,8,0:0:0:0:
256,192,105101,1,0,0:0:0:0:
256,192,105387,1,8,0:0:0:0:
256,192,105708,1,8,0:0:0:0:
256,192,105958,1,8,0:0:0:0:
256,192,106172,1,0,0:0:0:0:
256,192,106387,1,8,0:0:0:0:
256,192,106601,1,0,0:0:0:0:
256,192,106815,1,0,0:0:0:0:
256,192,107101,1,8,0:0:0:0:
256,192,107422,1,8,0:0:0:0:
256,192,107672,1,0,0:0:0:0:
256,192,107780,1,0,0:0:0:0:
256,192,107887,1,0,0:0:0:0:
256,192,107994,1,0,0:0:0:0:
256,192,108101,1,8,0:0:0:0:
256,192,108369,1,8,0:0:0:0:
256,192,108530,1,0,0:0:0:0:
256,192,108815,1,8,0:0:0:0:
256,192,109137,1,8,0:0:0:0:
256,192,109387,1,8,0:0:0:0:
256,192,109601,1,0,0:0:0:0:
256,192,109815,1,8,0:0:0:0:
256,192,110030,1,0,0:0:0:0:
256,192,110244,1,0,0:0:0:0:
256,192,110530,1,8,0:0:0:0:
256,192,110851,1,8,0:0:0:0:
256,192,111101,1,0,0:0:0:0:
256,192,111208,1,0,0:0:0:0:
256,192,111315,1,0,0:0:0:0:
256,192,111530,1,8,0:0:0:0:
256,192,111797,1,8,0:0:0:0:
256,192,111958,1,0,0:0:0:0:
256,192,112244,1,8,0:0:0:0:
256,192,112565,1,8,0:0:0:0:
256,192,112815,1,8,0:0:0:0:
256,192,113030,1,0,0:0:0:0:
256,192,113244,1,8,0:0:0:0:
256,192,113458,1,0,0:0:0:0:
256,192,113672,1,0,0:0:0:0:
256,192,116672,1,12,0:0:0:0:
256,192,117101,1,4,0:0:0:0:
256,192,117387,1,8,0:0:0:0:
256,192,117708,1,8,0:0:0:0:
256,192,117958,1,0,0:0:0:0:
256,192,118065,1,8,0:0:0:0:
256,192,118172,1,0,0:0:0:0:
256,192,118387,1,8,0:0:0:0:
256,192,118655,1,8,0:0:0:0:
256,192,118815,1,0,0:0:0:0:
256,192,119101,1,8,0:0:0:0:
256,192,119422,1,8,0:0:0:0:
256,192,119672,1,8,0:0:0:0:
256,192,119887,1,0,0:0:0:0:
256,192,120101,1,8,0:0:0:0:
256,192,120315,1,0,0:0:0:0:
256,192,120530,1,0,0:0:0:0:
256,192,120815,1,8,0:0:0:0:
256,192,121137,1,8,0:0:0:0:
256,192,121387,1,0,0:0:0:0:
256,192,121494,1,8,0:0:0:0:
256,192,121601,1,0,0:0:0:0:
256,192,121708,1,0,0:0:0:0:
256,192,121815,1,8,0:0:0:0:
256,192,122083,1,8,0:0:0:0:
256,192,122244,1,0,0:0:0:0:
256,192,122530,1,8,0:0:0:0:
256,192,122851,1,8,0:0:0:0:
256,192,123101,1,8,0:0:0:0:
256,192,123315,1,0,0:0:0:0:
256,192,123530,1,8,0:0:0:0:
256,192,123744,1,0,0:0:0:0:
256,192,123958,1,0,0:0:0:0:
256,192,124244,1,8,0:0:0:0:
256,192,124565,1,8,0:0:0:0:
256,192,124815,1,0,0:0:0:0:
256,192,124922,1,8,0:0:0:0:
256,192,125030,1,0,0:0:0:0:
256,192,125244,1,8,0:0:0:0:
256,192,125512,1,8,0:0:0:0:
256,192,125672,1,0,0:0:0:0:
256,192,125958,1,8,0:0:0:0:
256,192,126280,1,8,0:0:0:0:
256,192,126530,1,8,0:0:0:0:
256,192,126744,1,0,0:0:0:0:
256,192,126958,1,8,0:0:0:0:
256,192,127172,1,0,0:0:0:0:
256,192,127387,1,0,0:0:0:0:
256,192,130387,1,12,0:0:0:0:
256,192,130815,1,4,0:0:0:0:
256,192,131101,1,8,0:0:0:0:
256,192,131422,1,8,0:0:0:0:
256,192,131672,1,8,0:0:0:0:
256,192,131780,1,8,0:0:0:0:
256,192,131887,1,0,0:0:0:0:
256,192,132101,1,8,0:0:0:0:
256,192,132369,1,8,0:0:0:0:
256,192,132530,1,0,0:0:0:0:
256,192,132815,1,8,0:0:0:0:
256,192,133137,1,8,0:0:0:0:
256,192,133387,1,8,0:0:0:0:
256,192,133601,1,0,0:0:0:0:
256,192,133815,1,8,0:0:0:0:
256,192,134030,1,0,0:0:0:0:
256,192,134244,1,0,0:0:0:0:
256,192,134530,1,8,0:0:0:0:
256,192,134851,1,8,0:0:0:0:
256,192,135101,1,8,0:0:0:0:
256,192,135208,1,8,0:0:0:0:
256,192,135315,1,0,0:0:0:0:
256,192,135422,1,0,0:0:0:0:
256,192,135530,1,8,0:0:0:0:
256,192,135797,1,8,0:0:0:0:
256,192,135958,1,0,0:0:0:0:
256,192,136244,1,8,0:0:0:0:
256,192,136565,1,8,0:0:0:0:
256,192,136815,1,8,0:0:0:0:
256,192,137030,1,0,0:0:0:0:
256,192,137244,1,8,0:0:0:0:
256,192,137458,1,0,0:0:0:0:
256,192,137672,1,4,0:0:0:0:
256,192,137887,1,0,0:0:0:0:
256,192,138101,1,8,0:0:0:0:
256,192,138315,1,8,0:0:0:0:
256,192,138530,1,0,0:0:0:0:
256,192,138744,1,0,0:0:0:0:
256,192,138958,1,8,0:0:0:0:
256,192,139065,1,8,0:0:0:0:
256,192,139172,1,8,0:0:0:0:
256,192,139387,1,0,0:0:0:0:
256,192,139601,1,0,0:0:0:0:
256,192,139815,1,8,0:0:0:0:
256,192,140030,1,8,0:0:0:0:
256,192,140244,1,0,0:0:0:0:
256,192,140458,1,0,0:0:0:0:
256,192,140672,1,8,0:0:0:0:
256,192,140780,1,8,0:0:0:0:
256,192,140887,1,8,0:0:0:0:
256,192,141101,1,0,0:0:0:0:
256,192,141315,1,0,0:0:0:0:
256,192,141530,1,0,0:0:0:0:
256,192,141744,1,0,0:0:0:0:
256,192,141958,1,0,0:0:0:0:
256,192,142172,1,0,0:0:0:0:
256,192,142387,1,0,0:0:0:0:
256,192,142601,1,0,0:0:0:0:
256,192,142815,1,8,0:0:0:0:
256,192,143030,1,8,0:0:0:0:
256,192,143244,1,8,0:0:0:0:
256,192,143458,1,8,0:0:0:0:
256,192,143672,1,8,0:0:0:0:
256,192,143887,1,8,0:0:0:0:
256,192,144101,1,8,0:0:0:0:
256,192,144315,1,8,0:0:0:0:
256,192,144530,1,0,0:0:0:0:
256,192,144744,1,0,0:0:0:0:
256,192,144958,1,8,0:0:0:0:
256,192,145172,1,8,0:0:0:0:
256,192,145387,1,0,0:0:0:0:
256,192,145601,1,0,0:0:0:0:
256,192,145815,1,8,0:0:0:0:
256,192,145922,1,8,0:0:0:0:
256,192,146030,1,8,0:0:0:0:
256,192,146244,1,0,0:0:0:0:
256,192,146458,1,0,0:0:0:0:
256,192,146672,1,8,0:0:0:0:
256,192,146887,1,8,0:0:0:0:
256,192,147101,1,0,0:0:0:0:
256,192,147315,1,0,0:0:0:0:
256,192,147530,1,8,0:0:0:0:
256,192,147637,1,8,0:0:0:0:
256,192,147744,1,8,0:0:0:0:
256,192,147958,1,0,0:0:0:0:
256,192,148172,1,0,0:0:0:0:
256,192,148387,1,0,0:0:0:0:
256,192,148601,1,0,0:0:0:0:
256,192,148815,1,0,0:0:0:0:
256,192,149030,1,0,0:0:0:0:
256,192,149244,1,0,0:0:0:0:
256,192,149458,1,0,0:0:0:0:
256,192,149672,1,8,0:0:0:0:
256,192,149887,1,8,0:0:0:0:
256,192,150101,1,8,0:0:0:0:
256,192,150315,1,8,0:0:0:0:
256,192,150530,1,8,0:0:0:0:
256,192,150744,1,8,0:0:0:0:
256,192,150958,1,8,0:0:0:0:
256,192,151172,1,8,0:0:0:0:
256,192,151387,1,12,0:0:0:0:
