osu file format v14

[General]
AudioFilename: audio.mp3
AudioLeadIn: 0
PreviewTime: 27958
Countdown: 0
SampleSet: Normal
StackLeniency: 0.2
Mode: 1
LetterboxInBreaks: 0
WidescreenStoryboard: 1

[Editor]
Bookmarks: 14244,27958,41672,55387,62244,75958
DistanceSpacing: 2
BeatDivisor: 2
GridSize: 32
TimelineZoom: 2.3

[Metadata]
Title:Ta Fluindo
TitleUnicode:Tá Fluindo
Artist:MC Poze do Rodo
ArtistUnicode:MC Poze do Rodo
Creator:Genjuro
Version:Dificil do Kqrth
Source:
Tags:portuguese funk carioca brazil brasil kqrth skull kid skid vrnl the bros 3 fácil difícil kantan futsuu muzukashii oni
BeatmapID:2593787
BeatmapSetID:1247959

[Difficulty]
HPDrainRate:5
CircleSize:2
OverallDifficulty:5
ApproachRate:10
SliderMultiplier:1.4
SliderTickRate:1

[Events]
//Background and Video events
0,0,"bg.jpg",0,-50
//Break Periods
//Storyboard Layer 0 (Background)
//Storyboard Layer 1 (Fail)
//Storyboard Layer 2 (Pass)
//Storyboard Layer 3 (Foreground)
//Storyboard Layer 4 (Overlay)
//Storyboard Sound Samples

[TimingPoints]
530,428.571428571429,4,1,0,100,1,0
637,-100,4,1,0,25,0,0
5565,-100,4,1,0,100,0,0
7494,-100,4,1,0,25,0,0
13708,-100,4,1,0,100,0,0
14137,-100,4,1,0,100,0,0
27422,-100,4,1,0,100,0,0
27851,-100,4,1,0,100,0,0
41137,-100,4,1,0,100,0,0
41565,-100,4,1,0,100,0,0
54851,-100,4,1,0,100,0,0
55280,-100,4,1,0,100,0,0
62244,-100,4,1,0,100,0,1
75958,-100,4,1,0,100,0,0
76065,-100,4,1,0,25,0,0
80993,-100,4,1,0,100,0,0
82922,-100,4,1,0,25,0,0
89136,-100,4,1,0,100,0,0
89565,-100,4,1,0,100,0,0
102850,-100,4,1,0,100,0,0
103279,-100,4,1,0,100,0,0
116565,-100,4,1,0,100,0,0
116993,-100,4,1,0,100,0,0
130279,-100,4,1,0,100,0,0
130708,-100,4,1,0,100,0,0
137672,-100,4,1,0,100,0,1
151387,-100,4,1,0,100,0,0

[HitObjects]
172,249,530,5,4,0:0:0:0:
121,130,1387,2,0,L|257:147,1,105
204,277,5672,1,8,0:0:0:0:
204,277,6315,1,8,0:0:0:0:
204,277,6958,1,8,0:0:0:0:
204,277,7387,1,4,0:0:0:0:
121,130,8244,2,0,L|257:147,1,105
256,192,10815,12,0,11672,0:0:0:0:
203,275,13815,5,12,0:0:0:0:
203,275,14244,1,4,0:0:0:0:
205,261,14530,1,8,0:0:0:0:
205,261,14851,1,8,0:0:0:0:
205,261,15315,1,0,0:0:0:0:
205,261,15530,1,8,0:0:0:0:
205,261,15958,1,0,0:0:0:0:
141,170,16244,1,8,0:0:0:0:
141,170,16565,1,8,0:0:0:0:
222,244,17030,1,0,0:0:0:0:
163,225,17244,1,8,0:0:0:0:
222,244,17458,1,0,0:0:0:0:
203,275,17672,1,0,0:0:0:0:
205,261,17958,1,8,0:0:0:0:
205,261,18280,1,8,0:0:0:0:
205,261,18744,1,0,0:0:0:0:
205,261,18958,1,8,0:0:0:0:
205,261,19387,1,0,0:0:0:0:
141,170,19672,1,8,0:0:0:0:
141,170,19994,1,8,0:0:0:0:
222,244,20458,1,0,0:0:0:0:
163,225,20672,1,8,0:0:0:0:
222,244,20887,1,0,0:0:0:0:
203,275,21101,1,0,0:0:0:0:
205,261,21387,1,8,0:0:0:0:
205,261,21708,1,8,0:0:0:0:
205,261,22172,1,0,0:0:0:0:
205,261,22387,1,8,0:0:0:0:
205,261,22815,1,0,0:0:0:0:
141,170,23101,1,8,0:0:0:0:
141,170,23422,1,8,0:0:0:0:
222,244,23887,1,0,0:0:0:0:
163,225,24101,1,8,0:0:0:0:
222,244,24315,1,0,0:0:0:0:
163,225,24530,1,0,0:0:0:0:
209,249,27530,1,12,0:0:0:0:
203,275,27958,1,4,0:0:0:0:
205,261,28244,1,8,0:0:0:0:
205,261,28565,1,8,0:0:0:0:
142,229,28815,1,0,0:0:0:0:
142,229,28922,1,0,0:0:0:0:
205,261,29030,1,0,0:0:0:0:
205,261,29244,1,8,0:0:0:0:
205,261,29672,1,0,0:0:0:0:
141,170,29958,1,8,0:0:0:0:
141,170,30280,1,8,0:0:0:0:
144,229,30530,1,0,0:0:0:0:
222,244,30744,1,0,0:0:0:0:
163,225,30958,1,8,0:0:0:0:
222,244,31172,1,0,0:0:0:0:
203,275,31387,1,0,0:0:0:0:
205,261,31672,1,8,0:0:0:0:
205,261,31994,1,8,0:0:0:0:
130,229,32244,1,0,0:0:0:0:
130,229,32351,1,0,0:0:0:0:
205,261,32458,1,0,0:0:0:0:
205,261,32672,1,8,0:0:0:0:
205,261,33101,1,0,0:0:0:0:
141,170,33387,1,8,0:0:0:0:
141,170,33708,1,8,0:0:0:0:
154,224,33958,1,0,0:0:0:0:
222,244,34172,1,0,0:0:0:0:
163,225,34387,1,8,0:0:0:0:
222,244,34601,1,0,0:0:0:0:
203,275,34815,1,0,0:0:0:0:
205,261,35101,1,8,0:0:0:0:
205,261,35422,1,8,0:0:0:0:
156,227,35672,1,0,0:0:0:0:
156,227,35780,1,0,0:0:0:0:
205,261,35887,1,0,0:0:0:0:
205,261,36101,1,8,0:0:0:0:
205,261,36530,1,0,0:0:0:0:
141,170,36815,1,8,0:0:0:0:
141,170,37137,1,8,0:0:0:0:
156,227,37387,1,0,0:0:0:0:
222,244,37601,1,0,0:0:0:0:
163,225,37815,1,8,0:0:0:0:
222,244,38030,1,0,0:0:0:0:
163,225,38244,1,0,0:0:0:0:
209,249,41244,1,12,0:0:0:0:
203,275,41672,1,4,0:0:0:0:
205,261,41958,1,8,0:0:0:0:
205,261,42280,1,8,0:0:0:0:
142,229,42530,1,0,0:0:0:0:
142,229,42637,1,0,0:0:0:0:
205,261,42744,1,0,0:0:0:0:
205,261,42958,1,8,0:0:0:0:
205,261,43387,1,0,0:0:0:0:
141,170,43672,1,8,0:0:0:0:
141,170,43994,1,8,0:0:0:0:
144,229,44244,1,0,0:0:0:0:
222,244,44458,1,0,0:0:0:0:
163,225,44672,1,8,0:0:0:0:
222,244,44887,1,0,0:0:0:0:
203,275,45101,1,0,0:0:0:0:
205,261,45387,1,8,0:0:0:0:
205,261,45708,1,8,0:0:0:0:
130,229,45958,1,0,0:0:0:0:
130,229,46065,1,0,0:0:0:0:
205,261,46172,1,0,0:0:0:0:
205,261,46387,1,8,0:0:0:0:
205,261,46815,1,0,0:0:0:0:
141,170,47101,1,8,0:0:0:0:
141,170,47422,1,8,0:0:0:0:
154,224,47672,1,0,0:0:0:0:
222,244,47887,1,0,0:0:0:0:
163,225,48101,1,8,0:0:0:0:
222,244,48315,1,0,0:0:0:0:
203,275,48530,1,0,0:0:0:0:
205,261,48815,1,8,0:0:0:0:
205,261,49137,1,8,0:0:0:0:
156,227,49387,1,0,0:0:0:0:
156,227,49494,1,0,0:0:0:0:
205,261,49601,1,0,0:0:0:0:
205,261,49815,1,8,0:0:0:0:
205,261,50244,1,0,0:0:0:0:
141,170,50530,1,8,0:0:0:0:
141,170,50851,1,8,0:0:0:0:
156,227,51101,1,0,0:0:0:0:
222,244,51315,1,0,0:0:0:0:
163,225,51530,1,8,0:0:0:0:
222,244,51744,1,0,0:0:0:0:
163,225,51958,1,0,0:0:0:0:
139,227,54958,1,12,0:0:0:0:
203,275,55387,1,4,0:0:0:0:
205,261,55672,1,8,0:0:0:0:
205,261,55994,1,8,0:0:0:0:
142,229,56244,1,0,0:0:0:0:
142,229,56351,1,0,0:0:0:0:
205,261,56458,1,0,0:0:0:0:
205,261,56672,1,8,0:0:0:0:
205,261,57101,1,0,0:0:0:0:
141,170,57387,1,8,0:0:0:0:
141,170,57708,1,8,0:0:0:0:
144,229,57958,1,0,0:0:0:0:
222,244,58172,1,0,0:0:0:0:
163,225,58387,1,8,0:0:0:0:
222,244,58601,1,0,0:0:0:0:
203,275,58815,1,0,0:0:0:0:
205,261,59101,1,8,0:0:0:0:
205,261,59422,1,8,0:0:0:0:
142,229,59672,1,0,0:0:0:0:
142,229,59780,1,0,0:0:0:0:
205,261,59887,1,0,0:0:0:0:
205,261,60101,1,8,0:0:0:0:
205,261,60530,1,0,0:0:0:0:
141,170,60815,1,8,0:0:0:0:
141,170,61137,1,8,0:0:0:0:
144,229,61387,1,0,0:0:0:0:
222,244,61601,1,0,0:0:0:0:
163,225,61815,1,8,0:0:0:0:
222,244,62030,1,0,0:0:0:0:
210,253,62244,5,0,0:0:0:0:
210,253,62672,1,8,0:0:0:0:
210,253,62887,1,8,0:0:0:0:
210,241,63101,1,0,0:0:0:0:
210,253,63530,1,8,0:0:0:0:
210,253,63637,1,8,0:0:0:0:
210,253,63744,1,8,0:0:0:0:
210,241,63958,1,0,0:0:0:0:
210,253,64387,1,8,0:0:0:0:
210,253,64601,1,8,0:0:0:0:
210,241,64815,1,0,0:0:0:0:
210,253,65244,1,8,0:0:0:0:
210,253,65351,1,8,0:0:0:0:
210,253,65458,1,8,0:0:0:0:
210,241,65672,1,0,0:0:0:0:
230,257,66101,1,0,0:0:0:0:
230,257,66315,1,0,0:0:0:0:
230,257,66530,1,0,0:0:0:0:
205,238,66958,1,0,0:0:0:0:
210,241,67387,1,8,0:0:0:0:
210,241,67601,1,8,0:0:0:0:
210,241,67815,1,8,0:0:0:0:
210,241,68030,1,8,0:0:0:0:
210,241,68244,1,8,0:0:0:0:
210,241,68458,1,8,0:0:0:0:
210,241,68672,1,8,0:0:0:0:
210,241,68887,1,8,0:0:0:0:
210,253,69101,5,0,0:0:0:0:
210,253,69530,1,8,0:0:0:0:
210,253,69744,1,8,0:0:0:0:
210,241,69958,1,0,0:0:0:0:
210,253,70387,1,8,0:0:0:0:
210,253,70494,1,8,0:0:0:0:
210,253,70601,1,8,0:0:0:0:
210,241,70815,1,0,0:0:0:0:
210,253,71244,1,8,0:0:0:0:
210,253,71458,1,8,0:0:0:0:
210,241,71672,1,0,0:0:0:0:
210,253,72101,1,8,0:0:0:0:
210,253,72208,1,8,0:0:0:0:
210,253,72315,1,8,0:0:0:0:
230,257,72530,1,0,0:0:0:0:
230,257,72958,1,0,0:0:0:0:
230,257,73172,1,0,0:0:0:0:
230,257,73387,1,0,0:0:0:0:
205,238,73815,1,0,0:0:0:0:
210,241,74244,1,8,0:0:0:0:
210,241,74458,1,8,0:0:0:0:
210,241,74672,1,8,0:0:0:0:
210,241,74887,1,8,0:0:0:0:
210,241,75101,1,8,0:0:0:0:
210,241,75315,1,8,0:0:0:0:
210,241,75530,1,8,0:0:0:0:
210,241,75744,1,8,0:0:0:0:
172,249,75958,5,4,0:0:0:0:
121,130,76815,2,0,L|257:147,1,105
204,277,81101,1,8,0:0:0:0:
204,277,81744,1,8,0:0:0:0:
204,277,82387,1,8,0:0:0:0:
204,277,82815,1,4,0:0:0:0:
121,130,83672,2,0,L|257:147,1,105
256,192,86244,12,0,87101,0:0:0:0:
203,275,89244,5,12,0:0:0:0:
203,275,89672,1,4,0:0:0:0:
205,261,89958,1,8,0:0:0:0:
205,261,90280,1,8,0:0:0:0:
205,261,90744,1,0,0:0:0:0:
205,261,90958,1,8,0:0:0:0:
205,261,91387,1,0,0:0:0:0:
141,170,91672,1,8,0:0:0:0:
141,170,91994,1,8,0:0:0:0:
222,244,92458,1,0,0:0:0:0:
163,225,92672,1,8,0:0:0:0:
222,244,92887,1,0,0:0:0:0:
203,275,93101,1,0,0:0:0:0:
205,261,93387,1,8,0:0:0:0:
205,261,93708,1,8,0:0:0:0:
205,261,94172,1,0,0:0:0:0:
205,261,94387,1,8,0:0:0:0:
205,261,94815,1,0,0:0:0:0:
141,170,95101,1,8,0:0:0:0:
141,170,95422,1,8,0:0:0:0:
222,244,95887,1,0,0:0:0:0:
163,225,96101,1,8,0:0:0:0:
222,244,96315,1,0,0:0:0:0:
203,275,96530,1,0,0:0:0:0:
205,261,96815,1,8,0:0:0:0:
205,261,97137,1,8,0:0:0:0:
205,261,97601,1,0,0:0:0:0:
205,261,97815,1,8,0:0:0:0:
205,261,98244,1,0,0:0:0:0:
141,170,98530,1,8,0:0:0:0:
141,170,98851,1,8,0:0:0:0:
222,244,99315,1,0,0:0:0:0:
163,225,99530,1,8,0:0:0:0:
222,244,99744,1,0,0:0:0:0:
163,225,99958,1,0,0:0:0:0:
209,249,102958,1,12,0:0:0:0:
203,275,103387,1,4,0:0:0:0:
205,261,103672,1,8,0:0:0:0:
205,261,103994,1,8,0:0:0:0:
142,229,104244,1,0,0:0:0:0:
142,229,104351,1,0,0:0:0:0:
205,261,104458,1,0,0:0:0:0:
205,261,104672,1,8,0:0:0:0:
205,261,105101,1,0,0:0:0:0:
141,170,105387,1,8,0:0:0:0:
141,170,105708,1,8,0:0:0:0:
144,229,105958,1,0,0:0:0:0:
222,244,106172,1,0,0:0:0:0:
163,225,106387,1,8,0:0:0:0:
222,244,106601,1,0,0:0:0:0:
203,275,106815,1,0,0:0:0:0:
205,261,107101,1,8,0:0:0:0:
205,261,107422,1,8,0:0:0:0:
130,229,107672,1,0,0:0:0:0:
130,229,107780,1,0,0:0:0:0:
205,261,107887,1,0,0:0:0:0:
205,261,108101,1,8,0:0:0:0:
205,261,108530,1,0,0:0:0:0:
141,170,108815,1,8,0:0:0:0:
141,170,109137,1,8,0:0:0:0:
154,224,109387,1,0,0:0:0:0:
222,244,109601,1,0,0:0:0:0:
163,225,109815,1,8,0:0:0:0:
222,244,110030,1,0,0:0:0:0:
203,275,110244,1,0,0:0:0:0:
205,261,110530,1,8,0:0:0:0:
205,261,110851,1,8,0:0:0:0:
156,227,111101,1,0,0:0:0:0:
156,227,111208,1,0,0:0:0:0:
156,227,111315,1,0,0:0:0:0:
205,261,111530,1,8,0:0:0:0:
205,261,111958,1,0,0:0:0:0:
141,170,112244,1,8,0:0:0:0:
141,170,112565,1,8,0:0:0:0:
156,227,112815,1,0,0:0:0:0:
222,244,113030,1,0,0:0:0:0:
163,225,113244,1,8,0:0:0:0:
222,244,113458,1,0,0:0:0:0:
163,225,113672,1,0,0:0:0:0:
209,249,116672,1,12,0:0:0:0:
203,275,117101,1,4,0:0:0:0:
205,261,117387,1,8,0:0:0:0:
205,261,117708,1,8,0:0:0:0:
142,229,117958,1,0,0:0:0:0:
142,229,118065,1,0,0:0:0:0:
205,261,118172,1,0,0:0:0:0:
205,261,118387,1,8,0:0:0:0:
205,261,118815,1,0,0:0:0:0:
141,170,119101,1,8,0:0:0:0:
141,170,119422,1,8,0:0:0:0:
144,229,119672,1,0,0:0:0:0:
222,244,119887,1,0,0:0:0:0:
163,225,120101,1,8,0:0:0:0:
222,244,120315,1,0,0:0:0:0:
203,275,120530,1,0,0:0:0:0:
205,261,120815,1,8,0:0:0:0:
205,261,121137,1,8,0:0:0:0:
130,229,121387,1,0,0:0:0:0:
130,229,121494,1,0,0:0:0:0:
205,261,121601,1,0,0:0:0:0:
205,261,121815,1,8,0:0:0:0:
205,261,122244,1,0,0:0:0:0:
141,170,122530,1,8,0:0:0:0:
141,170,122851,1,8,0:0:0:0:
154,224,123101,1,0,0:0:0:0:
222,244,123315,1,0,0:0:0:0:
163,225,123530,1,8,0:0:0:0:
222,244,123744,1,0,0:0:0:0:
203,275,123958,1,0,0:0:0:0:
205,261,124244,1,8,0:0:0:0:
205,261,124565,1,8,0:0:0:0:
156,227,124815,1,0,0:0:0:0:
156,227,124922,1,0,0:0:0:0:
156,227,125030,1,0,0:0:0:0:
205,261,125244,1,8,0:0:0:0:
205,261,125672,1,0,0:0:0:0:
141,170,125958,1,8,0:0:0:0:
141,170,126280,1,8,0:0:0:0:
156,227,126530,1,0,0:0:0:0:
222,244,126744,1,0,0:0:0:0:
163,225,126958,1,8,0:0:0:0:
222,244,127172,1,0,0:0:0:0:
163,225,127387,1,0,0:0:0:0:
139,227,130387,1,12,0:0:0:0:
203,275,130815,1,4,0:0:0:0:
205,261,131101,1,8,0:0:0:0:
205,261,131422,1,8,0:0:0:0:
142,229,131672,1,0,0:0:0:0:
142,229,131780,1,0,0:0:0:0:
205,261,131887,1,0,0:0:0:0:
205,261,132101,1,8,0:0:0:0:
205,261,132530,1,0,0:0:0:0:
141,170,132815,1,8,0:0:0:0:
141,170,133137,1,8,0:0:0:0:
144,229,133387,1,0,0:0:0:0:
222,244,133601,1,0,0:0:0:0:
163,225,133815,1,8,0:0:0:0:
222,244,134030,1,0,0:0:0:0:
203,275,134244,1,0,0:0:0:0:
205,261,134530,1,8,0:0:0:0:
205,261,134851,1,8,0:0:0:0:
142,229,135101,1,0,0:0:0:0:
142,229,135208,1,0,0:0:0:0:
205,261,135315,1,0,0:0:0:0:
205,261,135530,1,8,0:0:0:0:
205,261,135958,1,0,0:0:0:0:
141,170,136244,1,8,0:0:0:0:
141,170,136565,1,8,0:0:0:0:
144,229,136815,1,0,0:0:0:0:
222,244,137030,1,0,0:0:0:0:
163,225,137244,1,8,0:0:0:0:
222,244,137458,1,0,0:0:0:0:
210,253,137672,5,0,0:0:0:0:
210,253,138101,1,8,0:0:0:0:
210,253,138315,1,8,0:0:0:0:
210,241,138530,1,0,0:0:0:0:
210,253,138958,1,8,0:0:0:0:
210,253,139065,1,8,0:0:0:0:
210,253,139172,1,8,0:0:0:0:
210,241,139387,1,0,0:0:0:0:
210,253,139815,1,8,0:0:0:0:
210,253,140030,1,8,0:0:0:0:
210,241,140244,1,0,0:0:0:0:
210,253,140672,1,8,0:0:0:0:
210,253,140780,1,8,0:0:0:0:
210,253,140887,1,8,0:0:0:0:
210,241,141101,1,0,0:0:0:0:
230,257,141530,1,0,0:0:0:0:
230,257,141744,1,0,0:0:0:0:
230,257,141958,1,0,0:0:0:0:
205,238,142387,1,0,0:0:0:0:
210,241,142815,1,8,0:0:0:0:
210,241,143030,1,8,0:0:0:0:
210,241,143244,1,8,0:0:0:0:
210,241,143458,1,8,0:0:0:0:
210,241,143672,1,8,0:0:0:0:
210,241,143887,1,8,0:0:0:0:
210,241,144101,1,8,0:0:0:0:
210,241,144315,1,8,0:0:0:0:
210,253,144530,5,0,0:0:0:0:
210,253,144958,1,8,0:0:0:0:
210,253,145172,1,8,0:0:0:0:
210,241,145387,1,0,0:0:0:0:
210,253,145815,1,8,0:0:0:0:
210,253,145922,1,8,0:0:0:0:
210,253,146030,1,8,0:0:0:0:
210,241,146244,1,0,0:0:0:0:
210,253,146672,1,8,0:0:0:0:
210,253,146887,1,8,0:0:0:0:
210,241,147101,1,0,0:0:0:0:
210,253,147530,1,8,0:0:0:0:
210,253,147637,1,8,0:0:0:0:
210,253,147744,1,8,0:0:0:0:
230,257,147958,1,0,0:0:0:0:
230,257,148387,1,0,0:0:0:0:
230,257,148601,1,0,0:0:0:0:
230,257,148815,1,0,0:0:0:0:
205,238,149244,1,0,0:0:0:0:
210,241,149672,1,8,0:0:0:0:
210,241,149887,1,8,0:0:0:0:
210,241,150101,1,8,0:0:0:0:
210,241,150315,1,8,0:0:0:0:
210,241,150530,1,8,0:0:0:0:
210,241,150744,1,8,0:0:0:0:
210,241,150958,1,8,0:0:0:0:
210,241,151172,1,8,0:0:0:0:
210,241,151387,1,4,0:0:0:0:
