osu file format v14

[General]
AudioFilename: audio.mp3
AudioLeadIn: 0
PreviewTime: -1
Countdown: 0
SampleSet: None
StackLeniency: 0.2
Mode: 0
LetterboxInBreaks: 0
WidescreenStoryboard: 0

[Editor]
DistanceSpacing: 0.5
BeatDivisor: 2
GridSize: 4
TimelineZoom: 1

[Metadata]
Title:bidibidibidibidibidibidibidibidibidibidibidibidi
TitleUnicode:bidibidibidibidibidibidibidibidibidibidibidibidi
Artist:MC MENTAL
ArtistUnicode:MC MENTAL
Creator:Quite Cynical
Version:bidibidibidibidibidibidibidi
Source:
Tags:
BeatmapID:1590500
BeatmapSetID:755680

[Difficulty]
HPDrainRate:5
CircleSize:2
OverallDifficulty:8
ApproachRate:9.5
SliderMultiplier:3
SliderTickRate:1

[Events]
//Background and Video events
0,0,"Miyamoto.jpg",0,0
//Break Periods
//Storyboard Layer 0 (Background)
//Storyboard Layer 1 (Fail)
//Storyboard Layer 2 (Pass)
//Storyboard Layer 3 (Foreground)
//Storyboard Sound Samples

[TimingPoints]
1414.64778433421,340.909090909091,4,1,0,60,1,0
25278,-50,4,1,0,60,0,0

[HitObjects]
278,157,23232,5,0,0:0:0:0:
236,231,23318,1,0,0:0:0:0:
278,157,23403,5,0,0:0:0:0:
243,236,23488,1,0,0:0:0:0:
278,157,23573,5,0,0:0:0:0:
251,243,23658,1,0,0:0:0:0:
278,157,23744,5,0,0:0:0:0:
259,249,23829,1,0,0:0:0:0:
278,157,23914,5,0,0:0:0:0:
268,254,23999,1,0,0:0:0:0:
278,157,24085,5,0,0:0:0:0:
277,258,24170,1,0,0:0:0:0:
278,157,24255,5,0,0:0:0:0:
287,261,24340,1,0,0:0:0:0:
278,157,24426,5,0,0:0:0:0:
297,263,24511,1,0,0:0:0:0:
278,157,24596,5,0,0:0:0:0:
308,264,24681,1,0,0:0:0:0:
278,157,24766,5,0,0:0:0:0:
318,266,24852,1,0,0:0:0:0:
278,157,24937,5,0,0:0:0:0:
328,264,25022,1,0,0:0:0:0:
278,157,25107,5,0,0:0:0:0:
339,264,25193,1,0,0:0:0:0:
278,157,25278,2,0,B|156:68|156:68|146:159,1,225
205,218,25448,2,0,B|139:345|139:345|111:262,1,225
299,255,25619,2,0,P|380:177|325:65,1,225
66,188,25789,1,0,0:0:0:0:
278,157,25960,5,0,0:0:0:0:
208,211,26045,1,0,0:0:0:0:
278,157,26130,5,0,0:0:0:0:
195,204,26215,1,0,0:0:0:0:
278,157,26301,5,0,0:0:0:0:
181,196,26386,1,0,0:0:0:0:
278,157,26471,5,0,0:0:0:0:
163,170,26556,1,0,0:0:0:0:
278,157,26641,5,0,0:0:0:0:
155,145,26727,1,0,0:0:0:0:
278,157,26812,5,0,0:0:0:0:
157,117,26897,1,0,0:0:0:0:
278,157,26982,5,0,0:0:0:0:
278,157,27153,1,0,0:0:0:0:
427,109,27238,1,0,0:0:0:0:
364,44,27323,5,0,0:0:0:0:
420,123,27408,1,0,0:0:0:0:
364,44,27494,5,0,0:0:0:0:
411,139,27579,1,0,0:0:0:0:
364,44,27664,5,0,0:0:0:0:
400,155,27749,1,0,0:0:0:0:
364,44,27835,5,0,0:0:0:0:
387,168,27920,1,0,0:0:0:0:
364,44,28005,5,0,0:0:0:0:
372,186,28090,1,0,0:0:0:0:
338,309,28176,1,0,0:0:0:0:
296,117,28346,1,0,0:0:0:0:
146,282,28687,1,0,0:0:0:0:
181,199,28772,1,0,0:0:0:0:
146,282,28857,5,0,0:0:0:0:
174,189,28943,1,0,0:0:0:0:
146,282,29028,5,0,0:0:0:0:
164,178,29113,1,0,0:0:0:0:
146,282,29198,5,0,0:0:0:0:
156,169,29283,1,0,0:0:0:0:
146,282,29369,5,0,0:0:0:0:
145,159,29454,1,0,0:0:0:0:
146,282,29539,5,0,0:0:0:0:
134,153,29624,1,0,0:0:0:0:
146,282,29710,5,0,0:0:0:0:
124,147,29795,1,0,0:0:0:0:
146,282,29880,5,0,0:0:0:0:
116,141,29965,1,0,0:0:0:0:
146,282,30051,5,0,0:0:0:0:
106,134,30136,1,0,0:0:0:0:
146,282,30221,5,0,0:0:0:0:
97,125,30306,1,0,0:0:0:0:
146,282,30391,5,0,0:0:0:0:
88,118,30477,1,0,0:0:0:0:
254,280,30562,1,0,0:0:0:0:
349,236,30732,1,0,0:0:0:0:
349,236,31414,5,0,0:0:0:0:
404,89,31585,1,0,0:0:0:0:
423,176,31670,1,0,0:0:0:0:
443,263,31755,1,0,0:0:0:0:
200,264,31926,1,0,0:0:0:0:
266,203,32011,1,0,0:0:0:0:
332,144,32096,1,0,0:0:0:0:
99,84,32266,1,0,0:0:0:0:
288,292,32437,1,0,0:0:0:0:
247,117,32607,1,0,0:0:0:0:
476,37,32778,5,0,0:0:0:0:
476,341,32948,1,0,0:0:0:0:
45,342,33119,1,0,0:0:0:0:
44,39,33289,1,0,0:0:0:0:
256,90,33460,5,0,0:0:0:0:
363,197,33630,1,0,0:0:0:0:
256,303,33801,1,0,0:0:0:0:
150,197,33971,1,0,0:0:0:0:
288,162,34141,5,0,0:0:0:0:
228,220,34227,1,0,0:0:0:0:
290,164,34312,5,0,0:0:0:0:
225,217,34398,1,0,0:0:0:0:
290,164,34482,5,0,0:0:0:0:
225,217,34568,1,0,0:0:0:0:
292,168,34653,5,0,0:0:0:0:
223,214,34739,1,0,0:0:0:0:
294,171,34823,5,0,0:0:0:0:
221,211,34909,1,0,0:0:0:0:
296,174,34994,5,0,0:0:0:0:
220,208,35080,1,0,0:0:0:0:
297,178,35164,5,0,0:0:0:0:
218,205,35250,1,0,0:0:0:0:
298,182,35335,5,0,0:0:0:0:
217,202,35421,1,0,0:0:0:0:
299,185,35505,5,0,0:0:0:0:
217,198,35591,1,0,0:0:0:0:
299,189,35676,5,0,0:0:0:0:
216,195,35762,1,0,0:0:0:0:
299,193,35846,5,0,0:0:0:0:
216,191,35932,1,0,0:0:0:0:
299,197,36016,5,0,0:0:0:0:
216,188,36102,1,0,0:0:0:0:
298,201,36187,5,0,0:0:0:0:
217,185,36273,1,0,0:0:0:0:
297,204,36357,5,0,0:0:0:0:
217,181,36443,1,0,0:0:0:0:
296,208,36528,5,0,0:0:0:0:
218,178,36614,1,0,0:0:0:0:
295,211,36698,5,0,0:0:0:0:
220,175,36784,1,0,0:0:0:0:
293,215,36869,5,0,0:0:0:0:
221,172,36955,1,0,0:0:0:0:
291,218,37039,5,0,0:0:0:0:
223,169,37125,1,0,0:0:0:0:
288,221,37210,5,0,0:0:0:0:
225,166,37296,1,0,0:0:0:0:
286,224,37380,5,0,0:0:0:0:
228,163,37466,1,0,0:0:0:0:
283,226,37551,5,0,0:0:0:0:
230,161,37637,1,0,0:0:0:0:
283,226,37721,5,0,0:0:0:0:
230,161,37807,1,0,0:0:0:0:
279,228,37891,5,0,0:0:0:0:
233,159,37977,1,0,0:0:0:0:
276,230,38062,5,0,0:0:0:0:
236,157,38148,1,0,0:0:0:0:
273,232,38232,5,0,0:0:0:0:
239,156,38318,1,0,0:0:0:0:
269,233,38403,5,0,0:0:0:0:
242,154,38489,1,0,0:0:0:0:
265,234,38573,5,0,0:0:0:0:
245,153,38659,1,0,0:0:0:0:
262,235,38744,5,0,0:0:0:0:
249,153,38830,1,0,0:0:0:0:
258,235,38914,5,0,0:0:0:0:
252,152,39000,1,0,0:0:0:0:
245,70,39085,1,0,0:0:0:0:
266,320,39255,1,0,0:0:0:0:
