osu file format v14

[General]
AudioFilename: audio.mp3
AudioLeadIn: 0
PreviewTime: 23223
Countdown: 0
SampleSet: Normal
StackLeniency: 0.2
Mode: 0
LetterboxInBreaks: 0
WidescreenStoryboard: 0

[Editor]
DistanceSpacing: 2
BeatDivisor: 4
GridSize: 16
TimelineZoom: 3.499999

[Metadata]
Title:MC MENTAL @ HIS BEST
TitleUnicode:MC MENTAL @ HIS BEST
Artist:MC MENTAL
ArtistUnicode:MC MENTAL
Creator:Geminous
Version:wikid
Source:
Tags:epic club penguin meme help
BeatmapID:1792122
BeatmapSetID:857750

[Difficulty]
HPDrainRate:3
CircleSize:4
OverallDifficulty:9
ApproachRate:10
SliderMultiplier:2
SliderTickRate:1

[Events]
//Background and Video events
Video,0,"MC MENTAL - Club Penguin Music Video.mp4"
0,0,"b11d33f9a2775e2b4f030b5b3a0ee666.jpg",0,0
//Break Periods
//Storyboard Layer 0 (Background)
//Storyboard Layer 1 (Fail)
//Storyboard Layer 2 (Pass)
//Storyboard Layer 3 (Foreground)
//Storyboard Sound Samples

[TimingPoints]
1405,340.909090909091,4,1,0,50,1,0
11632,-66.6666666666667,4,1,0,50,0,0
12314,-100,4,1,0,50,0,0
16916,-133.333333333333,4,1,0,50,0,0
17768,-100,4,1,0,50,0,0
20495,-66.6666666666667,4,1,0,50,0,0
23223,-50,4,1,0,50,0,1
38223,-66.6666666666667,4,1,0,50,0,1
39245,-50,4,1,0,50,0,1
45041,-66.6666666666667,4,1,0,50,0,0

[HitObjects]
117,103,1405,6,0,L|117:158,1,50
236,130,1575,2,0,L|236:185,1,50
355,157,1745,1,0,0:0:0:0:
395,281,1916,2,0,L|395:226,1,50
276,254,2086,2,0,L|276:199,1,50
157,227,2256,1,0,0:0:0:0:
355,157,2427,1,0,0:0:0:0:
117,103,2598,1,0,0:0:0:0:
355,157,2768,5,0,0:0:0:0:
157,227,2939,1,0,0:0:0:0:
157,227,3024,1,0,0:0:0:0:
157,227,3109,1,0,0:0:0:0:
240,85,3280,1,0,0:0:0:0:
297,288,3450,2,0,L|352:288,1,50
355,157,3620,2,0,L|410:157,1,50
413,26,3791,1,0,0:0:0:0:
240,85,3961,1,0,0:0:0:0:
347,288,4132,6,0,P|322:300|290:302,1,50
308,171,4302,2,0,P|333:159|365:157,1,50
243,328,4473,2,0,P|205:346|157:349,1,50
184,152,4643,2,0,P|221:134|269:131,1,50
77,253,4814,1,0,0:0:0:0:
77,253,4899,1,0,0:0:0:0:
77,253,4984,1,0,0:0:0:0:
71,89,5155,2,0,B|135:89|135:89|167:73|167:73|231:73,1,150
286,45,5495,5,0,0:0:0:0:
278,94,5581,1,0,0:0:0:0:
271,143,5666,1,0,0:0:0:0:
264,192,5751,1,0,0:0:0:0:
257,241,5836,1,0,0:0:0:0:
416,318,6007,5,0,0:0:0:0:
423,269,6092,1,0,0:0:0:0:
430,220,6177,1,0,0:0:0:0:
445,122,6348,1,0,0:0:0:0:
257,241,6518,1,0,0:0:0:0:
507,156,6689,1,0,0:0:0:0:
204,108,6859,5,0,0:0:0:0:
138,144,6944,1,0,0:0:0:0:
196,192,7030,1,0,0:0:0:0:
130,228,7115,1,0,0:0:0:0:
64,264,7200,1,0,0:0:0:0:
196,192,7370,5,0,0:0:0:0:
262,156,7455,1,0,0:0:0:0:
204,108,7541,1,0,0:0:0:0:
270,72,7626,1,0,0:0:0:0:
336,36,7711,1,0,0:0:0:0:
204,108,7882,5,0,0:0:0:0:
262,156,7967,1,0,0:0:0:0:
306,216,8052,1,0,0:0:0:0:
297,290,8137,1,0,0:0:0:0:
240,340,8223,2,0,L|130:340,1,100
306,216,8564,2,0,L|416:216,1,100
240,340,8905,1,0,0:0:0:0:
240,340,9586,5,0,0:0:0:0:
289,172,9757,1,0,0:0:0:0:
289,172,9842,1,0,0:0:0:0:
289,172,9927,1,0,0:0:0:0:
240,340,10098,2,0,L|180:330,1,50
359,281,10268,1,0,0:0:0:0:
118,318,10439,1,0,0:0:0:0:
383,230,10609,1,0,0:0:0:0:
81,276,10780,1,0,0:0:0:0:
359,281,10950,6,0,P|390:281|416:268,1,50
391,182,11120,2,0,P|413:160|422:132,1,50
252,64,11291,2,0,P|221:64|195:77,1,50
219,162,11461,2,0,P|197:183|187:211,1,50
391,182,11632,2,0,P|413:91|323:114,1,225.000008583069
390,276,11973,2,0,B|417:324|417:324|246:294,1,225.000008583069
144,232,12314,5,0,0:0:0:0:
144,232,12484,1,0,0:0:0:0:
144,232,12825,5,0,0:0:0:0:
122,124,12995,1,0,0:0:0:0:
215,203,13166,1,0,0:0:0:0:
50,158,13336,1,0,0:0:0:0:
144,232,13507,1,0,0:0:0:0:
194,77,13677,5,0,0:0:0:0:
194,77,13848,1,0,0:0:0:0:
194,77,14189,5,0,0:0:0:0:
313,47,14359,1,0,0:0:0:0:
232,162,14530,1,0,0:0:0:0:
326,38,14700,1,0,0:0:0:0:
304,200,14870,1,0,0:0:0:0:
342,28,15041,5,0,0:0:0:0:
342,28,15211,1,0,0:0:0:0:
342,28,15552,5,0,0:0:0:0:
402,121,15723,1,0,0:0:0:0:
273,74,15893,1,0,0:0:0:0:
431,202,16064,1,0,0:0:0:0:
302,155,16234,1,0,0:0:0:0:
460,283,16405,5,0,0:0:0:0:
460,283,16575,1,0,0:0:0:0:
460,283,16916,6,0,P|411:308|349:316,1,112.500004291535
332,314,17257,1,0,0:0:0:0:
356,243,17427,1,0,0:0:0:0:
380,171,17598,1,0,0:0:0:0:
214,248,17768,5,0,0:0:0:0:
214,248,17939,1,0,0:0:0:0:
214,248,18280,5,0,0:0:0:0:
109,198,18450,1,0,0:0:0:0:
269,143,18620,1,0,0:0:0:0:
109,198,18791,1,0,0:0:0:0:
269,143,18961,1,0,0:0:0:0:
164,93,19132,5,0,0:0:0:0:
164,93,19302,1,0,0:0:0:0:
164,93,19643,1,0,0:0:0:0:
288,41,19814,1,0,0:0:0:0:
223,188,19984,1,0,0:0:0:0:
164,93,20069,1,0,0:0:0:0:
99,240,20239,1,0,0:0:0:0:
112,128,20495,5,0,0:0:0:0:
119,115,20581,1,0,0:0:0:0:
129,104,20666,1,0,0:0:0:0:
142,97,20751,1,0,0:0:0:0:
156,93,20836,1,0,0:0:0:0:
178,91,20922,1,0,0:0:0:0:
199,96,21007,1,0,0:0:0:0:
217,108,21092,1,0,0:0:0:0:
229,126,21177,1,0,0:0:0:0:
234,155,21262,1,0,0:0:0:0:
227,184,21348,1,0,0:0:0:0:
208,207,21433,1,0,0:0:0:0:
182,223,21518,1,0,0:0:0:0:
153,246,21603,1,0,0:0:0:0:
138,280,21689,1,0,0:0:0:0:
146,316,21774,1,0,0:0:0:0:
172,342,21859,5,0,0:0:0:0:
209,295,21944,1,0,0:0:0:0:
246,247,22030,2,0,P|271:217|306:201,1,75.0000028610231
479,138,22200,1,0,0:0:0:0:
442,185,22285,1,0,0:0:0:0:
405,233,22371,2,0,P|380:263|345:279,1,75.0000028610231
69,310,22541,5,0,0:0:0:0:
106,263,22626,1,0,0:0:0:0:
143,215,22712,2,0,P|168:185|203:169,1,75.0000028610231
376,106,22882,1,0,0:0:0:0:
339,153,22967,1,0,0:0:0:0:
302,201,23053,2,0,P|277:231|242:247,1,75.0000028610231
156,86,23223,5,0,0:0:0:0:
303,61,23308,1,0,0:0:0:0:
156,86,23393,5,0,0:0:0:0:
303,61,23478,1,0,0:0:0:0:
168,99,23564,5,0,0:0:0:0:
315,74,23649,1,0,0:0:0:0:
168,99,23734,5,0,0:0:0:0:
315,74,23819,1,0,0:0:0:0:
123,144,23905,5,0,0:0:0:0:
270,119,23990,1,0,0:0:0:0:
123,144,24075,5,0,0:0:0:0:
270,119,24160,1,0,0:0:0:0:
135,157,24246,5,0,0:0:0:0:
282,132,24331,1,0,0:0:0:0:
135,157,24416,5,0,0:0:0:0:
282,132,24501,1,0,0:0:0:0:
295,120,24586,5,0,0:0:0:0:
320,267,24671,1,0,0:0:0:0:
295,120,24756,5,0,0:0:0:0:
320,267,24841,1,0,0:0:0:0:
282,132,24927,5,0,0:0:0:0:
307,279,25012,1,0,0:0:0:0:
282,132,25098,5,0,0:0:0:0:
307,279,25182,1,0,0:0:0:0:
295,120,25268,2,0,B|199:120|199:120|167:104|167:104|87:104,2,200
295,120,25950,5,0,0:0:0:0:
440,156,26035,1,0,0:0:0:0:
295,140,26120,5,0,0:0:0:0:
440,176,26205,1,0,0:0:0:0:
295,160,26291,5,0,0:0:0:0:
440,196,26376,1,0,0:0:0:0:
295,180,26461,5,0,0:0:0:0:
440,216,26546,1,0,0:0:0:0:
295,200,26632,5,0,0:0:0:0:
150,236,26717,1,0,0:0:0:0:
295,220,26802,5,0,0:0:0:0:
150,256,26887,1,0,0:0:0:0:
295,240,26973,2,0,P|391:208|295:176,1,200
288,107,27228,1,0,0:0:0:0:
207,125,27314,5,0,0:0:0:0:
238,271,27399,1,0,0:0:0:0:
247,109,27484,5,0,0:0:0:0:
200,251,27569,1,0,0:0:0:0:
289,116,27655,5,0,0:0:0:0:
178,215,27740,1,0,0:0:0:0:
323,143,27825,5,0,0:0:0:0:
177,174,27910,1,0,0:0:0:0:
338,183,27995,5,0,0:0:0:0:
233,73,28081,1,0,0:0:0:0:
238,271,28166,1,0,0:0:0:0:
238,271,28336,2,0,B|309:312|442:350|463:188|343:202,1,300
238,271,28677,5,0,0:0:0:0:
247,109,28762,1,0,0:0:0:0:
238,271,28848,5,0,0:0:0:0:
247,109,28933,1,0,0:0:0:0:
260,257,29018,5,0,0:0:0:0:
269,95,29103,1,0,0:0:0:0:
260,257,29189,5,0,0:0:0:0:
269,95,29274,1,0,0:0:0:0:
362,211,29359,5,0,0:0:0:0:
200,202,29444,1,0,0:0:0:0:
362,211,29530,5,0,0:0:0:0:
200,202,29615,1,0,0:0:0:0:
348,189,29700,5,0,0:0:0:0:
186,180,29785,1,0,0:0:0:0:
348,189,29871,5,0,0:0:0:0:
186,180,29956,1,0,0:0:0:0:
302,87,30041,5,0,0:0:0:0:
154,111,30126,1,0,0:0:0:0:
265,211,30211,5,0,0:0:0:0:
117,235,30296,1,0,0:0:0:0:
302,87,30382,5,0,0:0:0:0:
154,111,30467,1,0,0:0:0:0:
265,211,30552,5,0,0:0:0:0:
265,211,30723,2,0,B|357:267|357:267|322:169|410:176|347:69,1,300
315,12,31064,1,0,0:0:0:0:
315,12,31149,1,0,0:0:0:0:
315,12,31234,1,0,0:0:0:0:
315,12,31405,6,0,L|116:12,1,200
53,148,31660,1,0,0:0:0:0:
196,104,31745,1,0,0:0:0:0:
295,291,31916,5,0,0:0:0:0:
339,148,32001,1,0,0:0:0:0:
295,291,32086,2,0,B|242:318|178:318|136:281|136:281|185:270,1,200
196,104,32427,2,0,B|249:77|313:77|355:114|355:114|306:125,1,200
166,274,32768,5,0,0:0:0:0:
135,56,32939,1,0,0:0:0:0:
346,267,33109,1,0,0:0:0:0:
58,178,33280,1,0,0:0:0:0:
341,80,33450,5,0,0:0:0:0:
341,80,33620,1,0,0:0:0:0:
195,343,33791,5,0,0:0:0:0:
92,61,33961,1,0,0:0:0:0:
341,80,34132,5,0,0:0:0:0:
289,220,34217,1,0,0:0:0:0:
212,144,34302,5,0,0:0:0:0:
160,284,34387,1,0,0:0:0:0:
341,80,34473,5,0,0:0:0:0:
289,220,34558,1,0,0:0:0:0:
212,144,34643,5,0,0:0:0:0:
160,284,34728,1,0,0:0:0:0:
341,80,34814,5,0,0:0:0:0:
289,220,34899,1,0,0:0:0:0:
341,80,34984,5,0,0:0:0:0:
289,220,35069,1,0,0:0:0:0:
212,144,35155,5,0,0:0:0:0:
160,284,35240,1,0,0:0:0:0:
212,144,35325,5,0,0:0:0:0:
160,284,35410,1,0,0:0:0:0:
341,80,35495,5,0,0:0:0:0:
192,51,35581,1,0,0:0:0:0:
333,99,35666,5,0,0:0:0:0:
184,70,35752,1,0,0:0:0:0:
361,173,35836,5,0,0:0:0:0:
212,144,35922,1,0,0:0:0:0:
353,192,36007,5,0,0:0:0:0:
204,163,36093,1,0,0:0:0:0:
171,304,36177,5,0,0:0:0:0:
320,333,36263,1,0,0:0:0:0:
179,285,36348,5,0,0:0:0:0:
328,314,36434,1,0,0:0:0:0:
151,211,36518,5,0,0:0:0:0:
300,240,36604,1,0,0:0:0:0:
159,192,36689,5,0,0:0:0:0:
308,221,36775,1,0,0:0:0:0:
341,80,36859,5,0,0:0:0:0:
431,122,36944,1,0,0:0:0:0:
431,222,37030,5,0,0:0:0:0:
341,264,37115,1,0,0:0:0:0:
350,98,37200,5,0,0:0:0:0:
422,131,37285,1,0,0:0:0:0:
422,212,37371,5,0,0:0:0:0:
350,245,37456,1,0,0:0:0:0:
357,113,37541,5,0,0:0:0:0:
414,139,37626,1,0,0:0:0:0:
414,204,37712,5,0,0:0:0:0:
357,230,37797,1,0,0:0:0:0:
362,124,37882,5,0,0:0:0:0:
409,146,37967,1,0,0:0:0:0:
409,197,38053,5,0,0:0:0:0:
362,219,38138,1,0,0:0:0:0:
273,174,38223,6,0,L|177:174,1,75.0000028610231
104,343,38393,2,0,L|200:343,1,75.0000028610231
256,190,38564,6,0,L|179:190,1,75.0000028610231
120,326,38734,2,0,L|211:326,1,75.0000028610231
242,204,38905,1,0,0:0:0:0:
242,204,38990,1,0,0:0:0:0:
242,204,39075,1,0,0:0:0:0:
242,204,39245,2,0,B|354:204|354:204|402:172|402:172|514:172|514:172|466:124|466:124|402:124,1,400
242,122,39757,5,0,0:0:0:0:
144,296,39927,1,0,0:0:0:0:
144,296,40098,1,0,0:0:0:0:
335,293,40268,5,0,0:0:0:0:
242,122,40439,1,0,0:0:0:0:
242,122,40609,1,0,0:0:0:0:
144,296,40780,1,0,0:0:0:0:
316,195,40950,5,0,0:0:0:0:
316,195,41035,1,0,0:0:0:0:
316,195,41120,1,0,0:0:0:0:
144,296,41291,2,0,B|94:346|94:346|94:182,1,200
228,75,41632,2,0,B|196:107|180:139|180:187|196:219|228:251|260:267|308:267|340:251|372:219|372:219|372:219|340:219|308:187,1,400
394,132,42143,1,0,0:0:0:0:
105,138,42314,5,0,0:0:0:0:
107,157,42399,1,0,0:0:0:0:
109,176,42484,1,0,0:0:0:0:
111,195,42569,1,0,0:0:0:0:
140,235,42655,1,0,0:0:0:0:
142,254,42740,1,0,0:0:0:0:
144,273,42825,1,0,0:0:0:0:
146,292,42910,1,0,0:0:0:0:
191,271,42995,5,0,0:0:0:0:
210,269,43080,1,0,0:0:0:0:
229,267,43165,1,0,0:0:0:0:
248,265,43250,1,0,0:0:0:0:
288,236,43336,1,0,0:0:0:0:
307,234,43421,1,0,0:0:0:0:
326,232,43506,1,0,0:0:0:0:
345,230,43591,1,0,0:0:0:0:
395,224,43677,6,0,B|315:176|235:224|235:224|219:208|219:208|139:256|107:208,1,300
80,305,44018,6,0,B|160:353|240:305|240:305|256:321|256:321|336:273|368:321,1,300
395,224,44359,1,0,0:0:0:0:
195,203,44530,1,0,0:0:0:0:
444,37,44700,1,0,0:0:0:0:
198,351,44870,1,0,0:0:0:0:
70,78,45041,1,0,0:0:0:0:
