osu file format v14

[General]
AudioFilename: audio.mp3
AudioLeadIn: 0
PreviewTime: 110614
Countdown: 1
SampleSet: Normal
StackLeniency: 0.7
Mode: 0
LetterboxInBreaks: 0
WidescreenStoryboard: 0

[Editor]
DistanceSpacing: 1.3
BeatDivisor: 4
GridSize: 4
TimelineZoom: 1

[Metadata]
Title:MC MENTAL @ HIS BEST
TitleUnicode:MC MENTAL @ HIS BEST
Artist:MC MENTAL
ArtistUnicode:MC MENTAL
Creator:Ancelysia
Version:TRASH (03-23-18)
Source:
Tags:
BeatmapID:1585764
BeatmapSetID:753221

[Difficulty]
HPDrainRate:5
CircleSize:3.9
OverallDifficulty:8
ApproachRate:9
SliderMultiplier:1.4
SliderTickRate:1

[Events]
//Background and Video events
0,0,"BG.png",0,0
//Break Periods
2,12435,17096
//Storyboard Layer 0 (Background)
//Storyboard Layer 1 (Fail)
//Storyboard Layer 2 (Pass)
//Storyboard Layer 3 (Foreground)
//Storyboard Sound Samples

[TimingPoints]
120,341.296928327645,4,2,0,100,1,0
120,-100,4,2,0,100,0,1
205,-100,4,2,0,100,0,0
1314,341.296928327645,4,1,0,100,1,0
5068,-50,4,1,0,100,0,0
5409,-100,4,1,0,100,0,0
12235,-100,4,1,0,100,0,1
12320,-100,4,1,0,100,0,0
17696,-100,4,3,0,100,0,0
23157,-100,4,1,0,100,0,1
28276,-50,4,1,0,100,0,1
28617,-100,4,1,0,100,0,1
45000,-100,4,1,0,100,0,0
66160,-50,4,1,0,100,0,0
66843,-100,4,1,0,100,0,0
88686,-100,4,1,0,100,0,1
109163,-100,4,1,0,100,0,0

[Colours]
Combo1 : 255,192,0
Combo2 : 0,202,0
Combo3 : 18,124,255
Combo4 : 242,24,57

[HitObjects]
256,192,120,12,0,1143,0:0:0:0:
64,107,1314,5,4,0:0:0:0:
91,146,1399,1,0,0:0:0:0:
130,174,1484,1,0,0:0:0:0:
177,186,1569,1,0,0:0:0:0:
224,173,1655,1,0,0:0:0:0:
452,57,1825,5,0,0:0:0:0:
406,44,1910,1,0,0:0:0:0:
358,48,1995,1,0,0:0:0:0:
314,69,2080,1,0,0:0:0:0:
287,109,2166,1,0,0:0:0:0:
211,328,2337,5,0,0:0:0:0:
288,274,2507,1,0,0:0:0:0:
303,182,2678,1,0,0:0:0:0:
263,92,2849,5,0,0:0:0:0:
217,72,2935,1,0,0:0:0:0:
168,72,3020,1,0,0:0:0:0:
98,141,3191,1,0,0:0:0:0:
162,213,3361,5,0,0:0:0:0:
210,209,3447,1,0,0:0:0:0:
302,243,3532,5,0,0:0:0:0:
350,239,3618,1,0,0:0:0:0:
435,283,3703,5,0,0:0:0:0:
294,78,3873,1,0,0:0:0:0:
272,320,4044,5,0,0:0:0:0:
480,208,4215,1,0,0:0:0:0:
192,96,4385,1,0,0:0:0:0:
336,224,4556,1,0,0:0:0:0:
448,64,4726,5,0,0:0:0:0:
399,59,4812,1,0,0:0:0:0:
350,55,4897,1,0,0:0:0:0:
229,298,5068,2,0,P|333:240|334:203,1,150
238,47,5409,5,0,0:0:0:0:
190,54,5494,1,0,0:0:0:0:
151,83,5580,1,0,0:0:0:0:
123,123,5665,1,0,0:0:0:0:
116,171,5750,1,0,0:0:0:0:
389,173,5921,5,0,0:0:0:0:
352,140,6006,1,0,0:0:0:0:
305,129,6092,1,0,0:0:0:0:
215,159,6262,1,0,0:0:0:0:
341,282,6433,5,0,0:0:0:0:
256,46,6604,1,0,0:0:0:0:
64,199,6774,5,0,0:0:0:0:
102,229,6860,1,0,0:0:0:0:
147,245,6945,1,0,0:0:0:0:
195,252,7030,1,0,0:0:0:0:
241,237,7116,1,0,0:0:0:0:
437,304,7286,5,0,0:0:0:0:
420,260,7372,1,0,0:0:0:0:
389,223,7457,1,0,0:0:0:0:
351,193,7542,1,0,0:0:0:0:
303,183,7628,1,0,0:0:0:0:
326,2,7798,5,0,0:0:0:0:
285,26,7884,1,0,0:0:0:0:
254,63,7969,1,0,0:0:0:0:
231,105,8054,1,0,0:0:0:0:
230,154,8140,1,0,0:0:0:0:
272,224,8310,5,0,0:0:0:0:
323,269,8481,1,0,0:0:0:0:
410,301,8651,1,0,0:0:0:0:
492,245,8822,1,0,0:0:0:0:
230,319,8993,1,0,0:0:0:0:
491,357,9163,1,0,0:0:0:0:
417,95,9334,1,0,0:0:0:0:
363,352,9505,5,0,0:0:0:0:
288,144,9675,1,0,0:0:0:0:
272,96,9761,1,0,0:0:0:0:
256,48,9846,1,0,0:0:0:0:
368,192,10017,5,0,0:0:0:0:
416,176,10103,1,0,0:0:0:0:
464,160,10188,1,0,0:0:0:0:
464,320,10358,1,0,0:0:0:0:
144,192,10529,1,0,0:0:0:0:
368,64,10699,1,0,0:0:0:0:
288,368,10870,5,4,0:0:0:0:
128,48,11040,1,0,0:0:0:0:
496,256,11211,1,4,0:0:0:0:
96,208,11382,1,0,0:0:0:0:
464,48,11552,5,4,0:0:0:0:
64,240,11894,1,0,0:0:0:0:
464,336,12235,1,4,0:0:0:0:
368,112,17696,5,0,0:0:0:0:
354,94,17781,1,0,0:0:0:0:
337,78,17866,1,0,0:0:0:0:
316,66,17952,1,0,0:0:0:0:
294,58,18037,1,0,0:0:0:0:
271,55,18122,1,0,0:0:0:0:
248,56,18208,1,0,0:0:0:0:
226,63,18293,1,0,0:0:0:0:
205,72,18378,1,0,0:0:0:0:
187,86,18464,1,0,0:0:0:0:
171,102,18549,1,0,0:0:0:0:
159,121,18634,1,0,0:0:0:0:
150,142,18720,1,0,0:0:0:0:
146,164,18805,1,0,0:0:0:0:
148,186,18890,1,0,0:0:0:0:
152,208,18976,1,0,0:0:0:0:
160,228,19061,5,0,0:0:0:0:
172,246,19146,1,0,0:0:0:0:
187,262,19232,1,0,0:0:0:0:
202,278,19317,1,0,0:0:0:0:
221,289,19402,1,0,0:0:0:0:
242,297,19488,1,0,0:0:0:0:
264,300,19573,1,0,0:0:0:0:
286,298,19658,1,0,0:0:0:0:
306,287,19744,1,0,0:0:0:0:
326,279,19829,1,0,0:0:0:0:
347,273,19914,1,0,0:0:0:0:
369,272,20000,1,0,0:0:0:0:
391,273,20085,1,0,0:0:0:0:
413,276,20170,1,0,0:0:0:0:
433,284,20255,1,0,0:0:0:0:
450,298,20341,1,0,0:0:0:0:
465,314,20426,5,4,2:0:0:0:
442,318,20511,1,0,0:0:0:0:
419,319,20597,1,0,0:0:0:0:
396,316,20682,1,0,0:0:0:0:
374,307,20767,1,0,0:0:0:0:
354,294,20853,1,0,0:0:0:0:
335,281,20938,1,0,0:0:0:0:
318,264,21023,1,0,0:0:0:0:
305,245,21109,1,0,0:0:0:0:
292,226,21194,1,0,0:0:0:0:
278,207,21279,1,0,0:0:0:0:
262,190,21365,1,0,0:0:0:0:
243,177,21450,1,0,0:0:0:0:
222,168,21535,1,0,0:0:0:0:
199,165,21621,1,0,0:0:0:0:
176,168,21706,1,0,0:0:0:0:
154,174,21791,5,4,2:0:0:0:
151,196,21877,1,0,0:0:0:0:
154,218,21962,1,0,0:0:0:0:
162,239,22047,1,0,0:0:0:0:
173,258,22133,1,0,0:0:0:0:
191,271,22218,1,0,0:0:0:0:
211,280,22303,1,0,0:0:0:0:
233,285,22389,1,0,0:0:0:0:
255,286,22474,1,0,0:0:0:0:
277,284,22559,1,0,0:0:0:0:
298,277,22645,1,0,0:0:0:0:
317,265,22730,1,0,0:0:0:0:
337,254,22815,1,0,0:0:0:0:
358,246,22901,1,0,0:0:0:0:
380,242,22986,1,0,0:0:0:0:
402,240,23071,1,0,0:0:0:0:
424,243,23157,6,0,L|434:300,3,35,4|0|0|0,0:0|0:0|0:0|0:0,0:0:0:0:
400,160,23498,2,0,L|410:103,3,35
320,272,23839,2,0,L|330:329,3,35
272,144,24180,2,0,L|282:87,3,35
224,304,24522,2,0,L|234:361,3,35
176,96,24863,2,0,L|186:39,3,35
160,192,25204,5,0,0:0:0:0:
384,288,25375,1,0,0:0:0:0:
160,288,25546,1,0,0:0:0:0:
384,192,25716,1,0,0:0:0:0:
80,352,25887,6,0,L|59:301,3,35
176,280,26228,2,0,L|164:229,3,35
312,272,26569,2,0,L|312:224,3,35
440,320,26911,2,0,L|452:269,3,35
356,344,27252,5,0,0:0:0:0:
296,264,27337,1,0,0:0:0:0:
276,372,27423,5,0,0:0:0:0:
272,278,27508,1,0,0:0:0:0:
190,363,27593,5,0,0:0:0:0:
243,284,27678,1,0,0:0:0:0:
118,321,27764,5,0,0:0:0:0:
208,278,27849,1,0,0:0:0:0:
88,235,27935,5,0,0:0:0:0:
188,258,28020,1,0,0:0:0:0:
161,153,28105,1,0,0:0:0:0:
308,191,28276,2,0,P|256:147|172:148,1,140
96,204,28617,6,0,L|36:200,3,35
208,148,28959,2,0,L|268:152,3,35
80,212,29300,2,0,L|20:208,3,35
216,132,29642,2,0,L|276:136,3,35
64,224,29982,2,0,L|4:220,3,35
228,116,30324,2,0,L|288:120,1,35
336,124,30494,1,0,0:0:0:0:
404,320,30665,6,0,L|312:308,1,70
312,200,31006,2,0,L|408:208,1,70
404,320,31348,5,0,0:0:0:0:
204,168,31518,1,0,0:0:0:0:
160,152,31604,1,0,0:0:0:0:
114,148,31689,1,0,0:0:0:0:
304,156,31860,5,0,0:0:0:0:
320,112,31946,1,0,0:0:0:0:
324,66,32031,1,0,0:0:0:0:
276,244,32201,5,0,0:0:0:0:
224,68,32372,1,0,0:0:0:0:
176,272,32542,1,0,0:0:0:0:
400,172,32713,5,0,0:0:0:0:
64,72,32883,1,0,0:0:0:0:
60,216,33054,5,0,0:0:0:0:
404,68,33225,1,0,0:0:0:0:
192,320,33395,5,0,0:0:0:0:
320,320,33566,1,0,0:0:0:0:
116,320,33737,1,0,0:0:0:0:
396,320,33908,1,0,0:0:0:0:
152,52,34078,5,4,0:0:0:0:
144,96,34163,1,0,0:0:0:0:
136,140,34249,1,0,0:0:0:0:
128,184,34334,1,0,0:0:0:0:
352,120,34419,5,0,0:0:0:0:
308,112,34504,1,0,0:0:0:0:
264,104,34590,1,0,0:0:0:0:
220,96,34675,1,0,0:0:0:0:
332,336,34761,5,0,0:0:0:0:
340,292,34846,1,0,0:0:0:0:
348,248,34932,1,0,0:0:0:0:
356,204,35017,1,0,0:0:0:0:
124,304,35102,5,0,0:0:0:0:
168,312,35187,1,0,0:0:0:0:
212,320,35273,1,0,0:0:0:0:
256,328,35358,1,0,0:0:0:0:
108,224,35443,5,0,0:0:0:0:
117,172,35528,1,0,0:0:0:0:
126,121,35614,1,0,0:0:0:0:
135,70,35699,1,0,0:0:0:0:
252,340,35784,5,0,0:0:0:0:
201,330,35869,1,0,0:0:0:0:
149,321,35955,1,0,0:0:0:0:
98,312,36040,1,0,0:0:0:0:
377,182,36126,5,0,0:0:0:0:
368,233,36211,1,0,0:0:0:0:
359,284,36297,1,0,0:0:0:0:
349,335,36382,1,0,0:0:0:0:
236,68,36467,5,0,0:0:0:0:
287,77,36552,1,0,0:0:0:0:
338,86,36638,1,0,0:0:0:0:
389,96,36723,1,0,0:0:0:0:
452,168,36808,6,0,P|440:200|424:216,3,35
268,236,37150,2,0,P|236:224|220:208,3,35
376,240,37491,2,0,P|343:251|321:249,3,35
168,184,37833,2,0,P|156:151|158:129,3,35
84,312,38174,5,0,0:0:0:0:
126,295,38259,1,0,0:0:0:0:
170,285,38344,1,0,0:0:0:0:
215,280,38430,1,0,0:0:0:0:
299,142,38515,5,0,0:0:0:0:
257,159,38600,1,0,0:0:0:0:
213,169,38685,1,0,0:0:0:0:
168,174,38771,1,0,0:0:0:0:
132,168,38856,2,0,L|124:120,1,35
252,284,39027,5,0,0:0:0:0:
336,56,39197,1,0,0:0:0:0:
184,328,39368,1,0,0:0:0:0:
444,208,39539,5,4,0:0:0:0:
48,320,39709,1,2,0:0:0:0:
464,320,39880,5,0,0:0:0:0:
68,208,40050,1,2,0:0:0:0:
495,100,40221,5,0,0:0:0:0:
161,341,40391,1,2,0:0:0:0:
480,216,40563,5,0,0:0:0:0:
20,112,40733,1,2,0:0:0:0:
304,312,40904,5,0,0:0:0:0:
348,322,40989,1,0,0:0:0:0:
392,331,41075,1,0,0:0:0:0:
388,120,41245,1,0,0:0:0:0:
304,312,41416,1,0,0:0:0:0:
184,144,41587,6,0,P|180:72|192:44,1,70
328,240,41928,2,0,P|332:312|320:340,1,70
168,268,42269,5,0,0:0:0:0:
132,292,42354,1,0,0:0:0:0:
96,320,42440,1,0,0:0:0:0:
380,104,42610,1,0,0:0:0:0:
460,304,42781,5,0,0:0:0:0:
424,276,42866,1,0,0:0:0:0:
383,254,42952,1,0,0:0:0:0:
338,248,43037,1,0,0:0:0:0:
293,258,43122,1,0,0:0:0:0:
255,286,43208,1,0,0:0:0:0:
236,327,43293,1,0,0:0:0:0:
96,100,43464,1,0,0:0:0:0:
440,140,43634,5,4,0:0:0:0:
84,324,43805,1,0,0:0:0:0:
260,156,43976,5,4,0:0:0:0:
304,244,44061,1,0,0:0:0:0:
344,332,44147,1,0,0:0:0:0:
464,48,44317,5,4,0:0:0:0:
419,57,44402,1,0,0:0:0:0:
373,66,44488,1,0,0:0:0:0:
328,75,44573,1,0,0:0:0:0:
292,152,44658,5,4,0:0:0:0:
246,161,44744,1,0,0:0:0:0:
201,169,44829,1,0,0:0:0:0:
156,177,44914,1,0,0:0:0:0:
96,244,45000,5,4,0:0:0:0:
80,144,45170,1,0,0:0:0:0:
84,264,45341,1,0,0:0:0:0:
88,128,45511,1,0,0:0:0:0:
40,336,45682,1,0,0:0:0:0:
460,140,45853,5,2,2:0:0:0:
432,252,45938,1,2,2:0:0:0:
344,140,46109,1,2,2:0:0:0:
300,296,46194,1,2,2:0:0:0:
96,244,46365,5,0,0:0:0:0:
80,108,46535,1,0,0:0:0:0:
84,264,46706,1,0,0:0:0:0:
88,84,46876,1,0,0:0:0:0:
40,352,47047,1,0,0:0:0:0:
480,100,47218,5,2,2:0:0:0:
376,100,47303,1,2,2:0:0:0:
372,208,47474,1,2,2:0:0:0:
476,208,47559,1,2,2:0:0:0:
216,328,47730,5,0,0:0:0:0:
376,304,47901,1,0,0:0:0:0:
208,352,48071,1,0,0:0:0:0:
388,280,48242,1,0,0:0:0:0:
124,344,48412,1,0,0:0:0:0:
204,64,48583,5,2,2:0:0:0:
352,48,48668,1,2,2:0:0:0:
396,80,48839,1,2,2:0:0:0:
176,96,48924,1,2,2:0:0:0:
120,148,49095,5,0,0:0:0:0:
408,160,49266,1,0,0:0:0:0:
120,160,49436,1,0,0:0:0:0:
408,148,49607,1,0,0:0:0:0:
256,168,49778,1,0,0:0:0:0:
256,60,49948,5,2,2:0:0:0:
372,60,50034,1,2,2:0:0:0:
480,84,50204,1,2,2:0:0:0:
256,80,50290,1,2,2:0:0:0:
160,144,50460,5,4,0:0:0:0:
144,232,50631,1,0,0:0:0:0:
160,136,50802,1,0,0:0:0:0:
144,240,50972,1,0,0:0:0:0:
172,52,51143,1,0,0:0:0:0:
248,312,51313,5,2,2:0:0:0:
336,184,51399,1,2,2:0:0:0:
328,348,51569,1,2,2:0:0:0:
264,136,51655,1,2,2:0:0:0:
212,196,51825,5,0,0:0:0:0:
384,312,51996,1,0,0:0:0:0:
200,188,52167,1,0,0:0:0:0:
396,320,52338,1,0,0:0:0:0:
461,130,52508,6,0,L|392:140,1,70,2|0,0:0|0:0,0:0:0:0:
204,324,52849,2,0,L|273:314,1,70,2|0,0:0|0:0,0:0:0:0:
392,288,53191,5,0,0:0:0:0:
104,160,53361,1,0,0:0:0:0:
404,292,53532,1,0,0:0:0:0:
92,152,53702,1,0,0:0:0:0:
472,328,53873,1,0,0:0:0:0:
344,124,54044,5,2,2:0:0:0:
440,112,54129,1,2,2:0:0:0:
284,280,54300,1,2,2:0:0:0:
120,256,54385,1,2,2:0:0:0:
384,272,54556,5,0,0:0:0:0:
68,312,54726,1,0,0:0:0:0:
380,244,54897,1,0,0:0:0:0:
61,228,55067,1,0,0:0:0:0:
380,212,55238,5,4,0:0:0:0:
68,140,55408,1,0,0:0:0:0:
388,180,55580,1,4,0:0:0:0:
93,54,55750,1,0,0:0:0:0:
200,336,55921,5,0,0:0:0:0:
360,112,56092,1,0,0:0:0:0:
136,176,56262,1,2,0:0:0:0:
412,288,56433,1,0,0:0:0:0:
244,80,56604,5,0,0:0:0:0:
284,360,56774,1,0,0:0:0:0:
432,184,56945,1,2,0:0:0:0:
112,256,57116,1,0,0:0:0:0:
424,336,57286,5,0,0:0:0:0:
248,48,57457,1,0,0:0:0:0:
72,348,57627,1,2,0:0:0:0:
248,60,57798,1,0,0:0:0:0:
288,316,57969,5,0,0:0:0:0:
56,196,58139,1,0,0:0:0:0:
336,160,58310,1,2,0:0:0:0:
132,324,58481,1,0,0:0:0:0:
200,80,58651,5,0,0:0:0:0:
280,332,58822,1,0,0:0:0:0:
352,48,58993,1,2,0:0:0:0:
100,128,59164,1,0,0:0:0:0:
296,120,59334,5,0,0:0:0:0:
200,296,59505,1,0,0:0:0:0:
418,215,59676,1,2,0:0:0:0:
224,168,59847,1,0,0:0:0:0:
300,336,60017,6,0,L|380:332,1,70
208,240,60358,2,0,L|128:236,1,70,2|0,0:0|0:0,0:0:0:0:
332,348,60699,6,0,L|412:344,1,70
176,208,61040,2,0,L|96:204,1,70,2|0,0:0|0:0,0:0:0:0:
48,284,61297,5,0,0:0:0:0:
87,306,61382,1,0,0:0:0:0:
130,317,61467,1,0,0:0:0:0:
175,317,61553,1,0,0:0:0:0:
263,298,61723,1,4,0:0:0:0:
344,332,61894,1,0,0:0:0:0:
456,156,61979,5,0,0:0:0:0:
417,178,62065,1,0,0:0:0:0:
374,189,62150,1,0,0:0:0:0:
329,189,62236,1,0,0:0:0:0:
241,170,62406,1,4,0:0:0:0:
160,204,62576,1,0,0:0:0:0:
68,124,62747,6,0,L|68:68,1,35
240,264,62918,2,0,L|240:320,1,35
372,132,63088,5,0,0:0:0:0:
56,260,63259,1,0,0:0:0:0:
408,340,63430,1,0,0:0:0:0:
200,24,63600,1,0,0:0:0:0:
124,340,63771,1,0,0:0:0:0:
424,232,63941,1,0,0:0:0:0:
160,64,64112,5,4,0:0:0:0:
132,100,64197,1,4,0:0:0:0:
110,141,64283,1,4,0:0:0:0:
104,186,64368,1,4,0:0:0:0:
114,231,64453,1,4,0:0:0:0:
142,269,64539,1,4,0:0:0:0:
183,288,64624,1,4,0:0:0:0:
227,294,64709,1,4,0:0:0:0:
186,272,64795,5,4,0:0:0:0:
155,238,64880,1,4,0:0:0:0:
134,197,64965,1,4,0:0:0:0:
129,151,65051,1,4,0:0:0:0:
140,107,65136,1,4,0:0:0:0:
164,69,65221,1,4,0:0:0:0:
201,42,65307,1,4,0:0:0:0:
245,36,65392,1,4,0:0:0:0:
288,48,65477,6,4,L|279:98,1,35
144,296,65648,2,4,L|153:246,1,35
136,96,65819,2,4,L|142:130,1,35
280,344,65990,2,4,L|273:309,1,35
8,231,66160,5,4,0:0:0:0:
98,223,66245,1,4,0:0:0:0:
189,214,66331,1,4,0:0:0:0:
278,202,66416,1,4,0:0:0:0:
367,190,66501,1,4,0:0:0:0:
457,177,66672,1,4,0:0:0:0:
464,336,66843,6,0,L|464:252,1,70,4|0,0:0|0:0,0:0:0:0:
384,336,67184,2,0,L|384:252,1,70
304,336,67525,2,0,L|304:252,1,70
224,336,67866,1,6,0:0:0:0:
48,48,68208,6,0,L|48:132,1,70,4|0,0:0|0:0,0:0:0:0:
128,48,68549,2,0,L|128:132,1,70
208,48,68890,2,0,L|208:132,1,70
464,192,69232,5,2,0:0:0:0:
48,192,69402,5,2,0:0:0:0:
464,48,69573,6,0,L|464:132,1,70,4|0,0:0|0:0,0:0:0:0:
384,48,69914,2,0,L|384:132,1,70
304,48,70255,2,0,L|304:132,1,70
224,112,70597,6,0,L|224:28,1,70,2|2,0:0|0:0,0:0:0:0:
48,336,70938,6,0,L|48:252,1,70,4|0,0:0|0:0,0:0:0:0:
128,336,71279,2,0,L|128:252,1,70
208,336,71620,2,0,L|208:252,1,70
464,192,71962,6,0,L|400:192,1,35,2|0,0:0|0:0,0:0:0:0:
48,192,72133,2,0,L|112:192,1,35,2|0,0:0|0:0,0:0:0:0:
464,336,72303,6,0,L|384:336,1,70,4|0,0:0|0:0,0:0:0:0:
320,336,72645,1,2,0:0:0:0:
48,336,72986,6,0,L|128:336,1,70,4|0,0:0|0:0,0:0:0:0:
320,336,73327,2,0,L|240:336,1,70
48,48,73668,6,0,L|128:48,1,70,4|0,0:0|0:0,0:0:0:0:
192,48,74010,1,2,0:0:0:0:
192,128,74180,1,0,0:0:0:0:
464,48,74351,6,0,L|384:48,1,70,4|0,0:0|0:0,0:0:0:0:
320,52,74692,2,0,L|320:92,1,35,2|0,0:0|0:0,0:0:0:0:
320,200,74863,2,0,L|320:160,1,35,2|0,0:0|0:0,0:0:0:0:
464,260,75034,6,0,L|384:260,1,70,4|0,0:0|0:0,0:0:0:0:
320,260,75376,1,2,0:0:0:0:
48,260,75717,6,0,L|128:260,1,70,4|0,0:0|0:0,0:0:0:0:
320,260,76058,2,0,L|240:260,1,70
48,128,76399,6,0,L|128:128,1,70,4|0,0:0|0:0,0:0:0:0:
192,128,76741,1,2,0:0:0:0:
192,208,76911,1,0,0:0:0:0:
464,128,77082,6,0,L|384:128,1,70,4|0,0:0|0:0,0:0:0:0:
320,132,77423,2,0,L|320:172,1,35,2|0,0:0|0:0,0:0:0:0:
320,280,77594,2,0,L|320:240,1,35,2|0,0:0|0:0,0:0:0:0:
256,60,77764,5,4,0:0:0:0:
256,324,77935,1,0,0:0:0:0:
301,67,78105,5,4,0:0:0:0:
210,316,78276,1,0,0:0:0:0:
340,90,78447,5,4,0:0:0:0:
171,293,78618,1,0,0:0:0:0:
370,125,78788,5,4,0:0:0:0:
141,258,78959,1,0,0:0:0:0:
385,169,79129,5,4,0:0:0:0:
126,214,79300,1,0,0:0:0:0:
385,214,79470,5,4,0:0:0:0:
126,169,79641,1,0,0:0:0:0:
370,258,79812,5,6,0:0:0:0:
141,125,79983,1,0,0:0:0:0:
340,293,80153,5,6,0:0:0:0:
171,90,80324,1,0,0:0:0:0:
388,192,80494,5,4,0:0:0:0:
124,192,80665,1,0,0:0:0:0:
380,146,80835,5,4,0:0:0:0:
131,237,81006,1,0,0:0:0:0:
357,107,81177,5,4,0:0:0:0:
154,276,81348,1,0,0:0:0:0:
322,77,81518,5,4,0:0:0:0:
190,306,81689,1,0,0:0:0:0:
278,62,81859,5,4,0:0:0:0:
233,321,82030,1,0,0:0:0:0:
233,62,82200,5,4,0:0:0:0:
278,321,82371,1,0,0:0:0:0:
190,77,82542,5,4,0:0:0:0:
322,306,82713,1,0,0:0:0:0:
154,107,82883,5,4,0:0:0:0:
357,276,83054,1,0,0:0:0:0:
140,144,83225,5,4,0:0:0:0:
432,80,83395,1,4,0:0:0:0:
96,68,83566,5,4,0:0:0:0:
472,156,83736,1,4,0:0:0:0:
372,240,83907,5,4,0:0:0:0:
80,304,84077,1,4,0:0:0:0:
208,308,84249,5,4,0:0:0:0:
144,16,84419,1,4,0:0:0:0:
348,120,84590,5,4,0:0:0:0:
76,240,84761,1,4,0:0:0:0:
370,216,84931,5,4,0:0:0:0:
103,84,85102,1,4,0:0:0:0:
284,352,85273,5,4,0:0:0:0:
415,85,85444,1,4,0:0:0:0:
200,344,85614,5,4,0:0:0:0:
447,178,85785,1,4,0:0:0:0:
136,40,85955,5,4,0:0:0:0:
344,260,86126,1,4,0:0:0:0:
104,312,86296,5,4,0:0:0:0:
468,308,86467,1,4,0:0:0:0:
76,192,86638,5,4,0:0:0:0:
378,36,86809,1,4,0:0:0:0:
304,360,86979,5,4,0:0:0:0:
100,69,87150,1,4,0:0:0:0:
364,192,87320,5,2,0:0:0:0:
148,192,87662,5,2,0:0:0:0:
364,192,87918,5,2,0:0:0:0:
256,192,88003,1,2,0:0:0:0:
148,192,88174,5,2,0:0:0:0:
364,192,88344,1,2,0:0:0:0:
148,192,88686,5,4,0:0:0:0:
148,148,88771,1,0,0:0:0:0:
148,104,88856,2,0,L|148:56,1,35,2|0,0:0|0:0,0:0:0:0:
324,200,89027,5,0,0:0:0:0:
324,244,89112,1,0,0:0:0:0:
324,288,89197,2,0,L|324:336,1,35,2|0,0:0|0:0,0:0:0:0:
320,72,89368,5,0,0:0:0:0:
364,72,89453,1,0,0:0:0:0:
408,72,89538,2,0,L|456:72,1,35,2|0,0:0|0:0,0:0:0:0:
196,292,89709,5,0,0:0:0:0:
152,292,89794,1,0,0:0:0:0:
108,292,89879,2,0,L|60:292,1,35,2|0,0:0|0:0,0:0:0:0:
256,192,90051,5,0,0:0:0:0:
332,192,90136,1,0,0:0:0:0:
408,192,90221,2,0,L|452:192,1,35,2|0,0:0|0:0,0:0:0:0:
196,292,90392,5,0,0:0:0:0:
272,292,90477,1,0,0:0:0:0:
348,292,90562,2,0,L|392:292,1,35,2|0,0:0|0:0,0:0:0:0:
312,72,90733,5,0,0:0:0:0:
236,72,90818,1,0,0:0:0:0:
160,72,90903,2,0,L|116:72,1,35,2|0,0:0|0:0,0:0:0:0:
76,264,91075,5,0,0:0:0:0:
152,264,91160,1,0,0:0:0:0:
228,264,91245,2,0,L|272:264,1,35,2|0,0:0|0:0,0:0:0:0:
420,92,91416,5,0,0:0:0:0:
336,92,91501,1,0,0:0:0:0:
252,92,91587,2,0,L|200:92,1,35,2|0,0:0|0:0,0:0:0:0:
392,360,91757,5,0,0:0:0:0:
392,276,91842,1,0,0:0:0:0:
392,192,91928,2,0,L|392:140,1,35,2|0,0:0|0:0,0:0:0:0:
104,320,92098,5,0,0:0:0:0:
188,320,92183,1,0,0:0:0:0:
272,320,92269,2,0,L|324:320,1,35,2|0,0:0|0:0,0:0:0:0:
148,44,92440,5,0,0:0:0:0:
148,128,92525,1,0,0:0:0:0:
148,212,92611,2,0,L|148:264,1,35,2|0,0:0|0:0,0:0:0:0:
436,312,92781,5,0,0:0:0:0:
436,216,92866,1,0,0:0:0:0:
436,124,92952,2,0,L|436:60,1,35,2|0,0:0|0:0,0:0:0:0:
316,64,93122,5,0,0:0:0:0:
316,160,93207,1,0,0:0:0:0:
316,252,93293,2,0,L|316:316,1,35,2|0,0:0|0:0,0:0:0:0:
204,308,93464,5,0,0:0:0:0:
204,212,93549,1,0,0:0:0:0:
204,120,93635,2,0,L|204:56,1,35,2|0,0:0|0:0,0:0:0:0:
84,60,93805,5,0,0:0:0:0:
84,156,93890,1,0,0:0:0:0:
84,248,93976,2,0,L|84:312,1,35,2|0,0:0|0:0,0:0:0:0:
316,288,94146,5,4,0:0:0:0:
316,188,94232,1,0,0:0:0:0:
220,188,94317,2,0,L|176:188,1,35,2|0,0:0|0:0,0:0:0:0:
84,183,94488,5,0,0:0:0:0:
84,283,94574,1,0,0:0:0:0:
180,283,94659,2,0,L|224:283,1,35,2|0,0:0|0:0,0:0:0:0:
316,288,94829,5,0,0:0:0:0:
416,288,94915,1,0,0:0:0:0:
416,192,95000,2,0,L|416:148,1,35,2|0,0:0|0:0,0:0:0:0:
412,64,95170,5,0,0:0:0:0:
312,64,95256,1,0,0:0:0:0:
312,160,95341,2,0,L|312:204,1,35,2|0,0:0|0:0,0:0:0:0:
216,196,95511,5,0,0:0:0:0:
216,88,95597,1,0,0:0:0:0:
112,88,95682,2,0,L|52:88,1,35,2|0,0:0|0:0,0:0:0:0:
176,268,95853,5,0,0:0:0:0:
284,268,95939,1,0,0:0:0:0:
280,164,96024,2,0,L|280:104,1,35,2|0,0:0|0:0,0:0:0:0:
204,172,96194,5,0,0:0:0:0:
96,172,96280,1,0,0:0:0:0:
96,276,96365,2,0,L|96:336,1,35,2|0,0:0|0:0,0:0:0:0:
427,276,96535,5,0,0:0:0:0:
424,164,96621,1,0,0:0:0:0:
323,164,96706,2,0,L|263:164,1,35,2|0,0:0|0:0,0:0:0:0:
208,320,96877,5,0,0:0:0:0:
208,188,96962,1,0,0:0:0:0:
84,188,97047,2,0,L|32:188,1,35,2|0,0:0|0:0,0:0:0:0:
148,256,97218,5,0,0:0:0:0:
280,256,97303,1,0,0:0:0:0:
280,132,97388,2,0,L|280:80,1,35,2|0,0:0|0:0,0:0:0:0:
344,320,97559,5,0,0:0:0:0:
344,188,97644,1,0,0:0:0:0:
220,188,97729,2,0,L|168:188,1,35,2|0,0:0|0:0,0:0:0:0:
52,232,97901,5,0,0:0:0:0:
52,100,97986,1,0,0:0:0:0:
176,100,98071,2,0,L|211:100,1,35,2|0,0:0|0:0,0:0:0:0:
420,96,98242,5,0,0:0:0:0:
420,328,98412,1,0,0:0:0:0:
452,188,98583,5,0,0:0:0:0:
220,188,98753,1,0,0:0:0:0:
356,272,98924,5,0,0:0:0:0:
256,272,99010,1,0,0:0:0:0:
156,272,99094,1,0,0:0:0:0:
60,272,99266,5,0,0:0:0:0:
444,272,99436,1,0,0:0:0:0:
256,64,99607,6,0,L|197:51,1,35,4|0,0:0|0:0,0:0:0:0:
128,128,99778,6,0,L|187:141,1,35,2|0,0:0|0:0,0:0:0:0:
284,200,99948,6,0,L|249:192,1,35
156,264,100119,6,0,L|190:271,1,35,2|0,0:0|0:0,0:0:0:0:
288,324,100290,6,0,L|288:272,1,35
76,184,100460,6,0,L|76:240,1,35,2|0,0:0|0:0,0:0:0:0:
288,212,100631,6,0,L|288:160,1,35
72,308,100801,6,0,L|72:364,1,35,2|0,0:0|0:0,0:0:0:0:
184,168,100972,6,0,L|184:112,1,35
372,272,101143,6,0,L|304:280,1,35,2|0,0:0|0:0,0:0:0:0:
412,112,101313,6,0,L|420:168,1,35
236,300,101484,6,0,L|220:236,1,35,2|0,0:0|0:0,0:0:0:0:
420,348,101655,6,0,L|356:344,1,35
272,144,101825,6,0,L|340:136,1,35,2|0,0:0|0:0,0:0:0:0:
216,348,101996,6,0,L|220:284,1,35
420,200,102166,6,0,L|428:268,1,35,2|0,0:0|0:0,0:0:0:0:
312,332,102337,6,0,L|376:332,1,35
327,192,102508,6,0,L|292:192,1,35,2|0,0:0|0:0,0:0:0:0:
180,296,102679,6,0,L|244:296,1,35
195,156,102850,6,0,L|160:156,1,35,2|0,0:0|0:0,0:0:0:0:
76,248,103020,6,0,L|132:240,1,35
316,152,103191,6,0,L|260:144,1,35,2|0,0:0|0:0,0:0:0:0:
128,128,103361,6,0,L|162:132,1,35
368,272,103532,6,0,L|333:276,1,35,2|0,0:0|0:0,0:0:0:0:
224,88,103703,6,0,L|216:32,1,35
288,296,103873,6,0,L|296:352,1,35,2|0,0:0|0:0,0:0:0:0:
336,128,104044,6,0,L|344:72,1,35
176,272,104214,6,0,L|168:328,1,35,2|0,0:0|0:0,0:0:0:0:
400,244,104385,6,0,L|460:236,1,35
384,104,104556,6,0,L|324:112,1,35,2|0,0:0|0:0,0:0:0:0:
272,288,104726,6,0,L|332:280,1,35
240,128,104897,6,0,L|180:136,1,35,2|0,0:0|0:0,0:0:0:0:
72,304,105068,5,2,0:0:0:0:
460,332,105238,1,2,0:0:0:0:
64,228,105409,5,2,0:0:0:0:
444,128,105580,1,2,0:0:0:0:
204,344,105750,5,2,0:0:0:0:
240,316,105836,1,2,0:0:0:0:
283,303,105921,1,2,0:0:0:0:
328,307,106006,1,2,0:0:0:0:
371,321,106092,5,2,0:0:0:0:
304,76,106262,1,2,0:0:0:0:
84,276,106433,5,2,0:0:0:0:
432,224,106604,1,2,0:0:0:0:
296,316,106774,5,2,0:0:0:0:
88,148,106945,1,2,0:0:0:0:
320,88,107116,5,2,0:0:0:0:
365,82,107201,1,2,0:0:0:0:
409,74,107286,1,2,0:0:0:0:
454,67,107372,1,2,0:0:0:0:
498,60,107457,5,2,0:0:0:0:
472,320,107627,1,2,0:0:0:0:
112,220,107798,5,6,0:0:0:0:
444,188,107969,1,2,0:0:0:0:
84,224,108139,5,2,0:0:0:0:
468,184,108310,1,2,0:0:0:0:
348,77,108481,5,2,0:0:0:0:
114,315,108652,1,2,0:0:0:0:
367,56,108822,5,2,0:0:0:0:
96,336,108993,1,2,0:0:0:0:
256,200,109163,5,0,0:0:0:0:
272,200,109249,1,0,0:0:0:0:
284,200,109334,1,0,0:0:0:0:
296,200,109419,1,0,0:0:0:0:
384,240,109505,5,0,0:0:0:0:
400,240,109591,1,0,0:0:0:0:
412,240,109676,1,0,0:0:0:0:
424,240,109761,1,0,0:0:0:0:
472,332,109846,5,0,0:0:0:0:
416,300,109931,1,0,0:0:0:0:
384,352,110017,1,0,0:0:0:0:
340,336,110102,1,0,0:0:0:0:
280,312,110187,5,0,0:0:0:0:
224,340,110273,1,0,0:0:0:0:
148,364,110358,1,0,0:0:0:0:
80,348,110443,1,0,0:0:0:0:
136,280,110529,5,4,0:0:0:0:
