osu file format v14

[General]
AudioFilename: audio.mp3
AudioLeadIn: 0
PreviewTime: 39714
Countdown: 0
SampleSet: Soft
StackLeniency: 0.7
Mode: 0
LetterboxInBreaks: 0
WidescreenStoryboard: 1

[Editor]
DistanceSpacing: 0.4
BeatDivisor: 8
GridSize: 32
TimelineZoom: 1

[Metadata]
Title:Parado no Bailao | Com Grave
TitleUnicode:Parado no Bailão | Com Grave
Artist:MC L Da Vinte e MC Gury
ArtistUnicode:MC L Da Vinte e MC Gury
Creator:Trynna
Version:Senhor's Funk
Source:
Tags:Net0 Near Kuron-kun Kalindraz Edu brazillian portuguese funk senhor srskyplayer cut short version mandstoledo mandela (bass boosted) (com grave) detona
BeatmapID:2004378
BeatmapSetID:956145

[Difficulty]
HPDrainRate:7
CircleSize:4
OverallDifficulty:7
ApproachRate:8
SliderMultiplier:2.2
SliderTickRate:1

[Events]
//Background and Video events
0,0,"IMF_7202.jpg",0,0
//Break Periods
//Storyboard Layer 0 (Background)
//Storyboard Layer 1 (Fail)
//Storyboard Layer 2 (Pass)
//Storyboard Layer 3 (Foreground)
//Storyboard Sound Samples

[TimingPoints]
-4478,461.538461538462,4,2,1,100,1,0
2213,-200,4,2,1,100,0,0
2906,-200,4,2,1,100,0,0
4290,-200,4,2,1,50,0,0
25002,-200,4,2,1,5,0,0
25059,-500,4,2,1,50,0,0
27603,-133.333333333333,4,2,1,50,0,0
39829,-100,4,2,1,70,0,0
54598,-90.9090909090909,4,2,1,70,0,1
67521,-133.333333333333,4,2,1,70,0,1
67983,-133.333333333333,4,2,1,70,0,0
69367,-111.111111111111,4,2,1,50,0,0
81829,461.538461538462,4,2,1,50,1,0
81829,-111.111111111111,4,2,1,50,0,0
82319,461.538461538462,4,2,1,50,1,0
82319,-133.333333333333,4,2,1,50,0,0
82434,-133.333333333333,4,2,1,20,0,0

[Colours]
Combo1 : 191,62,49
Combo2 : 252,165,120
Combo3 : 190,94,47
Combo4 : 255,106,103

[HitObjects]
488,125,2213,5,2,0:0:0:0:
488,125,2444,2,0,L|494:179,1,55,2|2,0:0|0:0,0:0:0:0:
462,274,2906,2,0,P|414:250|357:256,1,110,4|0,0:0|0:0,0:0:0:0:
288,323,3598,1,0,0:0:0:0:
269,171,3829,2,0,L|262:225,1,55,2|0,0:3|0:0,0:0:0:0:
196,352,4291,2,0,L|189:297,1,55,2|0,0:0|0:0,0:0:0:0:
303,65,4752,6,0,B|167:48|181:168|53:153,1,275,2|2,0:3|0:0,0:0:0:0:
269,171,6367,1,2,0:0:0:0:
368,181,6598,6,0,P|416:156|470:162,1,110,2|0,0:3|0:0,0:0:0:0:
434,254,7290,1,0,0:0:0:0:
492,183,7521,2,0,L|485:128,1,55,2|0,0:3|0:0,0:0:0:0:
346,270,7983,2,0,L|352:324,1,55,2|0,0:0|0:0,0:0:0:0:
280,206,8444,6,0,B|219:179|219:179|161:235|198:320,1,220,2|2,0:3|0:3,0:0:0:0:
59,123,10060,1,0,0:0:0:0:
5,40,10290,6,0,P|59:45|107:21,1,110,2|2,0:3|0:0,0:0:0:0:
224,6,10983,1,0,0:0:0:0:
179,113,11214,2,0,P|207:114|233:120,1,55,2|0,0:0|0:0,0:0:0:0:
330,54,11675,2,0,P|337:27|341:0,1,55,2|0,0:0|0:0,0:0:0:0:
482,31,12137,6,0,B|346:14|360:134|232:119,1,275,4|2,0:0|0:0,0:0:0:0:
233,119,13521,2,0,P|227:145|225:173,1,55,2|2,0:3|0:0,0:0:0:0:
127,284,13983,6,0,P|175:259|229:265,1,110,0|0,1:0|0:0,0:0:0:0:
244,259,14675,2,0,P|253:298|253:349,1,82.5,2|0,0:0|0:0,0:0:0:0:
353,284,15252,1,0,0:0:0:0:
365,277,15367,2,0,P|363:242|364:216,1,55,2|0,0:0|0:0,0:0:0:0:
284,70,15829,6,0,B|168:19|168:19|58:126|128:288,1,412.5,2|0,0:3|0:0,0:0:0:0:
126,283,17675,1,4,0:0:0:0:
424,30,18829,5,2,0:0:0:0:
424,30,19060,2,0,L|435:107,1,55
352,143,19521,2,0,L|338:240,1,82.5,2|0,0:3|0:0,0:0:0:0:
263,286,20098,1,0,0:0:0:0:
263,286,20213,1,0,0:0:0:0:
439,224,20444,6,0,B|348:216|353:294|263:286,1,192.5,2|0,0:0|0:0,0:0:0:0:
263,286,21367,1,4,0:0:0:0:
126,59,24136,5,2,3:2:0:0:
100,77,24367,1,2,3:2:0:0:
98,52,24598,1,2,3:2:0:0:
108,64,25060,6,0,B|65:45|65:45|25:84|51:143,1,154,4|0,0:0|0:0,0:0:0:0:
51,144,26906,1,0,0:0:0:0:
233,222,27136,5,0,0:0:0:0:
233,222,27367,1,2,0:3:0:0:
158,153,27598,1,0,0:0:0:0:
102,237,27829,2,0,P|155:200|217:205,1,123.750004720688,2|0,0:1|0:0,0:0:0:0:
247,140,28291,2,0,L|232:223,1,82.5000031471254,2|0,0:1|0:0,0:0:0:0:
310,363,28752,6,0,L|338:220,1,123.750004720688,0|0,1:0|0:0,0:0:0:0:
387,290,29214,2,0,L|372:208,1,82.5000031471254,2|0,0:0|0:0,0:0:0:0:
512,75,29675,2,0,L|497:156,1,82.5000031471254,2|0,0:3|0:0,0:0:0:0:
389,69,30137,2,0,L|307:83,1,82.5000031471254,2|0,0:0|0:0,0:0:0:0:
307,83,30598,1,2,0:3:0:0:
104,184,30829,5,0,0:0:0:0:
104,184,31060,1,2,0:0:0:0:
179,115,31290,1,0,0:0:0:0:
235,199,31522,2,0,P|182:162|120:167,1,123.750004720688,2|0,0:1|0:0,0:0:0:0:
89,102,31983,2,0,L|104:185,1,82.5000031471254,2|0,0:1|0:0,0:0:0:0:
138,364,32444,5,2,0:0:0:0:
33,287,32675,1,2,0:0:0:0:
33,287,32906,2,0,L|134:267,1,103.125003933907,2|2,0:0|0:3,0:0:0:0:
0,180,33483,1,0,0:0:0:0:
0,180,33598,1,2,0:0:0:0:
89,102,33829,2,0,L|104:185,1,82.5000031471254,2|0,0:0|0:0,0:0:0:0:
103,183,34290,1,2,0:3:0:0:
249,67,34521,5,0,0:0:0:0:
249,67,34752,1,2,0:0:0:0:
314,1,34983,1,0,0:0:0:0:
364,77,35213,2,0,B|316:66|316:66|298:47|298:47|249:40,1,123.750004720688,2|0,0:1|0:0,0:0:0:0:
248,66,35675,2,0,L|166:80,1,82.5000031471254,2|0,0:1|0:0,0:0:0:0:
0,180,36136,5,2,0:3:0:0:
89,102,36367,1,0,0:0:0:0:
149,163,36598,1,2,0:0:0:0:
56,102,36828,1,0,0:0:0:0:
156,43,37060,5,2,0:3:0:0:
204,237,37290,1,0,0:0:0:0:
236,153,37521,2,0,L|155:138,1,82.5000031471254,2|0,3:2|0:0,0:0:0:0:
69,288,37983,6,0,P|141:245|227:265,1,165.000006294251,4|0,0:0|0:0,0:0:0:0:
496,155,39829,6,0,P|507:102|489:46,1,110,4|0,1:2|0:0,0:0:0:0:
499,29,40175,2,0,B|455:5|455:5|416:21|375:22,1,110,0|0,1:0|0:0,0:0:0:0:
376,12,40521,1,2,1:3:0:0:
98,184,41213,2,0,B|51:163|51:163|8:205|36:269,1,165,0|0,1:0|0:0,0:0:0:0:
50,287,41675,5,8,1:2:0:0:
196,361,41906,1,0,3:0:0:0:
217,354,42021,2,0,B|262:332|262:332|300:350|341:353,1,110,0|0,3:0|0:0,0:0:0:0:
338,359,42367,1,0,1:0:0:0:
494,239,42598,2,0,P|505:186|487:130,1,110,2|0,1:3|0:0,0:0:0:0:
311,150,43060,2,0,P|364:157|408:190,1,110,2|0,1:3|0:0,0:0:0:0:
228,204,43521,6,0,P|214:151|227:98,1,110,4|0,1:2|0:0,0:0:0:0:
224,76,43867,2,0,B|205:76|166:60|166:60|122:84,1,110,0|0,1:0|0:0,0:0:0:0:
104,98,44213,1,2,1:3:0:0:
308,44,44444,2,0,P|322:96|310:149,1,110,0|0,1:2|0:0,0:0:0:0:
163,281,44906,2,0,B|116:260|116:260|73:302|101:366,1,165,0|0,1:0|0:0,0:0:0:0:
121,373,45367,5,8,1:2:0:0:
21,233,45598,1,0,0:0:0:0:
8,215,45714,2,0,B|8:196|24:157|24:157|0:113,1,110,0|0,1:0|0:0,0:0:0:0:
4,91,46060,1,0,1:0:0:0:
126,176,46290,1,2,1:3:0:0:
148,17,46521,1,2,1:3:0:0:
94,90,46752,2,0,L|240:111,1,110,2|2,1:3|0:0,0:0:0:0:
269,253,47214,6,0,L|377:237,1,110,4|0,1:2|3:0,0:0:0:0:
395,223,47560,1,0,1:0:0:0:
411,208,47675,2,0,L|465:216,1,55,0|0,3:0|0:0,0:0:0:0:
357,117,47906,1,2,1:3:0:0:
481,9,48137,2,0,L|460:155,1,110,0|2,0:0|0:2,0:0:0:0:
327,14,48598,2,0,B|280:-7|280:-7|237:35|265:99,1,165,0|0,1:0|0:0,0:0:0:0:
250,115,49060,5,8,1:2:0:0:
108,215,49290,1,0,3:0:0:0:
93,231,49406,1,0,1:0:0:0:
78,247,49521,2,0,L|84:303,1,55,0|0,3:0|0:0,0:0:0:0:
195,260,49752,1,2,1:3:0:0:
71,320,49983,1,0,0:0:0:0:
185,168,50213,1,2,1:2:0:0:
267,338,50444,2,0,L|376:351,1,110,2|0,1:3|0:0,0:0:0:0:
506,237,50906,5,0,1:3:0:0:
435,287,51136,1,0,3:0:0:0:
450,303,51252,1,0,1:0:0:0:
465,319,51368,2,0,L|459:375,1,55,2|0,3:0|0:0,0:0:0:0:
421,202,51598,1,2,1:3:0:0:
496,137,51829,2,0,L|386:123,1,110,0|0,0:0|1:0,0:0:0:0:
236,36,52290,2,0,B|189:15|189:15|146:57|174:121,1,165,2|0,1:3|0:0,0:0:0:0:
163,139,52752,5,2,0:0:0:0:
68,364,54598,6,0,P|52:308|74:240,1,121.000003692627,4|0,1:2|0:0,0:0:0:0:
91,256,54944,1,0,1:0:0:0:
38,48,55175,1,0,0:0:0:0:
38,48,55290,1,2,1:3:0:0:
125,163,55522,2,0,P|67:147|9:164,1,121.000003692627,2|0,0:0|0:0,0:0:0:0:
150,309,55983,2,0,P|231:342|319:308,1,181.500005538941,0|0,1:0|0:0,0:0:0:0:
331,292,56444,6,0,L|342:216,1,60.5000018463135,8|0,1:2|0:0,0:0:0:0:
416,85,56675,1,0,3:0:0:0:
432,102,56790,1,0,3:0:0:0:
449,119,56906,2,0,L|442:179,1,60.5000018463135,0|0,3:0|0:0,0:0:0:0:
301,85,57136,1,0,1:0:0:0:
424,204,57367,1,2,1:3:0:0:
256,247,57598,1,0,0:0:0:0:
329,180,57829,2,0,L|360:328,1,121.000003692627,2|0,1:3|0:0,0:0:0:0:
226,145,58291,6,0,P|209:87|224:29,1,121.000003692627,6|0,1:2|0:0,0:0:0:0:
241,13,58636,1,0,1:0:0:0:
329,180,58867,1,0,0:0:0:0:
329,180,58983,1,2,1:3:0:0:
416,83,59214,2,0,P|358:67|300:84,1,121.000003692627,0|0,1:2|0:0,0:0:0:0:
181,233,59675,2,0,B|129:210|129:210|82:255|113:325,1,181.500005538941,0|0,1:0|0:0,0:0:0:0:
103,348,60136,6,0,P|135:342|168:347,1,60.5000018463135,8|0,1:2|0:0,0:0:0:0:
42,194,60367,1,0,3:0:0:0:
32,217,60483,1,0,3:0:0:0:
26,240,60598,2,0,P|20:208|25:175,1,60.5000018463135,0|0,3:0|0:0,0:0:0:0:
140,74,60829,1,0,1:0:0:0:
35,10,61060,1,2,1:3:0:0:
119,163,61290,1,2,1:3:0:0:
213,17,61521,2,0,P|229:74|214:132,1,121.000003692627,2|2,1:3|0:0,0:0:0:0:
354,51,61983,6,0,P|411:35|469:52,1,121.000003692627,4|0,1:2|3:0,0:0:0:0:
461,75,62329,1,0,1:0:0:0:
452,97,62444,2,0,L|463:178,1,60.5000018463135,0|0,3:0|0:0,0:0:0:0:
351,297,62675,1,2,1:3:0:0:
441,240,62906,2,0,P|456:298|440:356,1,121.000003692627,2|2,0:0|1:2,0:0:0:0:
373,136,63367,2,0,P|289:166|207:133,1,181.500005538941,0|0,1:0|0:0,0:0:0:0:
191,152,63829,6,0,L|187:91,1,60.5000018463135,8|0,1:2|0:0,0:0:0:0:
32,0,64060,1,0,3:0:0:0:
53,10,64175,1,0,1:0:0:0:
75,21,64290,2,0,L|79:82,1,60.5000018463135,0|0,3:0|0:0,0:0:0:0:
77,221,64521,1,2,1:3:0:0:
104,97,64752,1,0,0:0:0:0:
172,260,64983,1,2,1:2:0:0:
0,220,65214,2,0,L|120:211,1,121.000003692627,2|0,1:3|0:0,0:0:0:0:
286,79,65675,5,0,1:2:0:0:
343,231,65906,1,0,3:0:0:0:
353,252,66021,1,0,1:0:0:0:
363,274,66136,2,0,L|426:282,1,60.5000018463135,0|0,3:0|0:0,0:0:0:0:
421,381,66367,1,2,1:3:0:0:
507,223,66598,2,0,P|523:280|508:338,1,121.000003692627,0|0,0:0|1:0,0:0:0:0:
410,187,67060,2,0,P|379:103|412:21,1,181.500005538941,2|0,1:3|0:0,0:0:0:0:
428,15,67522,6,0,B|483:3|483:3|512:57|492:108,1,165.000006294251,2|0,0:0|0:0,0:0:0:0:
479,362,69367,6,0,P|491:310|472:253,1,98.9999969787599,4|0,1:2|0:0,0:0:0:0:
481,246,69714,2,0,B|435:225|435:225|397:243|359:247,1,98.9999969787599,0|0,1:0|0:0,0:0:0:0:
370,236,70060,1,2,1:3:0:0:
136,357,70752,2,0,B|87:354|52:328|52:328|0:353,1,148.49999546814,0|0,1:0|0:0,0:0:0:0:
3,333,71213,5,8,1:2:0:0:
126,245,71444,1,0,3:0:0:0:
142,234,71560,1,0,3:0:0:0:
159,224,71675,2,0,L|151:162,1,49.4999984893799,0|0,3:0|0:0,0:0:0:0:
253,306,71906,1,2,1:3:0:0:
338,248,72137,2,0,L|351:392,1,98.9999969787599,4|0,0:0|0:0,0:0:0:0:
491,247,72598,2,0,P|503:195|484:138,1,98.9999969787599,4|0,0:0|0:0,0:0:0:0:
337,71,73060,6,0,L|238:79,1,98.9999969787599,4|0,1:2|0:0,0:0:0:0:
241,60,73406,2,0,B|195:39|195:39|157:57|119:61,1,98.9999969787599,0|0,1:0|0:0,0:0:0:0:
132,66,73752,1,2,1:3:0:0:
15,172,73983,2,0,P|4:219|16:267,1,98.9999969787599,8|0,1:2|0:0,0:0:0:0:
165,223,74444,2,0,B|214:220|248:194|248:194|301:219,1,148.49999546814,0|0,1:0|0:0,0:0:0:0:
299,199,74906,5,8,1:2:0:0:
377,296,75136,1,0,3:0:0:0:
361,307,75252,1,0,3:0:0:0:
345,318,75367,2,0,L|353:380,1,49.4999984893799,2|0,1:3|0:0,0:0:0:0:
402,201,75598,1,0,1:0:0:0:
238,306,75829,1,4,0:0:0:0:
424,384,76060,1,4,0:0:0:0:
345,318,76291,2,0,L|246:326,1,98.9999969787599,4|2,0:0|0:0,0:0:0:0:
165,223,76752,5,4,1:2:0:0:
92,124,76983,1,0,3:0:0:0:
76,135,77099,1,0,0:0:0:0:
60,146,77214,2,0,L|68:208,1,49.4999984893799,8|0,0:2|0:0,0:0:0:0:
210,111,77444,1,0,3:0:0:0:
148,240,77675,1,0,1:0:0:0:
197,90,77906,1,0,3:0:0:0:
318,205,78136,2,0,B|360:186|360:186|398:223|373:281,1,148.49999546814,8|0,0:2|0:0,0:0:0:0:
385,296,78598,5,4,0:0:0:0:
455,163,78829,1,0,3:0:0:0:
465,186,78945,1,0,3:0:0:0:
471,209,79060,2,0,P|477:177|471:146,1,49.4999984893799,8|0,1:2|0:0,0:0:0:0:
510,327,79290,1,0,3:0:0:0:
387,207,79521,1,0,1:2:0:0:
345,370,79752,1,2,3:0:0:0:
412,305,79983,2,0,L|313:313,1,98.9999969787599,10|0,1:2|0:0,0:0:0:0:
378,129,80444,5,4,1:2:0:0:
296,69,80675,1,0,3:0:0:0:
286,92,80791,1,0,0:0:0:0:
280,115,80906,2,0,P|274:83|280:52,1,49.4999984893799,8|0,0:2|0:0,0:0:0:0:
201,178,81136,1,0,3:0:0:0:
242,0,81367,1,0,1:0:0:0:
216,164,81598,1,0,3:0:0:0:
94,69,81829,2,0,B|51:50|51:50|13:87|38:145,1,148.49999546814,12|0,0:2|0:0,0:0:0:0:
34,163,82319,6,0,B|201:142|150:285|318:267|318:267|352:353|451:364|508:283|465:223|465:223|439:243|399:252,1,660.000025177003,2|0,0:0|0:0,0:0:0:0:
